#TITLE:No Hagas El Indio, Haz El Cherokee;
#SUBTITLE:;
#ARTIST:Cherry Coke;
#TITLETRANSLIT:;
#SUBTITLETRANSLIT:;
#ARTISTTRANSLIT:;
#GENRE:Makina;
#CREDIT:;
#BANNER:No Hagas El Indio Haz El Cherokee.png;
#BACKGROUND:No Hagas El Indio Haz El Cherokee-bg.png;
#LYRICSPATH:No Hagas El Indio Haz El Cherokee.lrc;
#CDTITLE:cdtitle.png;
#MUSIC:No Hagas El Indio Haz El Cherokee.ogg;
#OFFSET:1.488000;
#SAMPLESTART:12.020000;
#SAMPLELENGTH:15.000000;
#LASTBEATHINT:1.300902;
#SELECTABLE:YES;
#BPMS:0.000000=159.947006
;
#STOPS:
;
#BGCHANGES:0.000=1.000=0.000=0=1=1=StretchRewind====,
4.000=No Hagas El Indio Haz El Cherokee.avi=1.000=0=0=1=====,
99999=-nosongbg-=1.000=0=0=0 // don't automatically add -songbackground-
;
#KEYSOUNDS:;
#ATTACKS:;

//---------------dance-single - RaverAce----------------
#NOTES:
     dance-single:
     RaverAce:
     Beginner:
     6:
     0.287770,0.426709,0.512590,0.000000,0.000000,224.000000,167.000000,57.000000,0.000000,0.000000,0.000000,0.287770,0.426709,0.512590,0.000000,0.000000,224.000000,167.000000,57.000000,0.000000,0.000000,0.000000:
// measure 0
0000
0000
0000
0000
,  // measure 1
0000
0000
0000
0000
,  // measure 2
0000
0000
0000
0000
,  // measure 3
0000
0000
0000
0000
,  // measure 4
0000
0000
0000
0000
,  // measure 5
1001
0000
0000
0000
,  // measure 6
1001
0000
0000
0000
,  // measure 7
0110
0000
0000
0000
,  // measure 8
0110
0000
0000
0000
,  // measure 9
1001
1001
1001
0000
,  // measure 10
0100
0000
0100
0000
,  // measure 11
1001
1001
1001
0000
,  // measure 12
0010
0000
0010
0000
,  // measure 13
0110
0110
0110
0000
,  // measure 14
0100
0000
0010
0000
,  // measure 15
0110
0110
0110
0000
,  // measure 16
0010
0000
0100
0000
,  // measure 17
1001
0000
0000
1000
,  // measure 18
0001
0000
0001
0000
,  // measure 19
1001
0000
0000
0001
,  // measure 20
1000
0000
1000
0000
,  // measure 21
1001
0000
0000
1000
,  // measure 22
0100
0000
0010
0000
,  // measure 23
1001
0000
0001
0000
,  // measure 24
1001
0000
1000
0000
,  // measure 25
0010
1000
0010
0000
,  // measure 26
1000
0010
1000
0000
,  // measure 27
0010
1000
0010
0000
,  // measure 28
0100
0000
0100
0000
,  // measure 29
0001
1000
1001
0000
,  // measure 30
0100
0001
0100
0000
,  // measure 31
0001
1000
1001
0000
,  // measure 32
0001
0000
0001
0000
,  // measure 33
0010
0001
0010
0000
,  // measure 34
0001
0010
0001
0000
,  // measure 35
0010
0001
0010
0000
,  // measure 36
0100
0000
0100
0000
,  // measure 37
1000
0001
1001
0000
,  // measure 38
0100
1000
0100
0000
,  // measure 39
1000
0001
1001
0000
,  // measure 40
1000
0000
1000
0000
,  // measure 41
1001
0000
0000
0000
,  // measure 42
0100
0010
0100
0000
,  // measure 43
1001
0000
0000
0000
,  // measure 44
0001
1000
0000
0000
,  // measure 45
0110
0000
0000
0000
,  // measure 46
0010
0100
0010
0000
,  // measure 47
0110
0000
0000
0000
,  // measure 48
0100
0010
0000
1000
,  // measure 49
1001
0000
0000
0001
,  // measure 50
1000
0001
1000
0000
,  // measure 51
1001
0000
0000
1000
,  // measure 52
0001
1000
0000
0000
,  // measure 53
0110
0000
0000
0010
,  // measure 54
0100
0010
0100
0000
,  // measure 55
0110
0000
0000
0010
,  // measure 56
1001
1001
1000
0010
,  // measure 57
0110
0110
0110
0000
,  // measure 58
0100
0001
1000
0100
,  // measure 59
0110
0110
0110
0000
,  // measure 60
0100
1000
0001
1000
,  // measure 61
1001
1001
1001
0000
,  // measure 62
0100
0010
0001
1000
,  // measure 63
1001
1001
1001
0000
,  // measure 64
0010
0100
0001
1000
,  // measure 65
1001
1001
1001
0000
,  // measure 66
1000
0000
1000
0000
,  // measure 67
1001
1001
1001
0000
,  // measure 68
0001
0000
0001
0000
,  // measure 69
1001
0000
0100
0000
,  // measure 70
1001
0000
0100
0000
,  // measure 71
1001
0000
0010
0000
,  // measure 72
1001
0000
0010
0100
,  // measure 73
0001
0000
0000
0000
;

//---------------dance-single - RaverAce----------------
#NOTES:
     dance-single:
     RaverAce:
     Easy:
     8:
     0.391829,0.525180,0.548561,0.458633,0.000000,305.000000,244.000000,61.000000,51.000000,0.000000,0.000000,0.391829,0.525180,0.548561,0.458633,0.000000,305.000000,244.000000,61.000000,51.000000,0.000000,0.000000:
0000
0000
0000
0000
,
0000
0000
0000
0000
,
0000
0000
0000
0000
,
0000
0000
0000
0000
,
0000
0000
0000
0000
,
1002
1000
1000
2003
,
3200
0010
0010
0320
,
0032
0000
1000
0000
1003
0000
0001
1000
,
2002
0000
0000
3003
,
1001
1001
1001
0000
,
1100
0100
0001
0100
,
1100
1100
1100
0000
,
1000
0010
0100
0001
,
1001
1001
1001
0000
,
0101
0100
1000
0100
,
0101
0101
0101
0000
,
0001
0010
0100
1000
,
2010
0010
0010
3020
,
0230
0000
0000
0002
0000
0000
0303
0000
,
0012
0010
0010
0023
,
0230
0000
0000
2000
0000
0000
3300
0000
,
1002
1000
1000
2003
,
3020
0000
0000
0230
0000
0000
0302
0000
,
2003
0000
0000
3200
0000
0000
0302
0000
,
0203
0000
0000
2300
0000
0000
3001
0000
,
0100
0001
0101
0000
,
0100
0010
0110
0000
,
0100
0001
0101
0000
,
0001
0010
0100
0000
,
0100
1000
1100
0000
,
0100
0010
0110
0000
,
0100
1000
1100
0000
,
1000
0010
0100
0000
,
1001
0001
0010
1000
,
0010
0001
0010
1000
,
0010
0001
0010
1000
,
0010
0001
0100
0010
,
1001
1000
0010
0001
,
0010
1000
0010
0001
,
0010
1000
0010
0001
,
0010
1000
0100
0010
,
0210
1000
1000
2300
,
3002
0103
0220
0330
,
2010
0001
0001
3002
,
0023
0130
0200
0310
,
0120
0001
0001
0032
,
2003
3010
0220
0330
,
0102
1000
1000
2003
,
3200
0310
0020
0130
,
1100
1000
0010
0100
,
0110
0010
0100
0001
,
0011
0010
0100
1000
,
1100
1000
0001
0100
,
0101
0100
0010
0100
,
0110
0010
1000
0001
,
1001
1000
0100
0010
,
0110
0000
0110
0000
0100
0010
0110
0000
,
1001
1001
1001
0001
,
0100
1000
0100
0010
,
0110
0110
0110
0100
,
0001
0010
0100
1000
,
1001
1001
1001
1000
,
0100
0001
0100
0010
,
0110
0110
0110
0100
,
1000
0010
0100
0001
,
0102
0100
0100
0203
,
0010
0010
0010
0320
,
1000
1000
1000
2030
,
0001
0001
0001
3001
,
1002
0000
0103
0000
,
2001
0000
3100
0000
,
1002
0000
0013
0000
,
2001
0000
3010
0100
,
0110
0000
0000
0000
;

//---------------dance-single - RaverAce----------------
#NOTES:
     dance-single:
     RaverAce:
     Medium:
     11:
     0.486896,0.623651,0.503597,0.701439,0.000000,379.000000,323.000000,56.000000,78.000000,0.000000,0.000000,0.486896,0.623651,0.503597,0.701439,0.000000,379.000000,323.000000,56.000000,78.000000,0.000000,0.000000:
0000
0000
0000
0000
,
0000
0000
0000
0000
,
0000
0000
0000
0000
,
0000
0000
0000
0000
,
0000
0000
0000
0000
,
0210
0000
0010
0000
0310
0000
0010
0200
,
0000
0302
0000
2003
0000
3100
0010
0001
,
2000
0000
0001
0000
0001
0000
3001
1000
,
2002
0000
0000
3003
,
0011
0000
0011
0000
0011
0000
0001
0020
,
0000
0230
0000
0320
0000
0031
0100
0010
,
0110
0000
0110
0000
0110
0000
0100
0020
,
0000
2030
0000
3002
0000
0013
0100
1000
,
1010
0000
1010
0000
1010
0000
1000
0020
,
0000
0230
0000
0320
0000
1030
0100
0010
,
0110
0000
0110
0000
0110
0000
0100
0020
,
0000
0032
0000
2003
0000
3010
0100
0001
,
0020
0100
0100
0130
,
0210
0000
0000
2300
0000
0000
3001
0000
,
0200
0010
0010
0320
,
2030
0000
0000
3002
0000
0000
0013
0000
,
1002
1000
1000
2003
,
0200
3000
0000
0302
0000
0000
0203
0000
,
2300
0000
0000
3020
0000
0000
0032
0000
,
0023
0000
0000
2030
0000
0000
3001
0100
,
0001
0000
0001
0000
0101
0000
0000
0001
,
0010
0000
0010
0000
0011
0000
0000
0001
,
0100
0000
0100
0000
0101
0000
0000
0100
,
0020
0000
0000
2030
0000
0000
0000
3100
,
1000
0000
1000
0000
1100
0000
0000
1000
,
0010
0000
0010
0000
1010
0000
0000
1000
,
0100
0000
0100
0000
1100
0000
0000
0100
,
0020
0000
0000
0032
0000
0000
0000
0103
,
0010
0000
0010
0000
0110
0000
0100
0001
,
1000
0000
1000
0000
1001
0000
0001
0100
,
1000
0000
0100
0000
0110
0000
0100
0001
,
2000
0000
0000
3020
0000
0000
0000
0130
,
0010
0000
0010
0000
0110
0000
0100
1000
,
0001
0000
0001
0000
1001
0000
1000
0100
,
0001
0000
0100
0000
0110
0000
0100
1000
,
0002
0000
0000
0020
0000
0000
0033
0000
,
1002
0000
1000
0000
1000
0000
1003
0010
,
0100
0001
0010
0000
0012
0000
0000
0000
,
2003
0000
0010
0000
3010
0000
0010
1000
,
0010
0100
0010
0000
0100
0001
1000
0000
,
2001
0000
0001
0000
0001
0000
3001
0010
,
0100
1000
0010
0000
2010
0000
0000
0000
,
3002
0000
0010
0000
0013
0000
0010
0001
,
0010
0100
0010
0000
0100
1000
0001
0000
,
1001
1000
0001
1000
0100
1000
0100
0001
,
0100
1000
0010
0000
1020
0000
0130
0000
,
0110
0010
1000
0010
0100
0001
0010
1000
,
0010
0001
1000
0000
0010
1000
0001
0000
,
1001
0001
1000
0001
0100
0001
0100
1000
,
0100
0001
0010
0000
0021
0000
0130
0000
,
0110
0010
0001
0010
0100
1000
0001
0010
,
0110
0000
0110
0000
0100
0010
0110
0000
,
0011
0000
0011
0000
0011
0000
0001
0200
,
0000
0320
0000
0230
0000
0301
0010
0100
,
0110
0000
0110
0000
0110
0000
0010
0200
,
0000
2300
0000
3200
0000
0301
0100
1000
,
1010
0000
1010
0000
1010
0000
1000
0200
,
0000
0320
0000
0230
0000
1300
0010
0100
,
0110
0000
0110
0000
0110
0000
0010
0200
,
0000
0302
0000
0203
0000
1300
0100
0001
,
0020
0000
0001
0000
0001
0000
0031
2000
,
0000
3020
0000
0230
0000
0301
1000
0100
,
2000
0000
0010
0000
0010
0000
3010
0200
,
0000
0302
0000
0023
0000
0130
1000
0100
,
0010
0000
0100
0000
1100
0000
1000
0200
,
0000
0302
0000
0203
0000
1300
0010
0100
,
0001
0000
0100
0000
0101
0000
0100
0002
,
0000
0023
0000
0230
0000
0310
0100
1000
,
1001
0000
0000
0000
;

//---------------dance-single - RaverAce----------------
#NOTES:
     dance-single:
     RaverAce:
     Hard:
     13:
     0.617934,0.754946,0.323741,0.701439,0.202338,481.000000,445.000000,36.000000,78.000000,0.000000,0.000000,0.617934,0.754946,0.323741,0.701439,0.202338,481.000000,445.000000,36.000000,78.000000,0.000000,0.000000:
0000
0000
0000
0000
,
0000
0000
0000
0000
,
0000
0000
0000
0000
,
0000
0000
0000
0000
,
0000
0000
0000
0000
,
1200
0000
1000
0000
1300
0000
0100
2000
,
0000
3002
0000
0203
0000
1300
0100
0001
,
0020
0000
0001
0000
0001
0000
0031
1000
,
2002
0000
0000
3003
,
1010
0000
1001
0000
1010
0000
0010
0200
,
0000
0001
0000
1000
0000
0301
0010
0100
,
1100
0000
1001
0000
1100
0000
1000
0002
,
0000
0203
0000
2300
0000
3100
0001
0010
,
0011
0000
1001
0000
0011
0000
0010
0200
,
0000
1000
0000
0001
0000
1300
0010
0100
,
0101
0000
1001
0000
0101
0000
0001
2000
,
0000
3200
0000
0302
0000
0103
1000
0010
,
1020
1000
1000
2030
,
3002
0000
0100
0203
0000
0301
0010
0100
,
0120
0100
0100
0230
,
0320
0000
0031
0002
0000
1003
0001
0100
,
0201
0001
0001
0302
,
0203
0000
1000
2300
0000
0100
3200
0000
,
0302
0000
0010
0023
0000
1000
2030
0000
,
3020
0000
0000
0000
0001
0000
0032
0000
1000
0000
1003
0000
0001
1000
0001
1000
,
0001
0000
0000
0001
0010
0000
0000
0010
0001
0000
0010
0000
0100
0000
1000
0000
,
0010
0000
0000
0010
1000
0000
0000
1000
0010
0000
0100
0000
0001
0000
0010
0000
,
0100
0000
0000
0100
1000
0000
0000
1000
0100
0000
0010
0000
0001
0000
0100
0000
,
0020
0000
0000
0000
0130
0000
0002
0000
0000
0000
1003
0000
0100
0000
1000
0001
,
1000
0000
0000
1000
0010
0000
0000
0010
1000
0000
0010
0000
0100
0000
0001
0000
,
0010
0000
0000
0010
0001
0000
0000
0001
0010
0000
0100
0000
1000
0000
0010
0000
,
0100
0000
0000
0100
0001
0000
0000
0001
0100
0000
0010
0000
1000
0000
0100
0000
,
0020
0000
0000
0000
0130
0000
2000
0000
0000
0000
3001
0000
0100
0000
0001
1000
,
0001
0000
1000
0010
1000
0000
0010
0100
0010
0000
0100
0000
0001
0000
1000
0100
,
1000
0000
0100
0010
0100
0000
0010
0001
0010
0000
0100
0000
1000
0000
0001
1000
,
0001
0000
1000
0010
1000
0000
0010
0100
0010
0000
0100
0000
0001
0000
1000
0000
,
0020
0000
0000
0000
0031
0000
0020
0000
0000
0000
1030
0000
0100
0000
1000
0001
,
1000
0000
0001
0010
0001
0000
0010
0100
0010
0000
0100
0000
1000
0000
0001
0100
,
0001
0000
0100
0010
0100
0000
0010
1000
0010
0000
0100
0000
0001
0000
1000
0001
,
1000
0000
0001
0010
0001
0000
0010
0100
0010
0000
0100
0000
1000
0000
0001
0000
,
0020
0000
0000
0000
1030
0000
0010
0000
0001
0000
0001
0000
0001
0000
1000
0001
,
0100
0010
0200
0000
0001
0000
0000
0000
0001
0000
0000
0000
0301
0000
0010
0000
,
0100
1000
0010
0000
0102
0000
0013
0000
,
0010
0100
0020
0000
0100
0000
0000
0000
0031
0000
1000
0000
0010
0000
0100
0000
,
0001
0000
0011
0000
0010
0001
2000
0000
,
3100
0010
0200
0000
1000
0000
0000
0000
1000
0000
0000
0000
1300
0000
0010
0000
,
0100
0001
0010
0000
2100
0000
3010
0000
,
0010
0100
0020
0000
0100
0000
0000
0000
1030
0000
0001
0000
0010
0000
0100
0000
,
1000
0000
0010
0000
1010
0000
0000
0000
0010
0000
1000
0000
0001
0000
0010
0100
,
1000
0001
1000
0000
0100
0000
0010
0000
0100
0000
1000
0000
0100
0000
0001
0000
,
0100
1000
0010
0000
0210
0000
0302
0000
,
0013
0100
0010
0000
0100
0000
1000
0000
0100
0000
0010
0000
0001
0000
1000
0000
,
0001
0010
0021
0000
0130
1000
1001
0000
,
0001
1000
0001
0000
0100
0000
0010
0000
0100
0000
0001
0000
0100
0000
1000
0000
,
0100
0001
0010
0000
0210
0000
2300
0000
,
3010
0100
0010
0000
0100
0000
0001
0000
0100
0000
0010
0000
1000
0000
0001
0000
,
1001
0000
1001
0000
0001
1000
1001
0000
,
1100
0100
0001
0100
1000
0100
0010
0002
,
0000
0023
0000
2030
0000
3010
0001
0100
,
0010
1000
0010
0001
0010
0100
0001
0020
,
0000
0230
0000
0320
0000
0031
0001
1000
,
0001
0100
1000
0100
0001
0100
0010
2000
,
0000
3020
0000
0032
0000
0013
1000
0100
,
0010
0001
0010
1000
0010
0100
1000
0020
,
0000
0000
0230
0000
0000
0000
0320
0000
0000
0000
1030
0000
1000
0000
0100
0010
,
1001
0000
1010
0000
1001
0000
0001
0020
,
0000
0230
0000
2300
0000
3010
0100
0001
,
1001
0000
0011
0000
1001
0000
1000
0020
,
0000
0000
0230
0000
0000
0000
0302
0000
0000
0000
0013
0000
0100
0000
1000
0001
,
0200
0000
0001
0000
0301
0000
0100
0002
,
0000
2003
0000
3200
0000
0301
0100
1000
,
0020
0000
1000
0000
1000
0000
0130
0020
,
0000
2030
0000
3002
0000
0013
0100
1000
,
1001
0000
0000
0000
;

//---------------dance-double - RaverAce----------------
#NOTES:
     dance-double:
     RaverAce:
     Easy:
     6:
     0.268499,0.459532,0.359712,0.251799,0.000000,209.000000,169.000000,40.000000,28.000000,0.000000,0.000000,0.268499,0.459532,0.359712,0.251799,0.000000,209.000000,169.000000,40.000000,28.000000,0.000000,0.000000:
00000000
00000000
00000000
00000000
,
00000000
00000000
00000000
00000000
,
00000000
00000000
00000000
00000000
,
00000000
00000000
00000000
00000000
,
00000000
00000000
00000000
00000000
,
10010000
00000000
00000000
00000000
,
01000000
00000000
00000000
00000000
,
10000000
00000000
00010000
00000000
,
10010000
00000000
00000000
00000000
,
00011000
00000000
00001000
00000000
,
00010000
00000000
00000100
00000000
,
00001000
00000000
00000100
00000000
,
00000010
00000000
00000100
00000000
,
00011000
00000000
00010000
00000000
,
00001000
00000000
01000000
00000000
,
00010000
00000000
01000000
00000000
,
00100000
00000000
01000000
00000000
,
02010000
00000000
00000000
00000000
,
03002000
00000000
00000000
00000000
,
00023000
00000000
00000000
00000000
,
00030200
00000000
00000000
00000000
,
00002300
00000000
00000000
00000000
,
00003200
00000000
00000000
00000000
,
00020300
00000000
00000000
00000000
,
00032000
00000000
00000000
00000000
,
01003000
01000000
01000000
00000000
,
00100000
00100000
00100000
00000000
,
10000000
10000000
10000000
00000000
,
00100000
00000000
01000000
00000000
,
00001000
00001000
00011000
00000000
,
00010000
00010000
00010000
00000000
,
00000100
00000100
00001100
00000000
,
00001000
00000000
00000010
00000000
,
00000110
00000100
00000001
00000000
,
00000001
00001000
00000100
00000000
,
00000100
00010000
00001000
00000000
,
00011000
00000000
00011000
00000000
,
00010000
00100000
01100000
00000000
,
01000000
10000000
00010000
00000000
,
00010000
10000000
10100000
00000000
,
00200000
00000000
01300000
00000000
,
02100000
00000000
00000000
03010000
,
00100000
00001000
00020000
00000000
,
00030200
00000000
00000000
00001300
,
00000001
00001000
00000100
00000100
,
00000210
00000000
00000000
00001300
,
00000010
00010000
00002000
00000000
,
02003000
00000000
00000000
03010000
,
10000000
00010000
01000000
01000000
,
01100000
00100000
10000000
00100000
,
10000000
00010000
20000000
00000000
,
31000000
00100000
00001000
00010000
,
00000100
00001000
00000100
00000100
,
00000110
00000010
00000001
00000010
,
00000001
00001000
00000002
00000000
,
00000103
00000010
00010000
00001000
,
00011000
00011000
00020000
00031000
,
00001100
00001100
00001100
00000000
,
00000100
00010000
00001000
00100000
,
00110000
00110000
00110000
00000000
,
00010000
10000000
00100000
01000000
,
10100000
10100000
10100000
00000000
,
10000000
00010000
01000000
00001000
,
00011000
00011000
00011000
00000000
,
00010000
00000010
00001000
00000100
,
00001100
00001100
00001100
00000000
,
00002000
00000000
00003001
00000000
,
00000101
00000101
00000101
00000000
,
00000002
00000000
00001003
00000000
,
00002200
00000000
00003300
00000000
,
00022000
00000000
00033000
00000000
,
02020000
00000000
03030000
00000000
,
00021000
00000000
00030200
00000000
,
00001300
00000000
00000000
00000000
;

//---------------dance-double - RaverAce----------------
#NOTES:
     dance-double:
     RaverAce:
     Medium:
     11:
     0.495889,0.590827,0.539568,0.602518,0.000000,386.000000,326.000000,60.000000,67.000000,0.000000,0.000000,0.495889,0.590827,0.539568,0.602518,0.000000,386.000000,326.000000,60.000000,67.000000,0.000000,0.000000:
00000000
00000000
00000000
00000000
,
00000000
00000000
00000000
00000000
,
00000000
00000000
00000000
00000000
,
00000000
00000000
00000000
00000000
,
00000000
00000000
00000000
00000000
,
01010000
00000000
01010000
00000000
01010000
00000000
00010000
02000000
,
00000000
03200000
00000000
20300000
00000000
30010000
01000000
00001000
,
00011000
00000000
00011000
00000000
00011000
00000000
00010000
00000100
,
00002200
00000000
00000000
00003300
,
00001001
00000000
00001001
00000000
00001001
00000000
00000001
00002000
,
00000000
00003200
00000000
00000320
00000000
00000130
00010000
00001000
,
00011000
00000000
00011000
00000000
00011000
00000000
00001000
00200000
,
00000000
02300000
00000000
23000000
00000000
30100000
01000000
00010000
,
10010000
00000000
10010000
00000000
10010000
00000000
10000000
00020000
,
00000000
02030000
00000000
03200000
00000000
01300000
00001000
00010000
,
00011000
00000000
00011000
00000000
00011000
00000000
00010000
00000020
,
00000000
00000230
00000000
00000302
00000000
00000013
00000100
00001000
,
00001200
00001000
00001000
00002300
,
00003002
00000000
00000000
00000203
00000000
00000000
00000000
00000000
,
00000320
00001000
00001000
00002030
,
00003200
00000000
00000000
00020000
00000000
00000000
00030300
00000000
,
00102000
00100000
00100000
00203000
,
00320000
00000000
00000000
02030000
00000000
00000000
23000000
00000000
,
32000000
00000000
00000000
03020000
00000000
00000000
20030000
00000000
,
32000000
00000000
00000000
03200000
00000000
00000000
00310000
10000000
,
00010000
01000000
01010000
00000000
,
00001000
00010000
00011000
00000000
,
00001000
00000100
00001100
00000000
,
00000100
00001000
00000010
00000000
,
00001000
00000100
00001100
00000000
,
00010000
00001000
00011000
00000000
,
00010000
01000000
01010000
00000000
,
01000000
00010000
00100000
00000000
,
01100000
01000000
10000000
00100000
,
01000000
00010000
01000000
00001000
,
00010000
00001000
00000100
00000010
,
00000001
00001000
00001010
00000000
,
00000110
00000100
00000101
00000001
,
00000010
00010000
00000100
00010000
,
00001000
00100000
01100000
01000000
,
10000000
00000000
00010000
00000000
01000000
00001000
00010000
00000100
,
00001200
00000000
00001000
00000000
00001300
00000000
00001000
00000100
,
00001000
00000001
00001000
00000000
00001200
00000000
00000000
00000000
,
00001300
00000001
00000100
00000000
00000010
00001000
00000100
00010000
,
00001000
00100000
00010000
00000000
10000000
00010000
01000000
00000000
,
02010000
00000000
00010000
00000000
03010000
00000000
00010000
01000000
,
00010000
10000000
00010000
00000000
02010000
00000000
00000000
00000000
,
03010000
10000000
01000000
00000000
00100000
00010000
01000000
00001000
,
00010000
00000010
00001000
00000000
00000001
00001000
00000100
00000010
,
00000110
00000100
00001000
00000001
00000100
00000010
00000100
00000001
,
00001000
00000100
00010000
00000000
00020200
00000000
00030300
00000000
,
00011000
00001000
00100000
00000000
00100000
01000000
10000000
00010000
,
01000000
00010000
10000000
00000000
10000000
00100000
01000000
00000000
,
01100000
01000000
00010000
10000000
01000000
00100000
01000000
10000000
,
00010000
01000000
00001000
00000000
02002000
00000000
03003000
00000000
,
00011000
00010000
00000010
00000000
00000010
00000100
00000001
00001000
,
00001100
00000000
00001100
00000000
00000100
00001000
00001100
00000000
,
00011000
00001000
00100000
00010000
01000000
00100000
10000000
00200000
,
00000000
02300000
00000000
03020000
00000000
10030000
01000000
00100000
,
00010000
00100000
01000000
10000000
00010000
01000000
00100000
20000000
,
00000000
30200000
00000000
02300000
00000000
03001000
00100000
00001000
,
00011000
00010000
00000010
00001000
00000100
00000010
00000001
00000020
,
00000000
00000230
00000000
00002300
00000000
00003001
00000100
00000010
,
00001000
00000010
00000100
00000001
00001000
00000100
00000010
00000002
,
00000000
00000023
00000000
00000230
00000000
00010300
00000010
00010000
,
00011000
00000000
00011000
00000000
00011000
00000000
00001000
00020000
,
00000000
00030200
00000000
00002300
00000000
00003010
00010000
00001000
,
00011000
00000000
00011000
00000000
00011000
00000000
00010000
00002000
,
00000000
02003000
00000000
03020000
00000000
00130000
00001000
01000000
,
01010000
00000000
01010000
00000000
01010000
00000000
00010000
20000000
,
00000000
30020000
00000000
02030000
00000000
03001000
00010000
00000100
,
00001100
00000000
00001100
00000000
00001100
00000000
00000100
00020000
,
00000000
00030020
00000000
00002030
00000000
00003100
00010000
00001000
,
01001000
00000000
00000000
00000000
;

//---------------dance-double - RaverAce----------------
#NOTES:
     dance-double:
     RaverAce:
     Hard:
     13:
     0.565262,0.623651,0.503597,0.665468,0.094424,440.000000,384.000000,56.000000,74.000000,0.000000,0.000000,0.565262,0.623651,0.503597,0.665468,0.094424,440.000000,384.000000,56.000000,74.000000,0.000000,0.000000:
00000000
00000000
00000000
00000000
,
00000000
00000000
00000000
00000000
,
00000000
00000000
00000000
00000000
,
00000000
00000000
00000000
00000000
,
00000000
00000000
00000000
00000000
,
00000011
00000000
00000011
00000000
00000011
00000000
00000001
00002000
,
00000000
00003200
00000000
00020300
00000000
00031000
00100000
00010000
,
01010000
00000000
01010000
00000000
01010000
00000000
01000000
00100000
,
20200000
00000000
00000000
30300000
,
11000000
00000000
11000000
00000000
11000000
00000000
01000000
20000000
,
00000000
30020000
00000000
02030000
00000000
13000000
01000000
00010000
,
10000000
00000000
11000000
00000000
00110000
00000000
00100000
00002000
,
00000000
00023000
00000000
00030200
00000000
00001300
00000010
00000100
,
00000101
00000000
00000101
00000000
00000101
00000000
00000100
00000002
,
00000000
00002003
00000000
00003200
00000000
00000301
00000100
00001000
,
00000001
00000000
00000101
00000000
00001010
00000000
00000010
00020000
,
00000000
00032000
00000000
02003000
00000000
03010000
00100000
01000000
,
02100000
10000000
10000000
23000000
,
30020000
00000000
00000000
02030000
00000000
00000000
00000000
00000000
,
03002000
00010000
00010000
00023000
,
00030200
00000000
00000000
00002300
00000000
00000000
00000000
00000000
,
00003020
00001000
00001000
00002030
,
00003200
00000000
00000000
00020300
00000000
00000000
00032000
00000000
,
02003000
00000000
00000000
03200000
00000000
00000000
02300000
00000000
,
03002000
00000000
00000000
00023000
00000000
00000000
00030100
00001000
,
00000001
00000000
00000101
00000000
00000110
00000000
00000100
00000001
,
00000101
00000000
00000110
00000000
00000101
00000000
00000001
00000010
,
00000011
00000000
00001001
00000000
00001100
00000000
00000100
00010000
,
00002000
00000000
00000000
02003000
00000000
00000000
03100000
00100000
,
10000000
00000000
11000000
00000000
01100000
00000000
01000000
10000000
,
11000000
00000000
01100000
00000000
11000000
00000000
10000000
00100000
,
10100000
00000000
10010000
00000000
01010000
00000000
01000000
00001000
,
00020000
00000000
00000000
00030200
00000000
00000000
00000310
00000010
,
00000001
00000000
00000000
00000010
00000001
00000000
00000000
00000001
00001000
00000000
00000010
00000000
00000100
00000000
00000010
00000000
,
00001000
00000000
00000000
00001000
00000100
00000000
00000000
00000100
00010000
00000000
00001000
00000000
00100000
00000000
00010000
00000000
,
01000000
00000000
00000000
01000000
00100000
00000000
00000000
00100000
10000000
00000000
00100000
00000000
01000000
00000000
00010000
00000000
,
20000000
00000000
31000000
00020000
00000000
01030000
10000000
00100000
,
10000000
00000000
00000000
00100000
10000000
00000000
00000000
10000000
00010000
00000000
00100000
00000000
01000000
00000000
00100000
00000000
,
00010000
00000000
00000000
00010000
01000000
00000000
00000000
01000000
00001000
00000000
00010000
00000000
00000010
00000000
00001000
00000000
,
00000100
00000000
00000000
00000100
00000010
00000000
00000000
00000010
00000001
00000000
00000010
00000000
00000100
00000000
00001000
00000000
,
00000002
00000000
00000103
00000020
00000000
00001030
00000100
00010000
,
00001000
00010000
00002000
00000000
00010000
00000000
00000000
00000000
00010000
00000000
00000000
00000000
00013000
00000000
00001000
00000000
,
00100000
00010000
01000000
00000000
01100000
00000000
01010000
00000000
,
00010000
10000000
00020000
00000000
10000000
00000000
00000000
00000000
10030000
00000000
01000000
00000000
00100000
00000000
00001000
00000000
,
01000000
00001000
00010000
00000000
00001000
00010000
00000010
00000000
,
00010000
00001000
00020000
00000000
00001000
00000000
00000000
00000000
00001000
00000000
00000000
00000000
00031000
00000000
00010000
00000000
,
00000010
00001000
00000100
00000000
00000110
00000000
00001100
00000000
,
00001000
00000001
00002000
00000000
00000001
00000000
00000000
00000000
00003001
00000000
00000100
00000000
00000010
00000000
00010000
00000000
,
00000100
00000000
00010000
00000000
00001000
00000000
00000000
00000000
00010000
00000000
00001000
00000000
00100000
00000000
00001000
00100000
,
00010000
10000000
00010000
00000000
00100000
00000000
01000000
00000000
10000000
00000000
00100000
00000000
01000000
00000000
00010000
00000000
,
00100000
00001000
00010000
00000000
00021000
00000000
00030100
00000000
,
00000100
00001000
00000100
00000000
00001000
00000000
00000010
00000000
00000100
00000000
00000001
00000000
00000010
00000000
00000100
00000000
,
00001000
00000001
00000100
00000000
00000001
00001000
00000100
00000000
,
00001000
00000001
00001000
00000000
00000010
00000000
00000100
00000000
00000001
00000000
00000010
00000000
00000100
00000000
00001000
00000000
,
00000010
00010000
00001000
00000000
00012000
00000000
01003000
00000000
,
01000000
00010000
01000000
00000000
00010000
00000000
00100000
00000000
01000000
00000000
10000000
00000000
00010000
00000000
01000000
00000000
,
01001000
00000000
01001000
00000000
01000000
00001000
00011000
00000000
,
00010100
00000100
00001000
00000010
00000100
00000001
00001000
00000200
,
00000000
00000320
00000000
00000032
00000000
00000103
00001000
00000100
,
00000001
00000010
00000100
00010000
00001000
00100000
00010000
20000000
,
00000000
30200000
00000000
02300000
00000000
03100000
01000000
00001000
,
01001000
01000000
00010000
00100000
01000000
10000000
00010000
02000000
,
00000000
03200000
00000000
20300000
00000000
31000000
00010000
01000000
,
10000000
00100000
01000000
00001000
00010000
00000010
00001000
00000002
,
00000000
00000023
00000000
00000230
00000000
00001300
00000100
00000010
,
00000110
00000000
00000110
00000000
00000110
00000000
00000100
00002000
,
00000000
00003020
00000000
00020030
00000000
00031000
00100000
00010000
,
10010000
00000000
10010000
00000000
10010000
00000000
10000000
02000000
,
00000000
03020000
00000000
02030000
00000000
13000000
00100000
01000000
,
02100000
00000000
00010000
00000000
00010000
00000000
03010000
00200000
,
00000000
00302000
00000000
00023000
00000000
00030100
00010000
00001000
,
00011000
00000000
00011000
00000000
00011000
00000000
00010000
00000200
,
00000000
00002300
00000000
00003020
00000000
00000130
00000001
00001000
,
00001001
00000000
00000000
00000000
;
