#TITLE:Nihilism;
#SUBTITLE:(Another ver.);
#ARTIST:Nato;
#TITLETRANSLIT:;
#SUBTITLETRANSLIT:;
#ARTISTTRANSLIT:;
#GENRE:;
#CREDIT:;
#MUSIC:Nihilism (Another ver.).ogg;
#BANNER:Banner.png;
#BACKGROUND:BG.png;
#CDTITLE:;
#SAMPLESTART:0.000;
#SAMPLELENGTH:0.000;
#SELECTABLE:YES;
#OFFSET:-1.397;
#BPMS:0.000=190.000
,160.000=95.000
,196.000=190.000
;
#STOPS:;
#BGCHANGES:;
#FGCHANGES:;

//--------------- dance-single - Maractus (X-Scale) ----------------
#NOTES:
     dance-single:
     Maractus (X-Scale):
     Challenge:
     15:
     0,0,0,0,0:
0000
0000
0000
0000
,
0000
0000
0000
0000
,
0000
0000
0000
0000
,
0000
0000
0000
0000
,
0000
0000
0000
0000
,
0000
0000
0000
0000
,
0000
0000
0000
0000
,
0000
0000
0000
0000
,
2001
0000
3001
0100
0000
0010
1000
0100
,
0010
0000
0001
0000
1000
0000
0100
0000
1000
0000
0001
0100
0001
0000
1000
0000
,
0002
0000
1003
0100
0000
0010
0001
0100
,
0010
0000
1000
0000
0001
0000
0100
0000
0001
0000
1000
0100
1000
0000
0001
0000
,
2000
0000
3001
0010
0000
0100
1000
0010
,
0100
0000
0001
0000
1000
0000
0010
0000
1000
0000
0001
0010
0001
0000
1000
0000
,
0002
0000
1003
0010
0000
0100
0001
0010
,
0100
0000
1000
0000
0001
0000
0010
0000
0001
0000
1000
0010
1000
0000
0001
0000
,
2001
0000
3001
0010
0000
0100
1000
0010
,
0100
0000
0001
0000
1000
0000
0010
0000
1000
0000
0001
0010
0001
0000
1000
0000
,
0002
0000
1003
0010
0000
0100
0001
0010
,
0100
0000
1000
0000
0001
0000
0010
0000
0001
0000
1000
0010
1000
0000
0001
0000
,
2000
0000
3001
0100
0000
0010
1000
0100
,
0010
0000
0001
0000
1000
0000
0100
0000
1000
0000
0001
0100
0001
0000
1000
0000
,
0002
0000
1003
0100
0000
0010
0001
0100
,
0020
0000
0000
0000
0000
2000
0030
0000
3100
0010
0001
1000
0010
0100
0001
0010
,
0002
0000
1003
0010
0000
1000
0100
0010
,
0001
0200
0000
0301
0000
1000
0010
0100
,
0001
0020
0000
0031
0000
1000
0001
0010
,
0100
0000
2000
0000
0000
0000
3002
0000
0000
0000
1003
0000
0010
0100
0010
0000
,
2000
0000
3001
0010
0000
0001
0100
0010
,
1000
0200
0000
1300
0000
0001
0010
0100
,
1000
0020
0000
1030
0000
0001
1000
0010
,
0100
0000
0002
0000
0000
0000
1003
0000
0001
0010
0001
0000
1000
0010
1000
0000
,
0002
0000
1003
0100
0000
1000
0010
0100
,
0001
0020
0000
0031
0000
1000
0100
0010
,
0001
0200
0000
0301
0000
1000
0001
0100
,
0010
0000
2000
0000
0000
0000
3002
0000
0000
0000
1003
0000
0100
0010
0100
0000
,
2000
3002
0000
0013
0000
0100
1000
0001
,
0100
2000
0000
3100
0000
0001
1000
0010
,
0001
0020
0000
0000
1030
0000
0001
0100
,
0100
0001
0000
1000
0100
0100
1000
0000
,
0002
0000
0000
0000
,
2003
0000
0000
3001
0100
0000
0001
0000
1000
0000
0000
0000
0001
0000
0000
0000
,
2000
0000
0000
3100
1000
0000
0001
0000
1000
0000
0000
0001
0100
0010
1000
0100
,
0010
0000
0000
0001
0010
0000
0001
0000
1000
0000
0000
0010
1000
0000
0001
0000
,
2000
0000
0000
3010
0100
0000
0001
0000
2000
0000
3200
0000
0320
0000
0032
0000
,
2003
0000
0000
0000
3001
0100
0000
0000
0201
0000
0000
0301
0010
0100
1000
0010
,
0100
0001
0000
0100
0001
0000
2000
0000
3002
0000
0000
1003
0100
0000
1000
0000
,
1200
0000
0000
1300
0010
0000
0200
0000
0302
0000
0000
0000
0013
0200
0000
0000
,
2300
0000
0000
0000
0000
0000
3010
0000
0100
0000
0000
0000
0002
0000
0000
0000
1003
0000
0100
0000
0010
0000
0001
0000
1000
0000
0000
0001
0100
0000
0010
0000
,
2000
0000
0000
0000
,
0002
0000
3003
0000
1000
0100
0010
0001
1000
0010
0100
0010
1000
0001
0010
0100
,
1000
0000
0010
1000
0000
0010
0100
0001
,
0010
0001
0000
1000
0000
0001
0100
0001
,
0010
0001
0000
1000
0000
0010
1000
0001
,
1000
0100
0001
0100
1000
0010
0001
0010
,
1000
0000
0100
1000
0010
0001
0010
1000
,
0100
0000
1000
0001
0010
1000
0010
0001
,
0100
0001
0000
1000
0000
0100
1000
0010
,
0100
0000
0001
0000
0010
0000
0100
0000
1000
0010
0100
0001
0010
0100
0010
0001
,
1000
0000
0100
1000
0000
0100
0010
0001
,
0100
0001
0000
1000
0000
0001
0010
0001
,
0100
0001
0000
1000
0000
0100
1000
0001
,
1000
0010
0001
0010
1000
0100
0001
0100
,
1000
0000
0010
1000
0100
0001
0100
1000
,
0010
0000
1000
0001
0100
1000
0100
0001
,
0010
0001
0000
1000
0000
0010
1000
0100
,
1001
0000
0000
0000
0000
0000
0110
0000
0000
0000
1001
0000
0001
0100
0010
1000
,
0001
0000
1000
0000
0100
0010
0000
0100
0010
0000
0001
0000
0100
0010
0000
0100
,
0010
0000
1000
0000
0100
0010
0000
0100
0010
0000
0001
0000
0100
0010
0000
0100
,
0010
1000
0100
0010
0001
0100
1000
0100
,
0001
0100
0010
1000
0010
0100
0001
0010
,
0200
0000
1300
0010
1000
0001
0010
0100
,
2000
0000
3100
1000
0001
0010
0100
1000
,
0001
1000
0001
0000
0100
0000
0020
0000
0000
0000
1030
0000
0100
0000
0010
0000
,
0001
1000
0100
0000
1000
0001
0100
0000
0001
1000
0100
0000
0001
1000
0100
0000
,
1002
0000
1003
0100
0001
0100
1000
0001
,
0100
0010
1000
0001
0010
1000
0010
0001
,
1000
0010
1000
0000
0001
0000
0010
0000
0001
0000
1000
0100
1000
0000
0001
0000
,
2000
3002
0203
0320
2030
3200
0320
0032
,
2003
0000
3001
1000
0100
0001
0100
1000
,
0002
0000
0000
0000
1003
0000
0001
0010
0100
1000
0100
0010
0001
0000
1000
0000
,
0002
0000
0103
0000
0010
1000
0000
0010
0100
0000
0001
0000
0010
0000
1000
0000
,
0010
0001
0100
1000
0100
0001
0010
0100
,
2000
0000
0000
0000
,
0000
0000
0000
0000
,
0000
0000
0000
0000
,
0000
3000
0000
0000
0000
0000
0000
0000
0000
0000
0000
0000
0000
0000
0000
0000
;
