#TITLE:니 팔자야;
#SUBTITLE:;
#ARTIST:노라조;
#TITLETRANSLIT:Ni paljaya;
#SUBTITLETRANSLIT:;
#ARTISTTRANSLIT:Norazo;
#GENRE:K-electrorock;
#CREDIT:tikal.;
#MUSIC:fortune.ogg;
#BANNER:bn.png;
#BACKGROUND:bg.png;
#CDTITLE:;
#SAMPLESTART:44.870;
#SAMPLELENGTH:25.600;
#SELECTABLE:YES;
#OFFSET:-0.470;
#BPMS:0.000=150.000;
#STOPS:;
#BGCHANGES:;
#FGCHANGES:;

//--------------- dance-single - tikal. ----------------
#NOTES:
     dance-single:
     tikal.:
     Hard:
     12:
     0,0,0,0,0:
0000
0000
0000
0000
,
0000
0000
0000
0000
,
0000
0000
0000
0000
,
0000
0000
0000
0000
,
1000
1000
1000
1000
,
0100
1000
0010
1000
0200
0000
0320
0000
,
0031
0001
0001
0001
,
0100
0001
0010
0001
0200
0000
0320
0000
,
1030
1000
0001
0001
,
1000
0100
0010
0100
0001
0100
0010
0100
,
2002
0000
0000
3003
,
0220
0000
0000
0330
1010
0000
0011
0000
,
0001
0000
0000
0001
0100
0000
0000
0000
0001
0000
0000
0001
1000
0000
0001
0000
,
0001
0000
0010
0000
1000
0000
0010
0000
0001
0000
0000
1000
0001
0000
0001
0000
,
1000
0000
0000
1000
0100
0000
0000
0000
1000
0000
0000
1000
0001
0000
1000
0000
,
1000
0000
0010
0000
0001
0000
0010
0000
1000
0000
0000
0001
1000
0000
1000
0000
,
0100
0000
0000
0010
0001
0000
0000
0000
0100
0000
0000
0010
1000
0000
0001
0000
,
0001
0100
0010
0100
1000
0100
0010
0100
,
2002
0000
0000
3003
,
0110
1000
0001
1001
,
1000
0000
0000
0010
0000
0000
0100
0000
0000
0001
0000
0001
1000
0000
1000
0000
,
0001
0000
0000
0010
0000
0000
0100
0000
1000
0010
0000
0100
0000
0010
1000
0000
,
0001
0000
0000
0100
0000
0000
0010
0000
0000
1000
0000
1000
0001
0000
0001
0000
,
1000
0100
0001
0010
1000
0000
1001
0000
,
0011
0000
0000
0010
0000
0000
1001
0000
0000
0000
0000
0000
0001
0000
1000
0000
,
1010
0000
0000
0010
0000
0000
1001
0000
0000
0000
0000
0000
1000
0000
0001
0000
,
0101
0000
0000
0100
0000
0000
1001
0000
0000
0000
1000
0000
0100
0000
0002
0000
,
0000
0000
0000
0103
0000
0000
0010
0000
0000
0100
0000
0000
2000
0000
0000
0000
0000
0000
3001
0000
0100
0000
0001
0000
,
0020
0000
0130
1000
0001
0100
0M00
1000
,
0001
0000
0000
0100
0000
0000
0M00
0000
0000
1000
0000
0000
0001
0000
0000
0100
0000
0000
0001
0000
0010
0000
0001
0000
,
0200
0000
0310
1000
0001
0010
00M0
1000
,
0001
0000
0000
0010
0000
0000
00M0
0000
0000
1000
0000
0000
0001
0000
0000
0010
0000
0000
0100
0000
0010
0000
0100
0000
,
2000
0000
3010
0100
0001
0010
00M0
0100
,
0001
0000
0000
0010
0000
0000
00M0
0000
0000
0100
0000
0000
0001
0000
0000
0010
0000
0000
0100
0000
0010
0000
0100
0000
,
0002
0203
2300
3020
,
0230
0000
0000
0302
0000
0000
0000
0000
0000
2003
0000
0000
3001
0000
0010
0000
0100
0000
1000
0000
0100
0000
1000
0000
,
0020
0000
0130
0001
1000
0100
0M00
0001
,
1000
0000
0000
0100
0000
0000
0M00
0000
0000
0001
0000
0000
1000
0000
0000
0100
0000
0000
1000
0000
0010
0000
1000
0000
,
0200
0000
0310
0001
1000
0010
00M0
0001
,
1000
0000
0000
0010
0000
0000
00M0
0000
0000
0001
0000
0000
1000
0000
0000
0010
0000
0000
0100
0000
0010
0000
0100
0000
,
0002
0000
0013
0100
1000
0010
00M0
0100
,
1000
0000
0000
0010
0000
0000
00M0
0000
0000
0100
0000
0000
1000
0000
0000
0010
0000
0000
0100
0000
0010
0000
0100
0000
,
2000
3200
0302
0023
,
0230
2300
0000
0002
0000
3003
0110
0000
,
2002
0000
3003
0000
,
0000
0000
0001
1001
,
1000
0100
0010
0100
0000
0000
0010
0100
0010
0001
0000
0000
,
1000
0000
0010
0000
0100
0000
0001
0000
0010
0000
0100
0000
1000
0000
0000
0001
0000
0000
1001
0000
0000
0000
0000
0000
,
0001
0100
0101
0000
1000
0100
1100
0000
,
0102
0013
2100
3010
,
0012
0103
2010
3100
,
0010
0000
0000
0010
0000
0000
0010
0000
0000
0001
1000
0001
,
0200
0000
0000
0000
0310
0000
0100
0001
1000
0000
0100
0000
M000
0000
0100
0001
,
1000
0000
0000
0000
0000
0000
0100
0000
0000
0000
0000
0000
M000
0000
0000
0000
0000
0000
0100
0000
0000
0001
0000
0000
1000
0000
0000
0000
0000
0000
0100
0000
0000
0000
0000
0000
0010
0000
0000
0000
0001
0000
0000
0000
0010
0000
0000
0000
,
0200
0000
0000
0000
1300
0000
0010
1000
0001
0000
0010
0000
000M
0000
0010
1000
,
0001
0000
0000
0000
0000
0000
0010
0000
0000
0000
0000
0000
000M
0000
0000
0000
0000
0000
0010
0000
0000
1000
0000
0000
0001
0000
0000
0000
0000
0000
0010
0000
0000
0000
0000
0000
0100
0000
0000
0000
0010
0000
0000
0000
0100
0000
0000
0000
,
0002
0000
0000
0000
0103
0000
0010
0001
0100
0000
0010
0000
0M00
0000
0010
0001
,
0100
0000
0000
0000
0000
0000
0010
0000
0000
0000
0000
0000
0M00
0000
0000
0000
0000
0000
0010
0000
0000
0001
0000
0000
0100
0000
0000
0000
0000
0000
0010
0000
0000
0000
0000
0000
0100
0000
0000
0000
0001
0000
0000
0000
0100
0000
0000
0000
,
2000
3200
0302
0023
,
0230
0000
0000
2300
0000
0000
3010
0000
0000
0002
0000
0000
0013
0000
0100
0000
0001
0000
1000
0000
0001
0000
1000
0000
,
0200
0000
0000
0000
0310
0000
0100
1000
0001
0000
0100
0000
000M
0000
0100
1000
,
0001
0000
0000
0000
0000
0000
0100
0000
0000
0000
0000
0000
000M
0000
0000
0000
0000
0000
0100
0000
0000
1000
0000
0000
0001
0000
0000
0000
0000
0000
0100
0000
0000
0000
0000
0000
0010
0000
0000
0000
1000
0000
0000
0000
0010
0000
0000
0000
,
0200
0000
0000
0000
0301
0000
0010
0001
1000
0000
0010
0000
M000
0000
0010
0001
,
1000
0000
0000
0000
0000
0000
0010
0000
0000
0000
0000
0000
M000
0000
0000
0000
0000
0000
0010
0000
0000
0001
0000
0000
1000
0000
0000
0000
0000
0000
0010
0000
0000
0000
0000
0000
0100
0000
0000
0000
0010
0000
0000
0000
0100
0000
0000
0000
,
2000
0000
0000
0000
3100
0000
0010
1000
0100
0000
0010
0000
0M00
0000
0010
1000
,
0100
0000
0000
0000
0000
0000
0010
0000
0000
0000
0000
0000
0M00
0000
0000
0000
0000
0000
0010
0000
0000
1000
0000
0000
0100
0000
0000
0000
0000
0000
0010
0000
0000
0000
0000
0000
0100
0000
0000
0000
1000
0000
0000
0000
0100
0000
0000
0000
,
0002
0203
2300
3020
,
0230
0302
0000
2000
0000
3003
0110
0000
,
1001
0000
0000
0000
;

//--------------- dance-single - tikal. ----------------
#NOTES:
     dance-single:
     tikal.:
     Challenge:
     16:
     0,0,0,0,0:
0000
0000
0000
0000
,
0000
0000
0000
0000
,
0000
0000
0000
0000
,
0000
0000
0000
0000
,
0001
0000
0000
0001
0010
0000
0001
0000
0001
0000
0000
0001
1000
0001
0100
0000
,
0100
0000
0020
0000
0032
0000
0023
0000
1030
0000
0000
1000
0001
0010
0100
0000
,
1000
0000
0000
1000
0010
0000
1000
0000
1000
0000
0000
1000
0001
1000
0100
0000
,
0100
0000
0020
0000
2030
0000
3020
0000
0031
0000
0000
0001
1000
0010
0100
0000
,
0010
0000
0000
0010
0001
0000
0010
0000
0100
0000
0000
0100
0001
0010
0100
0000
,
0100
0000
0002
0000
0203
0000
2300
0000
3010
0000
0010
0100
0001
1000
0001
0000
,
0010
0000
0000
0010
1000
0000
0010
0000
0100
0000
0000
0100
1000
0010
0100
0000
,
0220
0000
0000
0330
1010
0000
0011
0000
,
1000
0000
0100
1000
0100
0000
1000
0000
0001
0000
0100
0001
0100
0000
0001
0100
,
0010
0000
0200
0000
2300
0000
3200
0000
0301
0000
0000
0001
1000
0100
0010
0000
,
0001
0000
0100
0001
0100
0000
0001
0000
1000
0000
0100
1000
0100
0000
1000
0100
,
0010
0000
0200
0000
0302
0000
0203
0000
1300
0000
0000
1000
0001
0100
0010
0000
,
0100
0000
1000
0100
1000
0000
0100
0000
0010
0000
1000
0010
1000
0100
0010
0000
,
0010
0000
2000
0000
3020
0000
0032
0000
0103
0000
0100
0010
1000
0001
1000
0000
,
0100
0000
0001
0100
0001
0000
0100
0000
0010
0000
0001
0010
0001
0100
0010
0000
,
0110
0001
1000
1001
,
0001
0000
0010
0100
0001
0000
0100
0010
0001
0000
1000
0000
1010
0000
0000
0000
,
0010
0000
1000
0000
0100
0000
0001
0100
0010
0000
0100
0000
1100
0000
0000
0000
,
0001
0000
0100
0010
0000
0000
0001
0010
0100
0000
0001
0000
0101
0000
0000
0000
,
1000
0100
0001
0010
1000
0000
1001
0001
,
0011
0000
0000
1001
0000
0000
1100
0000
0000
0000
0100
1000
0010
0000
0100
0000
,
0101
0000
0000
1001
0000
0000
1010
0000
0000
0000
0010
1000
0100
0000
0100
0000
,
1100
0000
0000
1001
0000
0000
0011
0000
0000
0000
0001
0000
0100
0000
1000
0000
,
0100
0000
0000
0010
0000
0000
1000
0000
0000
0001
0000
0000
0010
0000
0000
0001
0000
0000
1000
0000
0000
0010
0000
0000
0100
0000
0000
0000
0000
0000
0100
0000
0000
0001
0000
0000
M010
0000
0000
0000
001M
0000
0000
0000
M010
0000
0000
0000
,
0012
0000
0000
1003
0010
0000
0200
0000
2300
0000
3100
0001
0010
0000
0200
0000
,
0302
0000
0000
0000
0000
0000
0103
0000
0000
1000
0000
0000
0010
0000
0000
0000
0000
0000
0100
0000
0000
0001
0000
0000
0020
0000
0000
0000
0000
0000
0130
0000
0000
1000
0000
0000
001M
0000
0000
0000
M010
0000
0000
0000
001M
0000
0000
0000
,
2010
0000
0000
3001
0010
0000
0200
0000
0302
0000
0103
1000
0010
0000
0200
0000
,
2300
0000
0000
0000
0000
0000
3100
0000
0000
0010
0000
0000
1000
0000
0000
0000
0000
0000
0010
0000
0000
1000
0000
0000
0200
0000
0000
0000
0000
0000
0310
0000
0000
0001
0000
0000
M100
0000
0000
0000
010M
0000
0000
0000
M100
0000
0000
0000
,
0102
0000
0000
1003
0100
0000
0020
0000
2030
0000
3010
0001
0100
0000
0020
0000
,
0032
0000
0000
0000
0000
0000
0013
0000
0000
1000
0000
0000
0100
0000
0000
0000
0000
0000
0010
0000
0000
0001
0000
0000
0200
0000
0000
0000
0000
0000
0310
0000
0000
1000
0000
0000
010M
0000
0000
0000
M100
0000
0000
0000
010M
0000
0000
0000
,
2100
0000
0000
3001
0200
0000
0000
0000
0320
0000
0000
0000
2030
0000
0000
0000
,
3200
0000
0000
0320
0000
0000
0000
0000
0000
0032
0000
0000
1003
0000
0001
0000
0100
0000
001M
0000
M010
0000
001M
0000
,
2010
0000
0000
3001
0010
0000
0200
0000
0302
0000
0103
1000
0010
0000
0200
0000
,
2300
0000
0000
0000
0000
0000
3100
0000
0000
0001
0000
0000
0010
0000
0000
0000
0000
0000
0100
0000
0000
1000
0000
0000
0020
0000
0000
0000
0000
0000
0130
0000
0000
0001
0000
0000
M010
0000
0000
0000
001M
0000
0000
0000
M010
0000
0000
0000
,
0012
0000
0000
1003
0010
0000
0200
0000
2300
0000
3100
0001
0010
0000
0200
0000
,
0302
0000
0000
0000
0000
0000
0103
0000
0000
0010
0000
0000
0001
0000
0000
0000
0000
0000
0010
0000
0000
0001
0000
0000
0200
0000
0000
0000
0000
0000
0310
0000
0000
1000
0000
0000
010M
0000
0000
0000
M100
0000
0000
0000
010M
0000
0000
0000
,
2100
0000
0000
3001
0100
0000
0020
0000
0032
0000
0013
1000
0100
0000
0020
0000
,
2030
0000
0000
0000
0000
0000
3010
0000
0000
0001
0000
0000
0200
0000
0000
0000
0000
0000
0310
0000
0000
1000
0000
0000
0100
0000
0000
0000
0000
0000
0010
0000
0000
0001
0000
0000
M100
0000
0000
0000
010M
0000
0000
0000
M100
0000
0000
0000
,
0102
0000
0000
1003
0200
0000
0000
0000
0320
0000
0000
0000
0230
0000
0000
0000
,
2300
0000
3002
0000
0000
0000
0203
0000
0000
0000
0310
1000
0100
0010
0001
0000
,
0200
0000
0300
0000
,
0000
0000
0000
0000
0000
0000
0000
0000
0000
0000
0000
0000
0010
0000
0000
0000
0000
1000
0001
0000
1000
0100
0000
0000
,
1000
001M
M010
0001
0100
0010
1000
010M
M100
0001
0010
0100
,
1000
0000
0000
0000
001M
0000
0000
0000
M010
0000
0000
0000
0001
0000
0000
0000
M100
0000
0000
0000
010M
0000
0000
0000
1000
0000
0000
0000
0000
0000
0001
0000
0000
0100
0000
0000
0010
0000
0000
1000
0000
0000
0100
0000
0000
0000
0000
0000
,
0110
0000
0001
0000
0001
0000
1000
0000
0010
0000
0100
0000
0001
0000
0010
0100
,
0000
1000
0100
1000
0001
0000
0200
0000
1000
0000
0000
0000
0310
0000
1000
0000
,
0001
0000
0010
0000
0100
0000
1000
0000
0010
0000
0100
1000
0100
0000
0001
0000
,
1000
0000
0000
0001
0000
0000
1000
0000
0000
010M
M100
010M
,
2010
0000
0000
3001
0100
0000
0010
1000
0002
0000
0013
1000
0001
0000
0100
1000
,
0002
0000
0000
0000
0000
0000
0103
0000
0000
1000
0000
0000
0001
0000
0000
0000
0000
0000
0010
0000
0000
1000
0000
0000
0002
0000
0000
0000
0000
0000
0013
0000
0000
0001
0000
0000
M100
0000
0000
0000
010M
0000
0000
0000
M100
0000
0000
0000
,
0012
0000
0000
1003
0100
0000
0010
0001
2000
0000
3010
0001
1000
0000
0100
0001
,
2000
0000
0000
0000
0000
0000
3001
0000
0000
0010
0000
0000
1000
0000
0000
0000
0000
0000
1000
0000
0000
0010
0000
0000
0002
0000
0000
0000
0000
0000
1003
0000
0000
0100
0000
0000
M010
0000
0000
0000
001M
0000
0000
0000
M010
0000
0000
0000
,
0102
0000
0000
1003
0010
0000
0100
0001
2000
0000
3100
0001
1000
0000
0010
0001
,
2000
0000
0000
0000
0000
0000
3010
0000
0000
0001
0000
0000
1000
0000
0000
0000
0000
0000
0100
0000
0000
0001
0000
0000
2000
0000
0000
0000
0000
0000
3100
0000
0000
1000
0000
0000
001M
0000
0000
0000
M010
0000
0000
0000
001M
0000
0000
0000
,
2100
0000
0000
3001
0020
0000
0031
0000
0200
0000
0300
0010
2000
0000
3010
0000
,
0200
0000
0000
0302
0000
0000
0013
0000
0000
2000
0000
0000
3010
0000
0001
0000
1000
0000
001M
0000
M010
0000
001M
0000
,
2100
0000
0000
3001
0010
0000
0100
1000
0002
0000
0103
1000
0001
0000
0010
1000
,
0002
0000
0000
0000
0000
0000
0013
0000
0000
1000
0000
0000
0001
0000
0000
0000
0000
0000
0100
0000
0000
1000
0000
0000
0002
0000
0000
0000
0000
0000
0103
0000
0000
0001
0000
0000
M010
0000
0000
0000
001M
0000
0000
0000
M010
0000
0000
0000
,
0102
0000
0000
1003
0010
0000
0100
0001
2000
0000
3100
0001
1000
0000
0010
0001
,
2000
0000
0000
0000
0000
0000
3001
0000
0000
0100
0000
0000
1000
0000
0000
0000
0000
0000
1000
0000
0000
0100
0000
0000
0002
0000
0000
0000
0000
0000
1003
0000
0000
0010
0000
0000
M100
0000
0000
0000
010M
0000
0000
0000
M100
0000
0000
0000
,
0012
0000
0000
1003
0100
0000
0010
0001
2000
0000
3010
0001
1000
0000
0100
0001
,
2000
0000
0000
0000
0000
0000
3100
0000
0000
0001
0000
0000
1000
0000
0000
0000
0000
0000
0010
0000
0000
0001
0000
0000
2000
0000
0000
0000
0000
0000
3010
0000
0000
1000
0000
0000
010M
0000
0000
0000
M100
0000
0000
0000
010M
0000
0000
0000
,
2010
0000
0000
3001
0200
0000
0301
0000
0020
0000
0030
0100
2000
0000
3100
0000
,
0020
0000
0032
0000
0000
0000
2003
0000
0000
0000
3010
1000
0100
0010
0001
0000
,
1001
0000
0000
0000
;

//--------------- dance-single - tikal. ----------------
#NOTES:
     dance-single:
     tikal.:
     Edit:
     17:
     0,0,0,0,0:
0000
0000
0000
0000
,
0000
0000
0000
0000
,
0000
0000
0000
0000
,
0000
0000
0000
0000
,
0001
0000
0000
0001
0010
0000
0001
0000
0001
0000
0000
0001
1000
0001
0100
0000
,
0100
0000
0020
0000
0032
0000
0023
0000
1030
0000
0000
1000
0001
0010
0100
0000
,
1000
0000
0000
1000
0010
0000
1000
0000
1000
0000
0000
1000
0001
1000
0100
0000
,
0100
0000
0020
0000
2030
0000
3020
0000
0031
0000
0000
0001
1000
0010
0100
0000
,
0010
0000
0000
0010
0001
0000
0010
0000
0100
0000
0000
0100
0001
0010
0100
0000
,
0100
0000
0002
0000
0203
0000
2300
0000
3010
0000
0010
0100
0001
1000
0001
0000
,
0010
0000
0000
0010
1000
0000
0010
0000
0100
0000
0000
0100
1000
0010
0100
0000
,
0220
0000
0000
0330
1010
0000
0011
0000
,
1000
0000
0100
1000
0100
0000
1000
0000
0001
0000
0100
0001
0100
0000
0001
0100
,
0010
0000
0200
0000
2300
0000
3200
0000
0301
0000
0000
0001
1000
0100
0010
0000
,
0001
0000
0100
0001
0100
0000
0001
0000
1000
0000
0100
1000
0100
0000
1000
0100
,
0010
0000
0200
0000
0302
0000
0203
0000
1300
0000
0000
1000
0001
0100
0010
0000
,
0100
0000
1000
0100
1000
0000
0100
0000
0010
0000
1000
0010
1000
0100
0010
0000
,
0010
0000
2000
0000
3020
0000
0032
0000
0103
0000
0100
0010
1000
0001
1000
0000
,
0100
0000
0001
0100
0001
0000
0100
0000
0010
0000
0001
0010
0001
0100
0010
0000
,
0110
0001
1000
1001
,
0001
0000
0010
0100
0001
0000
0100
0010
0001
0000
1000
0000
1010
0000
0000
0000
,
0010
0000
1000
0000
0100
0000
0001
0100
0010
0000
0100
0000
1001
0000
0000
0000
,
0001
0000
0100
0010
0000
0000
0001
0010
0100
0000
0001
0000
1001
0000
0000
0000
,
1000
0100
0001
0010
1000
0000
1001
0001
,
0011
0000
0000
1001
0000
0000
1100
0000
0000
0000
0100
1000
0010
0000
0100
0000
,
0101
0000
0000
1001
0000
0000
1010
0000
0000
0000
0010
1000
0100
0000
0100
0000
,
1100
0000
0000
1001
0000
0000
0011
0000
0000
0000
0001
0000
0100
0000
1000
0000
,
0100
0000
0000
0010
0000
0000
1000
0000
0000
0001
0000
0000
0010
0000
0000
0001
0000
0000
1000
0000
0000
0010
0000
0000
0100
0000
0000
0000
0000
0000
0100
0000
0000
0001
0000
0000
M010
0000
0000
0000
001M
0000
0000
0000
M010
0000
0000
0000
,
0012
0000
0000
1003
0010
0000
0200
0000
2300
0000
3100
0001
0010
0000
0200
0000
,
0302
0000
0000
0000
0000
0000
0103
0000
0000
1000
0000
0000
0010
0000
0000
0000
0000
0000
0100
0000
0000
0001
0000
0000
0010
0000
0000
0000
0000
0000
0100
0000
0000
1000
0000
0000
001M
0000
0000
0000
M010
0000
0000
0000
001M
0000
0000
0000
,
2010
0000
0000
3001
0010
0000
0200
0000
0302
0000
0103
1000
0010
0000
0200
0000
,
2300
0000
0000
0000
0000
0000
3100
0000
0000
0010
0000
0000
1000
0000
0000
0000
0000
0000
0010
0000
0000
1000
0000
0000
0200
0000
0000
0000
0000
0000
0310
0000
0000
0001
0000
0000
M100
0000
0000
0000
010M
0000
0000
0000
M100
0000
0000
0000
,
0102
0000
0000
1003
0100
0000
0020
0000
2030
0000
3010
0001
0100
0000
0020
0000
,
0032
0000
0000
0000
0000
0000
0013
0000
0000
1000
0000
0000
0100
0000
0000
0000
0000
0000
0010
0000
0000
0001
0000
0000
0100
0000
0000
0000
0000
0000
0010
0000
0000
1000
0000
0000
010M
0000
0000
0000
M100
0000
0000
0000
010M
0000
0000
0000
,
2100
0000
0000
3001
0200
0000
0000
0000
0320
0000
0000
0000
2030
0000
0000
0000
,
3200
0000
0000
0320
0000
0000
0000
0000
0000
0032
0000
0000
1003
0000
0001
0000
0100
0000
001M
0000
M010
0000
001M
0000
,
2010
0000
0000
3001
0010
0000
0200
0000
0302
0000
0103
1000
0010
0000
0200
0000
,
2300
0000
0000
0000
0000
0000
3100
0000
0000
0001
0000
0000
0010
0000
0000
0000
0000
0000
0100
0000
0000
1000
0000
0000
0010
0000
0000
0000
0000
0000
0100
0000
0000
0001
0000
0000
M010
0000
0000
0000
001M
0000
0000
0000
M010
0000
0000
0000
,
0012
0000
0000
1003
0010
0000
0200
0000
2300
0000
3100
0001
0010
0000
0200
0000
,
0302
0000
0000
0000
0000
0000
0103
0000
0000
0010
0000
0000
0001
0000
0000
0000
0000
0000
0010
0000
0000
0001
0000
0000
0200
0000
0000
0000
0000
0000
0310
0000
0000
1000
0000
0000
010M
0000
0000
0000
M100
0000
0000
0000
010M
0000
0000
0000
,
2100
0000
0000
3001
0100
0000
0020
0000
0032
0000
0013
1000
0100
0000
0020
0000
,
2030
0000
0000
0000
0000
0000
3010
0000
0000
0001
0000
0000
0100
0000
0000
0000
0000
0000
0010
0000
0000
1000
0000
0000
0100
0000
0000
0000
0000
0000
0010
0000
0000
0001
0000
0000
M100
0000
0000
0000
010M
0000
0000
0000
M100
0000
0000
0000
,
0102
0000
0000
1003
0200
0000
0000
0000
0320
0000
0000
0000
0230
0000
0000
0000
,
2300
0000
3002
0000
0000
0000
0200
0000
0003
0000
0310
1000
0100
0010
0001
0000
,
0200
0000
0300
0000
,
0000
0000
0000
0000
0000
0000
0000
0000
0000
0000
0000
0000
0010
0000
0000
0000
0000
1000
0001
0000
1000
0100
0000
0000
,
1000
001M
M010
0001
0100
0010
1000
010M
M100
0001
0010
0100
,
1000
0000
0000
0000
001M
0000
0000
0000
M010
0000
0000
0000
0001
0000
0000
0000
M100
0000
0000
0000
010M
0000
0000
0000
1000
0000
0000
0000
0000
0000
0001
0000
0000
0100
0000
0000
0010
0000
0000
1000
0000
0000
0100
0000
0000
0000
0000
0000
,
0110
0001
0001
1000
0010
0100
0001
0010
,
0100
1000
0100
1000
0001
0000
0200
0000
1000
0000
0000
0000
0310
0000
1000
0000
,
0001
0000
0010
0000
0100
0000
1000
0000
0010
0000
0100
1000
0100
0000
0001
0000
,
1000
0000
0000
0001
0000
0000
1000
0000
0000
010M
M100
010M
,
2010
0000
0000
3001
0100
0000
0012
0000
2013
0000
3201
0000
1300
0000
0012
0000
,
2013
0000
0000
3201
0000
0000
1300
0000
0000
0012
0000
0000
2013
0000
0000
3201
0000
0000
M310
0000
001M
0000
M010
0000
,
0102
0000
0000
1003
0010
0000
2100
0000
3102
0000
1023
0000
0031
0000
2100
0000
,
3102
0000
0000
0000
0000
0000
1013
0000
0000
0001
0000
0000
1000
0000
0000
0000
0000
0000
0102
0000
0000
0000
0000
0000
2103
0000
0000
0000
0000
0000
3021
0000
0000
0000
0000
0000
M130
0000
0000
0000
010M
0000
0000
0000
M100
0000
0000
0000
,
0012
0000
0000
1003
0100
0000
2010
0000
3012
0000
1203
0000
0301
0000
2010
0000
,
3012
0000
0000
1203
0000
0000
0301
0000
0000
2010
0000
0000
3012
0000
0000
1203
0000
0000
031M
0000
M010
0000
001M
0000
,
2100
0000
0000
3001
0020
0000
0031
0000
0200
0000
0300
0010
2000
0000
3010
0000
,
0200
0000
0000
0302
0000
0000
0013
0000
0000
2000
0000
0000
3010
0000
0001
0000
1000
0000
001M
0000
M010
0000
001M
0000
,
2100
0000
0000
3001
0010
0000
0102
0000
2103
0000
3021
0000
1030
0000
0102
0000
,
2103
0000
0000
3021
0000
0000
1030
0000
0000
0102
0000
0000
2103
0000
0000
3021
0000
0000
M130
0000
010M
0000
M100
0000
,
0012
0000
0000
1003
0100
0000
2010
0000
3012
0000
1203
0000
0301
0000
2010
0000
,
3012
0000
0000
0000
0000
0000
1103
0000
0000
0001
0000
0000
1000
0000
0000
0000
0000
0000
0012
0000
0000
0000
0000
0000
2013
0000
0000
0000
0000
0000
3201
0000
0000
0000
0000
0000
M310
0000
0000
0000
001M
0000
0000
0000
M010
0000
0000
0000
,
0102
0000
0000
1003
0010
0000
2100
0000
3102
0000
1023
0000
0031
0000
2100
0000
,
3102
0000
0000
1023
0000
0000
0031
0000
0000
2100
0000
0000
3102
0000
0000
1023
0000
0000
013M
0000
M100
0000
010M
0000
,
2010
0000
0000
3001
0200
0000
0301
0000
0020
0000
0030
0100
2000
0000
3100
0000
,
0020
0000
0032
0000
0000
0000
2000
0000
0003
0000
3010
1000
0100
0010
0001
0000
,
1001
0000
0000
0000
;
