#TITLE:Neuron;
#SUBTITLE:;
#ARTIST:BEMANI Sound Team "Expander";
#TITLETRANSLIT:;
#SUBTITLETRANSLIT:;
#ARTISTTRANSLIT:Expander;
#GENRE:;
#CREDIT:t7r - official jacket;
#MUSIC:Neuron.ogg;
#BANNER:Neuron.png;
#BACKGROUND:Neuron-bg.png;
#CDTITLE:;
#SAMPLESTART:0.041;
#SAMPLELENGTH:15.000;
#SELECTABLE:YES;
#OFFSET:1.337;
#BPMS:0.000=174.008;
#STOPS:;
#DISPLAYBPM:174.000;
#BGCHANGES:;
#FGCHANGES:;

//--------------- dance-single - forcednature ----------------
#NOTES:
     dance-single:
     forcednature:
     Beginner:
     5:
     0,0,0,0,0:
0000
0000
0000
0000
,
0000
0000
0000
0000
,
0000
0000
0000
0000
,
0000
0000
0000
0000
,
0000
0000
0000
0000
,
1000
1000
1000
0000
,
0001
0001
0001
0000
,
0100
0100
0100
0000
,
0010
0000
0000
1001
,
0000
1000
0000
1000
,
0000
0001
0000
0001
,
0000
0010
0000
0100
,
0000
0010
0000
0100
,
0000
1000
0000
1000
,
0000
0001
0000
0001
,
0000
0100
0000
0010
,
0000
0100
0000
0010
,
1000
0001
0000
0010
,
0000
0001
0000
0010
,
0000
0100
0000
1000
,
0000
0100
0000
0000
,
0000
1000
0000
0010
,
0000
1000
0000
0010
,
0000
0100
0000
0001
,
0100
0100
0100
0000
,
1001
0000
0000
0000
,
0100
0100
0100
0000
,
1001
0000
0000
0000
,
0010
0010
0010
0010
,
0000
1000
1000
0000
,
0001
0001
0100
0010
,
0000
1000
1000
0001
,
0020
0000
0000
0130
,
0000
1000
0000
0100
,
0000
0001
0000
0010
,
0000
1000
0000
0100
,
0001
0001
0000
0100
,
0000
1001
0000
0010
,
0000
0010
0000
0110
,
0001
0001
1000
1000
,
0010
0010
0010
0100
,
1001
0000
0000
0000
,
0010
0000
0000
0000
,
0100
0000
0010
0010
,
0010
0000
1000
0000
,
0001
0000
0000
0000
,
0010
0000
0000
0000
,
0100
0000
0010
0010
,
0010
0000
0001
0000
,
1001
0000
0000
0000
,
0001
0000
0000
0000
,
0100
0000
0000
0000
,
0010
0000
0000
0000
,
1001
1000
0000
0001
,
0000
0100
0000
0010
,
0000
1000
0000
0100
,
0000
0010
0000
0001
,
0100
0010
0000
1000
,
0000
0001
0000
0010
,
0000
0001
0000
0100
,
0000
0010
0000
1001
,
0001
1000
0000
0010
,
0000
0100
0000
0001
,
0000
0010
0000
0001
,
0000
0100
0000
0010
,
0000
1001
0000
1000
,
0000
0100
0000
0010
,
0000
0000
0001
0000
0000
0000
0000
0100
,
0000
0100
0000
0100
0000
0000
1001
0000
,
0000
0000
0000
0000
,
0010
0010
0010
0000
,
1000
0000
1000
0000
,
0001
0001
0001
0000
,
0010
0000
0010
0000
,
0100
0100
0100
0000
,
1000
1000
1000
0000
,
0001
0001
0001
0000
,
0100
0100
0010
1001
;

//--------------- dance-single - forcednature ----------------
#NOTES:
     dance-single:
     forcednature:
     Easy:
     9:
     0,0,0,0,0:
0000
0000
0000
0000
,
0000
0000
0000
0000
,
0000
0000
0000
0000
,
0000
0000
0000
0000
,
0000
0000
0000
0000
,
1000
0000
0000
0001
0000
0000
1000
0000
0000
0001
0000
0000
1000
0000
0000
0000
,
0010
0010
0100
0100
,
0001
0000
0000
1000
0000
0000
0001
0000
0000
1000
0000
0000
0001
0000
0000
0000
,
0010
0000
0100
0000
1000
0001
1000
0000
,
0110
0001
1000
1000
,
0001
0001
0100
0000
,
0010
0010
1000
1000
,
0001
0010
0100
0100
,
0010
0010
0001
0001
,
0100
0010
0100
0000
0001
0000
1000
0000
,
1001
2000
3200
0320
,
0031
0000
0100
0100
0100
0100
0010
0000
,
1001
0100
1000
1000
,
0010
0000
0010
0000
1000
0001
1000
0000
,
0100
0010
0001
0001
,
0100
0000
0100
0000
0001
1000
0001
0000
,
0110
0001
1000
1000
,
0010
0000
0010
0000
0100
0001
0100
0000
,
0110
0000
0001
0000
1000
1000
1000
0000
,
0000
0010
0000
0000
0100
0000
0000
0010
0000
0000
1000
0000
0001
0000
0000
0000
,
0110
0001
0100
0100
,
0010
0000
1000
0001
1000
0000
0100
0000
,
1001
0000
0010
0000
0001
1000
0001
0000
,
0100
0000
0000
0100
0000
0000
0100
0000
0010
0000
0000
0000
1001
0000
0000
0000
,
1100
0010
0001
1000
,
0020
0000
0230
0000
0301
0001
0001
0000
,
0110
0000
1000
0000
0010
0100
0010
0000
,
2002
0000
0000
3003
,
1001
0010
0000
0010
,
0100
0100
0001
1000
,
0110
0000
0001
1000
0000
0001
1000
0000
,
0010
0010
0010
0000
1000
0000
0001
0000
,
0000
0110
0001
0100
,
0010
0010
0010
0000
1000
0000
1001
0000
,
0100
1001
0010
1001
,
0110
0000
0100
0100
0100
0000
1001
0000
,
0100
0100
0101
0000
,
0010
0010
1010
0000
,
1000
0000
0000
0000
0001
0000
0000
0000
0100
0000
0000
0100
0000
0000
0100
0000
,
0010
0000
1000
0000
0001
0001
0001
0000
,
0010
0010
1001
0000
,
0100
0100
1001
0000
,
1000
0000
0000
0000
0001
0000
0000
0000
0010
0000
0000
0010
0000
0000
0010
0000
,
0001
0000
0100
0000
0010
0010
0010
0000
,
2000
0100
3100
0000
,
0002
0100
0103
0000
,
0020
0100
0130
0000
,
0000
2002
0000
3003
,
1000
0000
0001
0000
0100
0100
0100
0000
,
0001
1001
0010
1001
,
0001
0000
0010
0000
0100
0100
0100
0000
,
0010
0001
0010
0000
0100
1000
0100
0000
,
0010
0000
1001
0000
0010
0010
0010
0000
,
1000
0000
0101
0000
0100
0100
0100
0000
,
0010
0000
1000
0001
1000
0000
0110
0000
,
1001
0000
0001
1000
0100
0100
0010
0000
,
0100
0000
1001
0000
0010
0010
0010
0000
,
1000
0000
0101
0000
0010
0010
0010
0000
,
0001
0000
0110
0000
0001
1000
0001
0000
,
1000
0000
0110
0000
0001
0001
1000
1000
,
0000
0000
1001
0000
1000
1000
1000
0000
,
0010
0000
0110
0000
0001
0001
0001
0000
,
0010
0000
0100
0100
0100
0000
1000
0001
,
0000
0110
0000
1001
0000
0000
0110
0000
,
0200
0000
0010
0310
,
0001
0000
0000
1000
0000
0000
0001
0000
0000
1000
0000
0000
0001
0000
0000
0000
,
0010
0100
0010
0000
0100
0010
0100
0000
,
1000
0000
0000
0001
0000
0000
1000
0000
0000
0001
0000
0000
1000
0000
0000
0000
,
0010
0100
0010
0000
0100
0010
0100
0000
,
0001
0000
0000
0100
0000
0000
0001
0000
0000
0100
0000
0000
0001
0000
0000
0000
,
1000
0100
0010
0000
0001
0100
0010
0000
,
1000
0000
0000
0100
0000
0000
1000
0000
0000
0100
0000
0000
1000
0000
0000
0000
,
0001
0000
1000
0000
0010
0001
0010
0000
;

//--------------- dance-single - forcednature ----------------
#NOTES:
     dance-single:
     forcednature:
     Medium:
     12:
     0,0,0,0,0:
0000
0000
0000
0000
,
0000
0000
0000
0000
,
0000
0000
0000
0000
,
0000
0000
0000
0000
,
0000
0000
0000
0000
,
0001
0000
0000
0001
0000
0000
1000
0000
0000
1000
0000
0000
0001
0000
0000
0000
,
0100
0000
0010
0000
1000
0100
0010
0000
,
0100
0000
0000
0100
0000
0000
0010
0000
0000
0010
0000
0000
0100
0000
0000
0000
,
2000
0000
3020
0000
0130
0001
0010
0000
,
0110
0000
0001
0000
1000
0010
0100
0000
,
0001
0010
0100
1000
0001
0100
1000
0000
,
0110
0000
0000
0000
0001
0000
0000
0000
1000
0000
0100
0000
0010
0001
0000
0000
,
0010
0000
0100
0000
1000
0000
0000
0010
0000
0000
0100
0000
0001
0000
0000
0000
,
1001
0000
0101
0000
0001
0010
0100
0000
,
1000
1000
0100
0001
0001
0100
0010
0000
,
1001
0000
0001
0100
0001
1000
0010
0100
,
0200
0000
1300
0100
0001
0100
0010
0000
,
1001
0000
0001
0000
0010
0100
1000
0000
,
0010
0000
0001
0000
0010
0000
0000
0100
0000
0000
0001
0000
0010
0000
0000
0000
,
0110
0000
1000
0000
0001
0100
0010
0000
,
1000
1000
0100
0001
0100
0100
0100
0000
,
1001
0000
0001
0000
1000
0010
0100
0000
,
0000
0001
0000
0000
1000
0000
0000
0100
0000
0000
0010
0000
0010
0000
0000
0000
,
0001
0100
1000
0000
0100
0001
0010
0000
,
0000
0100
0000
0000
1000
0000
0000
0010
0000
0000
0001
0000
0100
0000
0000
0000
,
1001
0000
0100
0000
1000
1000
0001
0000
,
0201
0000
1300
1000
0100
0001
1000
0000
,
1001
0000
0001
0010
0001
0100
0010
0000
,
0100
0000
0000
1000
0000
0000
0100
0000
0000
0000
0001
0000
1000
0000
0000
0000
,
0110
0000
0001
0000
0100
0001
0010
0100
,
2000
0000
3002
0000
0103
0010
1001
0000
,
0010
1000
0001
0000
0100
0001
0010
0000
,
0200
0000
0301
0100
1000
0010
1001
0000
,
1100
0000
0010
0000
0001
0100
0010
0000
,
1000
0001
0010
0010
0001
1000
0010
0000
,
0110
0000
0001
0100
1000
0100
0001
0000
,
0010
0010
0100
0100
0000
1000
0001
1000
,
0000
0000
0101
0000
0001
0010
0100
0000
,
1000
0010
0100
0100
0001
1000
0100
0000
,
0010
0000
0001
0010
0000
0000
0001
0000
1000
0001
0000
0000
,
0100
0000
0000
0001
1000
0001
1000
0000
0000
0110
0000
0000
,
1001
0001
0101
0000
,
0010
0010
1000
0000
0110
0000
0001
0010
,
0100
0000
0000
0000
1000
0000
0000
0000
0010
0000
0000
0010
0000
0000
0010
0000
,
0100
0001
1000
0001
0000
0000
0110
0000
0000
0001
0000
0000
,
1100
1000
1010
0000
,
0100
0001
0010
0000
0110
0000
1000
0010
,
0100
0000
0000
0000
0001
0000
0000
0000
1000
0000
0000
1000
0000
0000
1000
0000
,
0100
0000
1000
0000
0001
0000
0010
0000
0000
0000
0000
0000
1000
0000
0000
0001
0000
0000
1001
0000
0000
0000
0000
0000
,
2000
0100
0001
0100
,
0010
0001
0010
3000
,
0002
0100
1000
0010
,
1003
0000
0100
0100
0010
0010
0001
0001
,
1000
0000
0010
0000
0100
0100
0001
0010
,
0000
0100
0000
1000
0001
0100
0010
0000
,
0100
0010
1000
0001
0010
0010
0100
1000
,
0000
0001
0100
0010
1000
0100
0010
0000
,
1001
0000
0100
0000
1000
1000
0010
1000
,
0000
0100
0000
0010
0001
0100
0010
0000
,
1000
0100
1000
1000
0001
0100
1000
0100
,
0000
0001
1000
0100
0010
0010
1001
0000
,
1010
0000
0001
0000
0100
0100
0010
0100
,
0000
0001
0010
0100
0010
0100
1000
0000
,
0010
0100
1000
0100
0001
0001
1000
0010
,
0000
1000
0100
0010
0000
0001
1000
0010
,
0000
0000
1001
0000
0010
0010
1000
0001
,
0000
1000
0010
0100
0001
1000
0100
0000
,
0010
0001
0100
0100
0010
1000
0001
1001
,
0000
0110
0010
1001
0000
0100
1001
0000
,
0020
0000
0100
0000
0100
0100
0130
0000
,
1001
0000
0000
0001
0000
0000
1000
0000
0000
0001
0000
0000
1001
0000
0000
0000
,
0001
0100
0001
0001
0100
0010
1000
1000
,
0100
0000
0000
0010
0000
0000
0001
0000
0000
1000
0000
0000
1010
0000
0000
0000
,
0100
0001
0100
0100
0010
1000
0010
0010
,
1000
0000
0000
0100
0000
0000
0001
0000
0000
0100
0000
0000
1100
0000
0000
0000
,
0010
0100
0001
0001
1000
0100
0010
0010
,
0100
0000
0000
1000
0000
0000
0100
0000
0000
0001
0000
0000
0110
0000
0000
0000
,
0020
0000
0031
1000
0010
0100
1001
0000
;

//--------------- dance-single - forcednature ----------------
#NOTES:
     dance-single:
     forcednature:
     Hard:
     15:
     0,0,0,0,0:
0000
0000
0000
0000
,
0000
0000
0000
0000
,
0000
0000
0000
0000
,
0000
0000
0000
0000
,
0000
0000
0000
0000
,
1001
0000
0000
1100
0000
0000
1001
0000
0000
0101
0000
0000
1001
0000
0000
0000
,
1000
1000
0100
0001
0100
0100
0010
0000
,
0011
0000
0000
0110
0000
0000
1100
0000
0000
0110
0000
0000
1001
0000
0000
0000
,
0002
0000
0103
0100
1000
0100
1001
0000
,
0110
0000
0000
0000
0001
0000
0000
0001
1000
0000
0010
0000
0100
0001
0100
0000
,
0010
1000
0000
0000
0001
0000
0100
0000
1000
0000
1000
0000
0100
0000
0000
0000
,
0110
0000
0000
0000
1000
0000
0000
1000
0100
0000
0100
0000
0001
0000
0100
0000
,
0010
0001
0000
0000
1000
0000
0000
0110
0000
0000
1000
0000
0001
0000
0000
0000
,
0100
0000
0000
0100
0001
0000
0001
0000
0010
0000
0010
0000
0100
0000
1000
0000
,
0000
0010
0000
0000
0110
0000
0100
0000
0001
0000
1000
0000
0001
0000
0000
0000
,
0100
0000
0000
0100
1000
0000
0100
0000
0001
0000
1000
0000
0100
0000
0001
0000
,
0200
0000
0000
0000
0310
0001
0010
0000
0001
1000
0001
0000
0100
0000
0010
0000
,
1001
0000
0101
0000
1000
0100
1000
0010
,
0000
0110
0000
0000
0001
0000
0000
0101
0000
0000
1010
0000
1001
0000
0000
0000
,
0001
0000
0100
0000
1000
0000
0100
0010
0100
0000
0100
0000
0001
0000
1000
0000
,
0020
0001
0100
1000
1030
0010
0010
0000
,
1000
0000
0100
0000
0010
0000
0000
0010
0001
0000
0100
0000
1000
0000
0100
0000
,
0000
1001
0000
0000
0010
0000
0000
0110
0000
0000
1001
0000
0001
0000
0000
0000
,
1000
0001
0100
1000
0001
0010
1000
0001
,
1000
0100
0000
0000
1000
0000
0001
0100
0000
0000
0001
0000
1001
0000
0000
0000
,
0110
0000
0001
1000
0100
0010
0100
0000
,
1100
0000
0001
0100
1000
0001
0010
0000
,
0110
0000
0000
0000
0001
0100
0001
0000
1000
0000
1000
0000
0100
0010
0000
0000
,
0001
0000
0000
0100
0000
0000
1000
0000
0100
0000
0010
0000
0100
0010
0100
0010
,
1000
0000
0000
0001
0010
0000
0000
0000
0100
0000
1000
0000
0001
0000
0100
0000
,
0020
0001
0100
1000
0130
0100
0110
0000
,
1000
0000
0000
1000
0001
0000
0010
0000
0000
0100
1000
0000
0010
0000
1000
0000
,
0200
0000
0000
0000
0310
0001
0010
0001
1000
0010
1000
0010
0100
0000
0000
0000
,
1001
0000
0000
0000
1100
0000
0000
0100
0010
0000
0001
0000
0100
0000
0001
0000
,
0010
0000
0000
0000
0110
0000
0000
0100
1000
0000
0001
0000
0100
0000
1000
0000
,
0100
0000
0000
0000
0101
0000
0001
0000
0000
0000
1100
0000
1000
0100
0000
0000
,
1000
1000
0001
0200
0000
0010
1000
0010
,
0300
0000
0000
0000
1001
0000
0000
0001
0010
0000
0100
0000
0001
0000
0000
0000
,
0110
0000
0000
0000
1000
0000
0000
1000
0010
0000
0100
0000
0001
0000
0000
0000
,
0010
0001
0010
0100
1000
0010
0100
0001
1000
0100
0010
0001
,
2000
0000
0000
3001
0100
1000
0100
0000
0000
1001
0000
0000
,
1000
0000
0000
0001
0000
0000
0100
0000
0000
0010
0000
0000
1000
0000
0001
1000
,
0001
0000
0001
0000
1000
0100
0000
0100
0010
0000
0001
0000
0100
0000
0010
0000
,
0100
1000
0000
0000
0100
0001
0000
0000
0110
0000
0000
1001
0000
0000
0110
0000
,
1000
0000
0001
0000
0100
0000
0010
0000
1000
0000
0001
0000
0010
0000
0000
0010
0000
0000
0100
0000
0000
0100
0000
0000
,
1000
0000
0000
0001
0000
0000
0010
0000
0000
0100
0000
0000
1000
0000
0010
1000
,
0010
0000
0010
0000
0100
0001
0000
0001
0100
0000
0001
0000
0010
0000
1000
0000
,
0010
0100
0000
0000
1000
0100
0000
0000
0011
0000
0000
0101
0000
0000
1010
0000
,
0001
0000
0100
0000
0001
0000
0010
0000
0100
0000
1000
0000
0010
0000
0000
0010
0000
0000
1001
0000
0000
0000
0000
0000
,
0210
1000
0301
0000
,
2000
0010
3001
0000
,
0002
1000
0010
0000
,
0103
0000
0000
0000
0100
0001
0100
0001
1000
0100
1000
0100
1000
0001
1000
0001
,
0100
0000
0000
0000
0001
0000
0000
0010
0001
0000
0100
0000
0010
0000
0210
0000
,
0000
1300
0100
0001
1000
0100
0001
0000
,
0100
0000
0010
0000
0001
0000
0000
0001
1000
0000
0010
0000
0100
0000
0101
0000
,
0000
0000
1000
0000
0010
0000
0001
0000
0010
0000
0100
0000
0001
0100
0001
0000
,
1000
0100
0010
0001
0100
0000
0000
0100
0010
0000
1000
0000
0001
0000
0021
0000
,
0000
1030
0010
0001
1000
0010
0001
0000
,
0010
0000
0100
0000
0001
1000
0001
1000
0001
0000
0010
0000
0100
0000
1100
0000
,
0000
1000
0001
0000
0100
0000
0010
0000
1000
0000
1000
0000
1001
0000
0000
0000
,
0001
0100
0010
1000
0001
0000
0000
0001
0010
0000
0100
0000
1000
0000
1020
0000
,
0000
0000
0130
0010
0100
0000
1000
0000
0100
0000
0001
0000
0010
0000
0000
0000
,
0100
0001
0100
1000
0010
0100
0001
1001
,
0000
0000
0001
0000
0100
0000
0001
0000
0010
0001
0010
0000
0100
1000
0100
0000
,
0010
0001
1000
0010
0200
0000
0000
0000
0301
0000
0010
0000
0100
0000
1200
0000
,
0000
0301
0100
1000
0001
0100
1000
0000
,
0100
0000
0001
0000
1000
0100
1000
0100
1000
0000
0010
0000
0100
0000
0101
0000
,
0000
1100
0000
0110
0100
0100
1001
0000
,
0001
0000
0001
0000
0100
0000
0000
0000
0010
1000
0010
0000
1001
0000
0000
0000
,
0110
0000
0000
1010
0000
0000
0101
0000
0000
0110
0000
0000
1001
0000
0000
0000
,
0001
0000
0100
0000
0010
1000
0010
0000
1000
0100
1000
0000
0010
0000
0000
0000
,
0101
0000
0000
0110
0000
0000
1100
0000
0000
0110
0000
0000
1001
0000
0000
0000
,
1000
0000
0100
0000
0010
0001
0010
0000
0001
0100
0001
0000
0010
0000
0000
0000
,
1100
0000
0000
0101
0000
0000
0011
0000
0000
1010
0000
0000
1001
0000
0000
0000
,
0001
0000
0010
0000
0001
0100
0001
0000
1000
0010
1000
0000
0100
0000
0000
0000
,
0011
0000
0000
1100
0000
0000
1010
0000
0000
0101
0000
0000
1001
0000
0000
0000
,
0001
0000
1000
0000
0100
0010
0100
0000
1000
0001
1000
0001
0100
0000
0000
0000
;

//--------------- dance-double - forcednature ----------------
#NOTES:
     dance-double:
     forcednature:
     Easy:
     9:
     0,0,0,0,0:
00000000
00000000
00000000
00000000
,
00000000
00000000
00000000
00000000
,
00000000
00000000
00000000
00000000
,
00000000
00000000
00000000
00000000
,
00000000
00000000
00000000
00000000
,
00001000
00000000
00000000
00010000
00000000
00000000
01000000
00000000
00000000
10000000
00000000
00000000
00010000
00000000
00000000
00000000
,
10000000
00000000
00100000
00000000
01000000
00010000
01000000
00000000
,
00001000
00000000
00000000
00010000
00000000
00000000
00000100
00000000
00000000
00000010
00000000
00000000
00000001
00000000
00000000
00000000
,
00000100
00000000
00000100
00000000
00000010
00001000
00000010
00000000
,
00000100
00000000
00001001
00000000
00000100
00010000
00001000
00000000
,
00100000
00000000
00100000
00000000
00010000
10000000
00100000
00000000
,
01000000
00000000
10000000
01000000
00000000
00010000
01000000
00000000
,
00001000
00000000
00001000
00000000
00000010
00000100
00001000
00000000
,
00000001
00000000
00001000
00000000
00000010
00010000
00001000
00000000
,
00000010
00000000
00000010
00000000
00001000
00010000
00100000
00000000
,
01100000
00000000
10000000
00000000
00010000
01000000
00010000
00000000
,
00100000
00000000
00001000
00001000
00001000
00001000
00001000
00000000
,
00011000
00000000
00000100
00000000
00001000
00000001
00001000
00000000
,
00000000
00000010
00000000
00000000
00000010
00000000
00000000
00000100
00000000
00000000
00000100
00000000
00000010
00000000
00000000
00000000
,
00001000
00000000
00000001
00000000
00001000
00000100
00001000
00000000
,
00010000
00000000
00100000
00010000
02000000
00000000
03200000
00000000
,
10300000
00000000
00010000
00000000
10000000
01000000
00100000
00000000
,
00000000
00001000
00000000
00000000
00010000
00000000
00000000
00000100
00000000
00000000
00010000
00000000
00001000
00000000
00000000
00000000
,
00000100
00000000
00000001
00000000
00000010
00000100
00001000
00000000
,
00000000
00000010
00000000
00000000
00010000
00000000
00000000
00001000
00000000
00000000
01000000
00000000
00010000
00000000
00000000
00000000
,
10010000
00100000
01000000
00010000
,
00011000
00000010
00010000
00001000
,
00000110
00001000
00000001
00000100
,
00001000
00000000
00000000
00010000
00000000
00000000
00001000
00000000
00000010
00000000
00000000
00000000
00001000
00000000
00000000
00000000
,
00110000
00010000
10000000
00100000
,
02000000
00000000
00100000
00000000
03100000
10000000
00010000
00000000
,
00110000
00000000
00001000
00000000
00010000
00000100
00001000
00000000
,
00001010
00000000
00010000
00010000
00010000
00010000
00010000
00000000
,
00101000
00000000
00010000
00000000
10000000
00010000
01000000
00000000
,
00011000
00000000
00010000
00000000
00000100
00001000
00000001
00000000
,
00000100
00000000
00001000
00010000
00000000
01000000
00010000
00000000
,
00001000
00010000
00001000
00010000
00000000
00100000
10000000
00100000
,
00000000
00000000
10010000
00000000
00010000
01000000
00001000
00000000
,
00010000
00000000
00000100
00000000
00001000
00000001
00001000
00000000
,
00000010
00011000
01000000
00011000
,
00010100
00010100
01001000
01001000
,
00001000
00000000
00000000
00001000
00000000
00000000
00010000
00000000
00000000
00001000
00000000
00000000
00010000
00000000
00000000
00000000
,
00100000
00100000
10000000
00010000
,
00100000
00000000
00000000
00000000
01000000
00000000
00000000
00000000
00010000
00000000
00000000
00001000
00000000
00000000
00010000
00000000
,
00001000
00000100
00000001
00000001
,
00000010
00000000
00000000
00000100
00000000
00000000
00000010
00000000
00000000
00000100
00000000
00000000
00000010
00000000
00000000
00000000
,
00000100
00010000
00001000
01000000
,
00100000
00000000
00000000
00000000
00100000
00000000
00000000
00000000
10000000
00000000
00000000
00010000
00000000
00000000
10000000
00000000
,
01000000
00000000
00010000
00000000
00001000
00010000
00001000
00000000
,
00021000
00000100
00030100
00000000
,
00200000
00001000
00301000
00000000
,
00000020
00010000
00010030
00000000
,
01000000
00000000
00010000
00100000
01000000
10000000
00100000
00000000
,
01010000
00000000
00001000
00000000
00010000
00000010
00010000
00001000
,
00000000
00100000
00000000
00001000
00010000
00000100
00010000
00000000
,
00001000
00000000
00000100
00000000
00000001
00000010
00000100
00001000
,
00000000
00000010
00010000
00000010
00000000
00001000
00000100
00000000
,
00010000
00000000
00001000
00000000
00100000
00000000
00010000
10000000
,
00000000
00100000
00000000
10000000
00010000
01000000
00010000
00000000
,
00100000
00000000
01000000
00000000
00010000
00000000
00001000
00000010
,
00000000
00000010
00000000
00002002
00000000
00000000
00003003
00000000
,
00000101
00000000
00001000
00000000
00000010
00000000
00010000
00001000
,
00000000
00100000
00100000
00100000
01000000
01000000
01000000
00000000
,
10000000
00000000
01010000
00000000
00001000
00000000
00010000
00000100
,
00000000
00001000
00000000
00000001
00000000
00000100
00000100
00000100
,
00000000
00000000
00011000
00000000
00100000
00000000
00001000
00010000
,
00000000
00100000
00000000
10000000
00010000
00000000
10000000
00000000
,
01000000
00000000
00010000
00000000
00001000
00000000
00000010
00000001
,
00000000
00000110
00000000
00002002
00000000
00000000
00003003
00000000
,
00000001
00000100
00001000
00011000
,
00100000
00000000
00000000
01000000
00000000
00000000
00100000
00000000
00000000
01000000
00000000
00000000
00100000
00000000
00000000
00000000
,
10000000
00000000
00010000
00000000
00100000
00010000
01000000
00000000
,
00001000
00000000
00000000
00010000
00000000
00000000
00000100
00000000
00000000
00001000
00000000
00000000
00000001
00000000
00000000
00000000
,
00000010
00000000
00000100
00000000
00001000
00000001
00001000
00000000
,
00000010
00000000
00000000
00010000
00000000
00000000
00001000
00000000
00000000
01000000
00000000
00000000
00010000
00000000
00000000
00000000
,
10000000
00000000
00100000
00000000
10000000
01000000
10000000
00000000
,
00010000
00000000
00000000
01000000
00000000
00000000
00001000
00000000
00000000
00010000
00000000
00000000
00000100
00000000
00000000
00000000
,
00001000
00000000
00000001
00000000
00000100
00001000
00010000
00000000
;

//--------------- dance-double - forcednature ----------------
#NOTES:
     dance-double:
     forcednature:
     Medium:
     12:
     0,0,0,0,0:
00000000
00000000
00000000
00000000
,
00000000
00000000
00000000
00000000
,
00000000
00000000
00000000
00000000
,
00000000
00000000
00000000
00000000
,
00000000
00000000
00000000
00000000
,
00001000
00000000
00000000
00010000
00000000
00000000
01000000
00000000
00000000
00100000
00000000
00000000
00010000
00000000
00000000
00000000
,
10000000
00100000
10000000
00010000
01000000
00100000
00001000
00000000
,
00000010
00000000
00000000
00010000
00000000
00000000
00001000
00000000
00000000
00000010
00000000
00000000
00000001
00000000
00000000
00000000
,
00000100
00000010
00000100
00001000
00010000
00001000
00100000
00000000
,
10010000
00000000
01000000
00000000
10000000
00010000
01000000
00000000
,
00100000
00010000
00001000
00000000
00000010
00000100
00001000
00000000
,
00000011
00000000
00000000
00000000
00000100
00000000
00000000
00000000
00000001
00000000
00001000
00000000
00000010
00001000
00000000
00000000
,
00000000
00010000
00000000
00000000
01000000
00000000
00000000
00100000
00000000
00000000
10000000
00000000
00010000
00000000
00000000
00000000
,
00110000
00000000
01000000
01000000
00001000
00010000
00000010
00000000
,
00000000
00001000
00000000
00000000
00000100
00000000
00000000
00000000
00000010
00000000
00000000
00000010
00000001
00000000
00000000
00000000
,
00000100
00000000
00001000
00010000
01000000
00100000
00001000
00010000
,
00100000
00000000
10000000
01000000
00010000
00001000
00000100
00000001
,
00000010
00000000
00000110
00000000
00001000
00000001
00000100
00000010
,
00000000
00001000
00000000
00000000
00010000
00000000
00000000
01000000
00000000
00000000
00100000
00000000
10000000
00000000
00000000
00000000
,
10010000
00000000
10000000
01000000
00100000
00001000
00010000
00000100
,
00002000
00000000
00003010
00000100
00000001
00000001
00000001
00000000
,
00001001
00000000
00000001
00000000
00001000
00000100
00010000
00001000
,
00000000
00100000
00000000
00000000
00010000
00000000
00000000
10000000
00000000
00000000
00100000
00000000
00010000
00000000
00000000
00000000
,
00001000
00000010
00000100
00000000
00001000
00000001
00000010
00000000
,
00000100
00010000
00000000
00000000
00001000
00000000
00100000
00010000
00000000
00000000
10000000
00000000
00100000
00000000
00000000
00000000
,
01100000
00000000
00010000
10000000
01000000
00010000
00001000
00000000
,
00101000
00000000
00001000
00010000
00000010
00010000
00001000
00000000
,
00000010
00000010
00000010
00000000
00000100
00001000
00000001
00000000
,
00000100
00000000
00000000
00001000
00000000
00000000
00010000
00000000
00100000
00000000
10000000
00000000
00010000
00000000
00000000
00000000
,
10000000
00000000
00000000
10000000
00010000
00000000
00000000
00000000
00100000
00000000
00001000
00000000
00010000
00000000
00000000
00000000
,
00000200
00000000
00000320
00000000
00000031
00001000
00000010
00000000
,
00000100
00000000
00000000
00000100
00001000
00000000
00000000
00000000
00010000
00000000
00100000
00000000
01000000
00000000
00000000
00000000
,
10020000
00000000
10030000
01000000
00010000
00001000
00000010
00000000
,
00001001
00000000
00000001
00000010
00000100
00000001
00000100
00001000
,
00000010
00000000
00000000
00000000
00010000
00000000
00000000
00001000
00000000
00000000
00010000
00000000
00100000
00000000
00000000
00000000
,
01000000
00000000
00010000
00100000
00000000
10000000
00100000
00000000
,
00010000
00010000
00001000
00001000
00000000
00000100
00000010
00000001
,
00000000
00000000
00000110
00000000
00000001
00000100
00001000
00000000
,
00010000
00100000
00010000
00000100
00010000
00001000
01000000
00000000
,
00100000
00000000
10000000
00010000
00000000
00000000
00100000
00000000
00001000
00010000
00000000
00000000
,
00011000
00000000
00000000
00000010
00001000
00000010
00001000
00000000
00000000
00001001
00000000
00000000
,
00000110
00000000
00000000
00000001
00000000
00000000
00001000
00000000
00000000
00000001
00000000
00000000
00000010
00000000
00000000
00000000
,
00000100
00010000
00001000
00000000
00100000
00001000
01000000
00000000
,
00100000
00000000
00000000
00000000
00100000
00000000
00000000
00000000
10000000
00000000
00000000
10000000
00000000
00000000
10000000
00000000
,
00010000
00000000
01000000
00000000
00001000
00000000
00010000
00000000
00000000
00000000
00000000
00000000
00000100
00000000
00000000
00000100
00000000
00000000
00000100
00000000
00000000
00000000
00000000
00000000
,
00000010
00000000
00000000
00000001
00000000
00000000
00000100
00000000
00000000
00001000
00000000
00000000
00010000
00000000
00000000
00000000
,
00100000
00010000
00001000
00000000
00000010
00000100
00001000
00000000
,
00000001
00000000
00000000
00000000
00000001
00000000
00000000
00000000
00000100
00000000
00000000
00000100
00000000
00000000
00000100
00000000
,
00001000
00000000
00010000
00000000
00001000
00000000
00010000
00000000
00000000
00000000
00000000
00000000
00100000
00000000
00000000
00100000
00000000
00000000
00100000
00000000
00000000
00000000
00000000
00000000
,
20010000
32000000
03020000
00030000
,
00002000
00003020
00000032
00000003
,
00000200
00002300
00023000
00030000
,
02000000
00000000
03100000
00010000
10000000
00100000
00010000
00001000
,
00100000
00000000
00011000
00000000
00000010
00010000
00001000
00010000
,
00000000
00000010
00001000
00000001
00000100
00000001
00000010
00000000
,
00000100
00000000
00011000
00000000
00100000
00010000
10000000
00100000
,
00000000
10000000
00010000
00100000
00000000
01000000
00010000
00000000
,
00001000
00000000
00000110
00000000
00001000
00000001
00000100
00001000
,
00000000
00010000
00100000
00010000
00001000
00010000
01000000
00000000
,
10000000
00010000
01000000
01000000
00100000
00010000
00001000
00000010
,
00000000
00000100
00001000
00000001
00000100
00000100
00001001
00000000
,
00001000
00000000
00000000
00001000
00000010
00000000
00000000
00000000
00010000
00000000
00001000
00000000
00010000
00000000
00100000
00000000
,
00000000
01000000
00010000
10000000
01000000
10000000
00010000
00000000
,
01000000
00100000
00010000
00001000
00000100
00000010
00001000
00000001
,
00000000
00000010
00001000
00010000
00000000
00100000
00010000
00000000
,
00000000
00000000
00011000
00000000
01000000
00010000
10000000
00100000
,
00000000
00010000
00001000
00010000
00000010
00000100
00000001
00000000
,
00000010
00000100
00000010
00001000
00010000
01000000
00100000
00010000
,
00000000
10010000
00000000
01010000
00000000
00001000
00010000
00000000
,
00000020
00000000
00000100
00000000
00000100
00000100
00000130
00000000
,
00000010
00000000
00000000
00001000
00000000
00000000
00010000
00000000
00000000
01000000
00000000
00000000
00100000
00000000
00000000
00000000
,
10000000
01000000
10000000
00000000
00010000
01000000
00010000
00000000
,
10000000
00000000
00000000
01000000
00000000
00000000
00010000
00000000
00000000
00001000
00000000
00000000
00000100
00000000
00000000
00000000
,
00000001
00000010
00000001
00000100
00001000
00010000
00100000
00000000
,
01000000
00000000
00000000
00010000
00000000
00000000
10000000
00000000
00000000
01000000
00000000
00000000
00010000
00000000
00000000
00000000
,
00001000
00000010
00001000
00010000
00000010
00001000
00000001
00000000
,
00000010
00000000
00000000
00001000
00000000
00000000
00010000
00000000
00000000
00001000
00000000
00000000
00000100
00000000
00000000
00000000
,
00000001
00000010
00000001
00000100
00001000
00010000
01000000
00000000
;

//--------------- dance-double - forcednature ----------------
#NOTES:
     dance-double:
     forcednature:
     Hard:
     15:
     0,0,0,0,0:
00000000
00000000
00000000
00000000
,
00000000
00000000
00000000
00000000
,
00000000
00000000
00000000
00000000
,
00000000
00000000
00000000
00000000
,
00000000
00000000
00000000
00000000
,
00011000
00000000
00000000
00101000
00000000
00000000
11000000
00000000
00000000
10100000
00000000
00000000
01010000
00000000
00000000
00000000
,
00001000
00001000
00010000
00000100
00000010
00000010
00000001
00000000
,
00000101
00000000
00000000
00010010
00000000
00000000
01001000
00000000
00000000
10100000
00000000
00000000
10010000
00000000
00000000
00000000
,
20000000
00000000
31000000
01000000
00010000
00001000
00011000
00000000
,
00010100
00000000
00000010
00000000
00001000
00000001
00000100
00001000
,
00100000
00001000
00010000
01000000
10000000
10000000
00100000
00000000
,
01010000
00000000
00001000
00000000
00010000
00010000
00001000
00000010
,
00000100
00001000
00000000
00000000
00000010
00000000
00000000
00001001
00000000
00000000
00001000
00000000
00000100
00000000
00000000
00000000
,
00010000
00000000
00000000
00010000
01000000
00000000
01000000
00000000
00100000
00000000
00100000
00000000
00010000
00000000
10000000
00000000
,
00000000
00100000
00000000
00000000
00110000
00000000
00000000
00000000
00001000
00000000
00010000
00000000
00000100
00000000
00000000
00000000
,
00000010
00000000
00000000
00000010
00000001
00000000
00000100
00000000
00001000
00000000
00010000
00000000
00000100
00000000
00010000
00000000
,
02000000
00000000
03100000
00100000
00010000
10000000
00100000
00010000
,
00011000
00000000
00010100
00000000
00000010
00000100
00000001
00001000
,
00000000
00010100
00000000
00000000
00000010
00000000
00000000
00001000
00000000
00000000
00010000
00000000
01010000
00000000
00000000
00000000
,
10000000
00100000
00010000
00001000
00000010
00000010
00000100
00001000
,
00000020
00000001
00000100
00001000
00000030
00000010
00000010
00000000
,
00010000
00001000
00000010
00000000
00000100
00010000
01000000
00010000
,
00000000
00011000
00000000
00000000
00100000
00000000
00000000
00110000
00000000
00000000
10000000
00000000
01000000
00000000
00000000
00000000
,
00100000
00001000
00000100
00001000
00010000
00000100
00000010
00001000
,
00010000
00000010
00000000
00000000
00000100
00000000
00000001
00000010
00000000
00000000
00000100
00000000
00000110
00000000
00000000
00000000
,
00011000
00000000
00010000
00001000
00100000
01000000
00010000
00000000
,
00010100
00000000
00000010
00000100
00001000
00010000
00000100
00000000
,
00001001
00000000
00000000
00000000
00001000
00000000
00001000
00000000
00000010
00000000
00000010
00000000
00010000
00001000
00000000
00000000
,
01000000
00000000
00000000
00001000
00000000
00000000
00000100
00000000
00001000
00000000
00001000
00000000
00010000
00000000
00000000
00010000
,
01000000
00000000
00000000
01000000
10000000
00000000
00000000
00000000
00100000
00000000
00010000
00000000
00001000
00000000
00000010
00000000
,
00000200
00000001
00000010
00001000
00010300
00010000
00011000
00000000
,
01000000
00000000
00000000
01000000
00010000
00000000
00100000
00000000
00000000
00001000
00010000
00000000
00000100
00000000
00001000
00000000
,
00000020
00000000
00000000
00000000
00000130
00000001
00000100
00000000
00000010
00001000
00000010
00000000
00000100
00000000
00000000
00000000
,
00011000
00000000
00000000
00000000
01010000
00000000
00000000
00010000
00100000
00000000
01000000
00000000
00010000
00000000
00001000
00000000
,
00000010
00000000
00000100
00001000
00000001
00000100
00001000
00010000
,
00100000
00000000
01001000
00001000
00000000
00010100
00010000
00000000
,
00000010
00000010
00010000
00002000
00000000
00000010
00010000
01000000
,
00003000
00000000
00000000
00000000
00011000
00000000
00000000
00001000
00000100
00000000
00000001
00000000
00001000
00000000
00000000
00000000
,
00001100
00000000
00000000
00000000
00000010
00000000
00000000
00000010
00001000
00000000
00000010
00000000
00010000
00000000
00000000
00000000
,
00100000
01000000
00010000
10000000
00000000
00000000
01000000
00010000
00001000
00010000
00000000
00000000
,
00010100
00000000
00000000
00000100
00001000
00000001
00000100
00000000
00000000
00011000
00000000
00000000
,
01100000
00000000
00000000
10000000
00000000
00000000
01000000
00000000
00000000
00010000
00000000
00000000
00000010
00000000
00000000
00000000
,
00001000
00001000
00000001
00000100
00010000
00000100
00000010
00010000
,
00001000
00100000
00000000
00000000
01000000
00100000
00000000
00000000
00110000
00000000
00000000
00101000
00000000
00000000
00010100
00000000
,
00000100
00000000
00001000
00000000
00000010
00000000
00000100
00000000
00001000
00000000
00000100
00000000
00000001
00000000
00000000
00000001
00000000
00000000
00001000
00000000
00000000
00001000
00000000
00000000
,
00000100
00000000
00000000
00010000
00000000
00000000
00100000
00000000
00000000
10000000
00000000
00000000
01000000
00000000
00000000
00000000
,
00100000
00100000
00010000
00000010
00001000
00010000
00100000
01000000
,
00001000
01000000
00000000
00000000
00000100
00010000
00000000
00000000
00011000
00000000
00000000
00010100
00000000
00000000
00001001
00000000
,
00000001
00000000
00000100
00000000
00001000
00000000
00010000
00000000
00000100
00000000
00010000
00000000
00001000
00000000
00000000
00001000
00000000
00000000
01001000
00000000
00000000
00000000
00000000
00000000
,
00120000
01000000
10030000
00000000
,
00002000
01000000
00003100
00000000
,
00000002
00000010
00001000
00000000
,
00000103
00000000
00000000
00000000
00000001
00000100
00000001
00000000
00001000
00000100
00001000
00000000
00000010
00010000
00000010
00000000
,
00001010
00000000
00000000
00000000
00010000
00000000
00000000
00001000
00100000
00000000
00010000
00000000
10000000
00000000
11000000
00000000
,
00000000
10000000
00100000
00010000
00001000
00000010
00000001
00000000
,
00001000
00000000
00000100
00000000
00001100
00000000
00000000
00010000
00001000
00000000
00100000
00000000
00010000
00000000
00110000
00000000
,
00000000
10000000
01000000
00010000
00001000
00000100
00000001
00000001
,
00000010
00000001
00000010
00000000
00000100
00000000
00000000
00000100
00010000
00000000
00001000
00000000
01000000
00000000
01010000
00000000
,
00000000
00001000
00000100
00001000
00010000
01000000
00010000
00000000
,
00001000
00000000
00000010
00000000
00000001
00001000
00000001
00001000
00000001
00000000
00000100
00000000
00000010
00000000
00001010
00000000
,
00000000
00010000
00001000
00100000
00000000
01000000
10010000
00000000
,
10000000
01000000
10000000
00000000
00100000
00000000
00000000
00100000
00010000
00000000
00001000
00000000
00000010
00000000
00000110
00000000
,
00000000
00000000
00001000
00000001
00001000
00000000
00000010
00000000
00001000
00000000
00100000
00000000
00001000
00000000
00000000
00000000
,
00000100
00010000
00001000
00010000
01000000
00100000
00010000
10010000
,
00000000
00000000
00010000
00000000
00100000
00000000
00001000
00000000
00010000
00000100
00010000
00000000
00001000
01000000
00001000
00000000
,
00000000
00000000
00010200
00000000
00000301
00000100
00010000
00011000
,
00000000
00001000
00100000
01000000
00010000
00001000
00000100
00000000
,
00000020
00000000
00000000
00000000
00000130
00000001
00000100
00000001
00000100
00000000
00001000
00000000
00010000
00000000
00110000
00000000
,
00000000
00011000
00001000
01001000
01000000
00100000
10010000
00000000
,
10000000
00000000
10000000
00000000
01000000
00000000
00000000
00000000
00010000
00001000
00010000
00000000
00011000
00000000
00000000
00000000
,
00010100
00000000
00000000
01001000
00000000
00000000
00101000
00000000
00000000
00010010
00000000
00000000
00011000
00000000
00000000
00000000
,
01000000
00000000
00010000
00000000
10000000
01000000
10000000
00000000
00010000
00100000
00010000
00000000
01000000
00000000
00000000
00000000
,
01001000
00000000
00000000
00010010
00000000
00000000
00101000
00000000
00000000
00010100
00000000
00000000
00011000
00000000
00000000
00000000
,
00000100
00000000
00001000
00000000
00000010
00000100
00000010
00000000
00010000
00000100
00010000
00000000
00001000
00000000
00000000
00000000
,
11000000
00000000
00000000
00110000
00000000
00000000
00001100
00000000
00000000
00000011
00000000
00000000
00001001
00000000
00000000
00000000
,
00000001
00000000
00000100
00000000
00001000
00010000
00001000
00000000
00010000
00000100
00010000
00000000
00001000
00000000
00000000
00000000
,
00000101
00000000
00000000
00001010
00000000
00000000
01010000
00000000
00000000
10100000
00000000
00000000
10010000
00000000
00000000
00000000
,
10000000
00000000
01000000
00000000
00100000
00010000
00100000
00000000
00001000
00010000
00001000
00010000
00000010
00000000
00000000
00000000
;
