#VERSION:0.83;
#TITLE:Neuro Café;
#SUBTITLE:;
#ARTIST:Tom-i;
#TITLETRANSLIT:;
#SUBTITLETRANSLIT:;
#ARTISTTRANSLIT:;
#GENRE:;
#ORIGIN:;
#CREDIT:;
#BANNER:Neuro Cafe.png;
#BACKGROUND:Neuro Cafe-bg.png;
#PREVIEWVID:;
#JACKET:Neuro Cafe-jacket.png;
#CDIMAGE:;
#DISCIMAGE:;
#LYRICSPATH:;
#CDTITLE:;
#MUSIC:Neuro Cafe.ogg;
#OFFSET:0.330993;
#SAMPLESTART:44.917595;
#SAMPLELENGTH:10.491802;
#SELECTABLE:YES;
#DISPLAYBPM:91.000000:183.000000;
#BPMS:0.000=91.500,
53.000=183.000,
77.000=366.000,
85.000=183.000,
206.000=91.500,
218.000=366.000,
230.000=183.000,
278.000=91.500,
284.500=183.000;
#STOPS:85.000=0.984,
141.500=2.623,
226.000=0.109,
226.667=0.109,
227.333=0.109,
228.000=0.109,
228.667=0.109,
229.333=0.109;
#DELAYS:;
#WARPS:;
#TIMESIGNATURES:0.000=4=4;
#TICKCOUNTS:0.000=4;
#COMBOS:0.000=1;
#SPEEDS:0.000=1.000=0.000=0;
#SCROLLS:0.000=1.000;
#FAKES:;
#LABELS:0.000=Song Start;
#BGCHANGES:;
#KEYSOUNDS:;
#ATTACKS:
;

//---------------dance-single - ----------------
#NOTEDATA:;
#CHARTNAME:;
#STEPSTYPE:dance-single;
#DESCRIPTION:;
#CHARTSTYLE:;
#DIFFICULTY:Challenge;
#METER:16;
#RADARVALUES:0.693362,0.949390,0.188566,0.090184,0.573897,592.000000,569.000000,23.000000,11.000000,0.000000,0.000000,0.000000,0.000000,0.000000,0.693362,0.949390,0.188566,0.090184,0.573897,592.000000,569.000000,23.000000,11.000000,0.000000,0.000000,0.000000,0.000000,0.000000;
#CREDIT:Daniel Van Eden;
#DISPLAYBPM:91.000000:183.000000;
#NOTES:
// measure 0
0000
0000
0000
0000
,  // measure 1
0000
0000
0000
0000
,  // measure 2
0000
0000
0000
0000
,  // measure 3
0000
0000
0000
0000
0000
0000
0000
0000
0000
0000
0000
0000
1100
0000
0000
1000
0100
0010
0100
0010
0001
0100
0000
1000
,  // measure 4
0100
0000
0001
0010
0000
0000
0100
0000
0010
0001
0000
0010
0100
0000
1000
0001
0000
0000
1000
0000
0000
0000
0000
0010
,  // measure 5
0000
0000
0100
0001
0000
0000
0100
0000
0000
0100
0000
0001
0010
0000
0000
0100
0000
1000
0001
0000
0000
0000
0000
0100
,  // measure 6
0000
0000
0000
0010
0000
0000
0000
0000
0100
0000
0000
0010
0100
0000
0000
0000
0000
0100
0000
0000
0010
0100
0000
0000
,  // measure 7
0000
0000
0100
0000
0000
0010
1000
0000
0000
0001
0000
0000
0000
0000
0000
0000
0000
0000
1001
0000
0000
0000
0000
0000
,  // measure 8
0000
0001
1000
0000
0001
0000
1000
0000
,  // measure 9
0100
0000
0100
0010
0000
0000
1001
0000
0000
0000
0000
1000
0000
0000
0000
0000
0000
0010
0000
0000
1000
0100
0000
0000
,  // measure 10
0010
0000
0000
0011
0000
0001
2000
0000
0000
0010
0000
0000
0010
0000
0010
0000
0010
0000
3010
0000
0000
0000
0000
0000
,  // measure 11
0020
0000
0000
0130
0000
0000
0101
0000
0000
0000
0000
0002
0000
0000
0000
0000
0000
0000
0003
0000
0000
1000
0100
0010
,  // measure 12
0001
0000
1000
0010
0000
1000
0100
0000
0000
0100
0000
0010
0100
0000
0000
0010
0000
0000
0010
0001
1000
0001
0000
0100
,  // measure 13
0010
0000
1000
0001
0000
0000
1000
0000
0000
0000
0000
0000
0001
0000
0000
0000
0000
0000
0100
0000
0000
0000
0000
0000
,  // measure 14
0010
1000
0100
0001
,  // measure 15
0100
1000
0100
0010
,  // measure 16
0001
1000
0010
0001
,  // measure 17
0010
0000
1000
0100
0001
0100
1000
0001
,  // measure 18
0100
0000
0001
0000
1000
0000
1000
0000
0001
0000
0001
0000
0100
0010
0100
0010
,  // measure 19
0100
0001
1000
0100
0020
0000
0000
0000
0000
0000
0000
0000
0000
0000
0000
0000
,  // measure 20
0000
0000
0000
0000
,  // measure 21
0000
0000
0030
0000
0001
0100
0010
0100
,  // measure 22
0001
0000
1000
0100
0000
0001
0100
1000
,  // measure 23
0000
0000
0001
0000
1000
0000
0010
1000
0001
1000
0001
1000
0100
0000
0010
0000
,  // measure 24
0000
0000
1000
0000
0010
0000
0001
0000
0100
0010
0000
0010
1000
0000
0001
0010
,  // measure 25
0001
1000
0010
0100
1000
0100
0001
0010
,  // measure 26
0100
0000
0001
0100
0000
1000
0100
0010
,  // measure 27
0000
0000
0001
0000
1000
0000
0010
0100
0010
0000
1000
0000
0001
0000
0100
0000
,  // measure 28
1000
0000
0100
0000
0010
0100
0001
0000
1000
0100
0000
0100
0010
0001
1000
0000
,  // measure 29
0010
0100
0010
0100
0001
0000
1000
0000
0100
0000
0001
0000
0100
0000
0010
0000
,  // measure 30
0001
0000
1000
0010
0000
0001
0010
1000
,  // measure 31
0000
0000
0001
0000
1000
0000
0100
0010
0001
0010
0001
1000
0001
0000
0100
0000
,  // measure 32
0000
0000
1000
0000
0100
0000
0001
0000
1000
0100
0000
0100
0010
0000
0001
0100
,  // measure 33
0001
0010
0100
1000
0010
0001
0010
1000
,  // measure 34
0100
0000
0001
0100
0000
1000
0100
0010
,  // measure 35
0011
0000
0000
0101
0000
0000
1100
0000
1001
0000
0000
0000
0001
0000
0010
0000
,  // measure 36
0100
0000
0010
0000
0001
0000
1000
0010
1000
0000
0001
0000
0100
0000
0010
1000
,  // measure 37
0010
0000
1000
0000
0100
0000
0010
0000
0001
0000
0000
0000
1000
0000
0001
0010
,  // measure 38
0001
0000
1000
0000
0001
0100
0010
1000
0001
0000
1000
0000
0100
0000
1000
0010
,  // measure 39
1000
0000
0001
0000
0010
0000
0100
1000
0001
0000
1000
0000
0100
0000
0001
0000
,  // measure 40
0100
0000
0001
0000
0100
0000
1000
0100
1000
0000
0001
0000
0010
0000
0100
1000
,  // measure 41
0100
0000
1000
0000
0010
0000
0100
0000
0001
0000
0000
0000
1000
0000
0001
0100
,  // measure 42
0001
0000
1000
0000
0010
0000
0100
0001
0100
0000
0010
0000
1000
0000
1100
0000
,  // measure 43
0000
0100
0010
0000
0001
0000
1000
0000
1001
0000
0000
0000
1000
0000
0010
0000
,  // measure 44
0001
0000
1000
0000
0100
0000
0001
0000
0010
0000
0100
0000
1000
0000
0001
0100
,  // measure 45
0001
0000
1000
0000
0100
0010
0001
0000
2000
0000
0000
0000
3010
0000
0100
0010
,  // measure 46
0100
0000
0001
0000
1000
0000
0100
0010
0100
0000
0001
0000
0100
0000
0020
0000
,  // measure 47
0000
0000
0031
0000
1000
0000
0010
1000
0001
0000
0000
0000
0100
0000
1000
0000
,  // measure 48
0001
0000
0010
0000
1000
0000
0002
0000
0000
0000
1003
0000
0100
0000
0010
0100
,  // measure 49
0010
0000
0001
0000
0010
0000
1000
0000
0010
0001
0100
0000
0001
0000
1000
0000
,  // measure 50
0100
0000
0000
0010
0000
0000
0001
0000
0000
1000
0000
0000
0001
0000
0100
0000
0010
0000
0001
0000
0010
0000
1000
0000
,  // measure 51
0001
0000
0000
0000
0001
0000
0010
0000
0000
0000
0010
0000
0100
0000
0000
1000
0000
0100
0010
0000
0001
1000
0000
0010
,  // measure 52
0100
0000
1000
0100
0000
0001
0010
0000
0100
1000
0000
0000
0001
0000
0000
1000
0010
0100
0001
0000
0010
1000
0000
0001
,  // measure 53
0100
0000
0000
1000
0000
0001
0100
0000
0010
1000
0000
0000
0010
0000
0000
0101
0000
0000
0100
0000
0000
0010
0000
1000
,  // measure 54
0001
0000
1000
0001
0000
0010
0100
0000
0100
1000
0000
0000
2002
0000
0000
0000
0000
0000
0000
0000
0000
0000
0000
0000
,  // measure 55
0000
0000
0000
0000
,  // measure 56
0000
0000
0000
0000
0000
0000
3003
0000
1001
0000
1001
0000
,  // measure 57
1001
0000
0000
0000
0000
0000
0000
0000
1001
0000
0000
0000
0000
0000
0000
0000
1001
0000
0000
0000
0000
0000
0000
0000
1001
0000
0000
0000
0000
0000
0001
0000
0000
0000
0000
0000
0010
0000
0000
0000
0000
0000
0100
0000
0000
1000
0000
0000
,  // measure 58
0010
0000
1000
0000
0001
0000
0100
0001
0010
0000
0100
0000
1000
0000
0010
1000
,  // measure 59
0001
0000
1000
0000
0100
0010
0001
0000
0001
0000
1000
0000
0010
0000
0100
0001
,  // measure 60
1000
0000
0010
0000
1000
0001
1000
0000
0100
0000
0010
0001
1000
0000
0010
0000
,  // measure 61
0100
0010
0100
0000
0001
0000
1000
0001
1000
0000
0100
0000
0010
0000
0001
1000
,  // measure 62
0010
0000
0100
0010
1000
0000
0001
0000
0010
0000
1000
0000
0010
0000
0001
1000
,  // measure 63
0100
0000
1000
0010
0100
0000
0001
0000
0001
0000
1000
0000
0100
0000
0001
0000
,  // measure 64
0100
0000
1000
0000
0010
1000
0100
0000
1000
0000
0001
0000
0100
0000
0101
0000
,  // measure 65
0000
0001
0010
0000
0001
0000
1000
0000
1000
0000
0001
0000
0100
0000
1000
0000
,  // measure 66
0100
0000
0010
0000
1000
0100
0010
0001
0010
0000
0100
0000
0001
0000
0100
1000
,  // measure 67
0100
1000
0001
0010
0010
0100
0001
0100
,  // measure 68
1000
0000
0010
0000
1000
0001
0100
0000
0010
0000
0001
0000
0010
0000
1000
0010
,  // measure 69
1000
0000
0000
0000
0000
0000
0100
0000
0000
0000
0000
0000
0010
0000
0000
0000
0000
0000
0001
0000
0000
0010
0000
0000
0100
0000
0000
0000
1000
0000
0010
0000
0100
0000
0001
0000
0010
0000
0000
0000
1000
0000
0001
0000
0000
0000
0100
0000
,  // measure 70
1000
0000
0001
0100
0010
1000
0001
0000
0100
1000
0000
0001
0010
0000
1000
0001
0000
0000
1001
0000
1000
0100
0000
0000
,  // measure 71
0000
0220
0000
0000
0000
0000
0000
0330
,  // measure 72
0000
0010
0000
0100
0000
0000
0000
0000
0000
1001
0000
0000
0000
0000
0000
0000
0000
0000
0000
0000
0000
0000
0000
0000
;

//---------------dance-single - ----------------
#NOTEDATA:;
#CHARTNAME:;
#STEPSTYPE:dance-single;
#DESCRIPTION:;
#CHARTSTYLE:;
#DIFFICULTY:Hard;
#METER:13;
#RADARVALUES:0.556329,0.830717,0.131177,0.139375,0.315644,475.000000,459.000000,16.000000,17.000000,0.000000,0.000000,0.000000,0.000000,0.000000,0.556329,0.830717,0.131177,0.139375,0.315644,475.000000,459.000000,16.000000,17.000000,0.000000,0.000000,0.000000,0.000000,0.000000;
#CREDIT:Daniel Van Eden;
#DISPLAYBPM:91.000000:183.000000;
#NOTES:
0000
0000
0000
0000
,
0000
0000
0000
0000
,
0000
0000
0000
0000
,
0000
0000
0000
0000
0000
0000
0000
0000
0000
0000
0000
0000
0000
0000
0000
1000
0100
0010
0001
1000
0100
0010
0000
0001
,
0100
0000
0001
1000
0000
0000
0010
0000
1000
0001
0000
1000
0010
0000
0100
0010
0000
0000
1000
0000
0000
0001
0000
0000
,
0010
0000
0100
0010
0000
0000
0001
0000
0000
0001
0000
0010
0100
0000
0000
1000
0000
0010
0100
0000
0000
0000
0000
0001
,
0000
0000
0000
1000
0000
0000
0000
0000
0001
0000
0000
1000
0001
0000
0000
0000
0000
0000
0000
0000
1000
0001
0000
0000
,
0000
0000
0000
0000
0000
1000
0002
0000
0000
0000
0000
0000
0000
0000
0000
0000
0000
0000
2003
0000
0000
0000
0000
0000
,
0000
3002
0000
1003
,
1000
0000
1000
0010
0000
0000
0100
0000
0000
0000
0000
0100
0000
0000
0000
0000
0000
0000
0000
0000
0001
0100
0000
0000
,
0010
0000
0000
1010
0000
0000
0001
0000
0000
0000
0000
0001
0000
0000
0000
0000
0000
0000
0000
0000
0000
0000
0000
0000
,
0012
0000
0000
0000
0000
0000
1003
0000
0000
0000
0000
1000
0000
0000
0000
0000
0000
0000
0000
0000
0000
1000
0100
1000
,
0100
0000
0010
0100
0000
0010
0001
0000
0000
0000
0000
0001
0000
0000
0000
0000
0000
0000
0010
0000
0010
0001
0000
0010
,
0001
0000
0001
1000
0000
0000
0010
0000
0000
0000
0000
0000
1000
0000
0000
0000
0000
0000
0010
0000
0000
0000
0000
0000
,
0100
0001
0010
0001
,
0100
0010
1000
0100
,
1000
0001
0010
0001
,
0100
0000
0010
1000
0010
1000
0001
1000
,
0001
1000
0001
0010
1000
0010
0001
0100
,
0010
1000
2002
0000
0000
0000
0000
0000
,
0000
0000
0000
0000
,
0000
0000
3003
0000
1000
0000
0001
0010
,
0100
0000
0010
0001
0000
1000
0010
0100
,
0000
0010
1000
0001
1000
1000
0001
0010
,
0000
0000
0100
0000
0010
0000
0100
0000
1000
0010
0000
0010
1000
0000
0001
0000
,
0100
0000
0010
0100
0001
0000
1000
0010
,
0100
0000
0010
1000
0000
0001
0100
0010
,
0000
0000
0100
0000
0001
0000
1000
0001
1000
0000
0001
0000
0010
0000
1000
0000
,
0010
0001
0100
0010
0100
0001
1000
0010
,
0100
0010
0100
0010
0100
0000
0001
0000
1000
0000
0000
0000
0001
0000
0010
0000
,
0100
0000
1000
0010
0000
0100
0010
1000
,
0000
0001
1000
0001
0100
0100
0001
0010
,
0000
0000
0100
0000
0010
0000
0100
0000
0010
0001
0000
0001
1000
0000
0001
0000
,
0010
0000
0100
0010
0001
0000
1000
0100
,
0010
0000
0001
0010
0000
0001
1000
0001
,
0010
0000
0000
0110
0000
0000
1001
0000
1000
0000
0000
0000
0001
0000
0100
0000
,
0000
0100
0001
1000
0000
1000
0100
0010
,
0001
1000
0001
0100
0100
0000
0001
1000
,
0000
0000
1000
0000
0001
1000
0100
0010
0001
0000
0010
0000
0001
0000
0000
0000
,
0010
0000
0001
0000
1000
0000
0001
0100
0001
0000
1000
0000
0010
0000
0100
0000
,
0000
0100
0010
1000
0001
0010
0100
0000
,
0010
0100
1000
0001
0001
0100
0010
1000
,
0000
1000
0001
0010
0000
0100
0010
0001
,
0000
0001
1000
0000
0010
0000
0100
0000
0001
0000
0000
0000
1000
0000
0100
0000
,
0010
0000
0100
0001
0000
0100
1000
0001
,
0000
0001
1000
0100
0020
0000
0100
0000
,
0000
0130
1000
0000
0001
0100
0010
0200
,
0000
0301
1000
0001
0001
0000
1000
0010
,
0100
0010
1000
0002
0000
0000
0010
0000
,
0013
0000
0100
0000
0010
0000
0001
0000
1000
0010
2000
0000
0001
0000
0000
0000
,
0000
0000
0000
3001
0000
0000
0100
0000
0000
0000
0000
0000
0010
0000
0100
0000
0010
0000
0100
0000
0001
0000
0100
0000
,
0001
0000
0000
0000
0001
0000
1000
0000
0000
0000
1000
0000
0100
0000
0000
0011
0000
0000
0010
0000
0001
1000
0000
0000
,
0101
0000
0000
0001
0000
1000
0010
0000
0000
1010
0000
0000
0100
0000
0000
0101
0000
0000
0001
0000
1000
0010
0000
0000
,
1100
0000
0000
1000
0000
0001
0010
0000
0000
0011
0000
0000
0100
0000
0000
1010
0000
0000
1000
0000
0001
0100
0000
0000
,
0110
0000
0000
0100
0000
0001
0010
0000
0010
0100
0000
0000
2002
0000
0000
0000
0000
0000
0000
0000
0000
0000
0000
0000
,
0000
0000
0000
0000
,
0000
0000
0000
0000
0000
0000
3003
0000
1000
0000
0001
0000
,
1000
0000
0000
0000
0001
0000
0000
0000
1000
0000
0000
0000
0001
0000
0000
0010
0000
0000
0100
0000
0000
1000
0000
0000
,
0001
1000
0010
0000
0100
0010
1000
0000
,
0001
0010
0100
1000
2000
0000
3001
0010
,
0001
1000
0010
0200
0000
0301
1000
0001
,
0010
0000
0100
0000
0010
0000
0001
1000
0001
0000
0100
0000
0010
0000
1000
0000
,
0001
0000
0000
1000
0000
0000
1000
0000
0100
0000
0010
0000
0001
0000
0100
0000
,
0001
0000
0000
0010
0000
0000
0100
0000
0010
0000
0000
0000
0100
0000
1000
0000
,
0000
1000
0010
0000
0100
0010
1000
0001
,
0000
1000
0001
0000
0010
0000
0001
0000
0001
0000
1000
0000
0010
0000
0100
0000
,
0010
0000
1000
0000
0001
1000
0010
0100
0002
0000
0000
0000
0010
0000
0000
0000
,
1003
0010
0100
0010
0010
0100
0001
1000
,
0000
0001
1000
0001
0010
0100
0010
0001
,
0100
0000
0000
0000
0000
0000
0010
0000
0000
0000
0000
0000
1000
0000
0000
0000
0000
0000
0100
0000
0000
0010
0000
0000
0100
0000
0000
0000
0000
0000
1000
0000
0100
0000
0010
0000
0001
0000
0000
0000
1000
0000
0001
0000
0000
0000
0000
0000
,
0100
0000
0001
0010
0100
1000
0001
0000
0001
0010
0000
0100
0010
0000
0100
1000
0000
0000
0001
0000
0001
1000
0000
0000
,
0000
2002
0000
0000
0000
0000
0000
0000
,
0000
3003
0000
1001
0000
0000
0000
0000
;

//---------------dance-single - ----------------
#NOTEDATA:;
#CHARTNAME:;
#STEPSTYPE:dance-single;
#DESCRIPTION:;
#CHARTSTYLE:;
#DIFFICULTY:Medium;
#METER:11;
#RADARVALUES:0.413440,0.652706,0.090184,0.065588,0.118879,353.000000,342.000000,11.000000,8.000000,0.000000,0.000000,0.000000,0.000000,0.000000,0.413440,0.652706,0.090184,0.065588,0.118879,353.000000,342.000000,11.000000,8.000000,0.000000,0.000000,0.000000,0.000000,0.000000;
#CREDIT:Daniel Van Eden;
#DISPLAYBPM:91.000000:183.000000;
#NOTES:
0000
0000
0000
0000
,
0000
0000
0000
0000
,
0000
0000
0000
0000
,
0000
0000
0000
0000
0000
0000
0000
0000
0000
0000
0000
0000
0000
0000
0000
0001
0000
1000
0100
0000
0010
0001
0000
1000
,
0001
0000
0000
0100
0000
0000
0010
0000
0010
1000
0000
0000
0001
0000
0000
0010
0000
0000
0100
0000
0000
0000
0000
0010
,
0000
0000
0100
0010
0000
0000
0001
0000
0000
0001
0000
1000
0100
0000
0000
1000
0000
0001
0010
0000
0000
0000
0000
0001
,
0000
0000
0000
0100
0000
0000
0000
0000
0010
0000
0000
0100
0010
0000
0000
0000
0000
0000
0000
0000
0100
0010
0000
0000
,
0000
1001
0000
1000
,
0000
0001
0000
1000
,
0000
0000
0000
0000
0000
0000
0021
0000
0000
0000
0000
0031
0000
0000
0000
0000
0000
0000
0000
0000
0000
0000
0000
0000
,
0000
0000
0000
0000
0000
0000
1200
0000
0000
0000
0000
1300
0000
0000
0000
0000
0000
0000
0000
0000
0000
0000
0000
0000
,
0001
0000
0000
0000
0000
0000
2010
0000
0000
0000
0000
3010
0000
0000
0000
0000
0000
0000
0000
0000
0000
0000
0000
0000
,
0000
0000
0000
0000
0000
0000
0102
0000
0000
0000
0000
0103
0000
0000
0000
0000
0000
0000
0000
0000
0000
0000
0000
0000
,
1000
0010
1000
0001
,
0010
0010
0001
1000
,
0100
0100
1000
0010
,
0100
0100
0010
1000
,
0001
0011
1001
1100
,
1001
0000
1000
0001
1000
0010
0100
0010
,
1000
0001
2000
0000
0000
0000
0000
0000
,
0000
0000
0000
0000
,
0000
0000
3000
0000
0001
0000
0100
0001
,
0100
0000
0000
0010
0000
0100
0000
0010
,
0000
1000
0010
0000
1000
0000
0001
1000
,
0000
0001
0100
0001
1000
0000
0010
0100
,
0010
0000
1000
0001
1000
0000
0100
1000
,
0100
0000
0000
0010
0000
0100
0000
0010
,
0000
0001
0010
0000
0001
0000
1000
0001
,
0000
1000
0010
0000
1000
0000
0001
0100
,
0001
0000
1000
0001
1000
0000
0010
1000
,
0010
0000
0000
0100
0000
0010
0000
0100
,
0000
0010
1000
0000
0001
0000
1000
0001
,
0000
1000
0100
0000
0010
0000
0001
1000
,
0001
0000
0100
0010
0100
0000
0001
0100
,
0001
0000
0000
1000
0000
0001
0000
1000
,
0100
0000
0000
0100
0000
0000
0100
0000
0010
0000
0000
0000
0001
0000
0010
0000
,
0000
0010
0001
0000
1000
0000
0010
0000
,
1000
0001
1000
0000
0001
0000
0100
0001
,
0000
0001
0100
0000
0010
0000
1000
0000
,
0100
0010
0100
0000
0010
0000
0001
1000
,
0000
1000
0001
0000
0010
0000
0100
0000
,
1000
0010
1000
0000
0001
0000
0100
0010
,
0000
0010
0100
0000
0100
0001
0100
0001
,
0000
0001
1000
0000
0001
0000
1000
0000
,
0100
0000
1000
0100
0000
1000
0001
0000
,
0100
0000
0001
1000
0010
0000
1000
0001
,
0000
0001
1000
0000
0001
0000
0100
0001
,
0000
0001
0100
0000
0010
0000
1000
0000
,
0100
0000
0010
0001
0000
0001
0010
0000
,
0001
0000
1000
0001
1000
0010
0000
0000
,
0100
0000
0000
0010
0000
0000
0100
0000
0000
0000
0000
0000
0001
0000
0000
0000
0001
0000
1000
0000
0000
0000
1000
0000
,
0001
0000
0000
0000
0001
0000
0010
0000
0000
0000
0010
0000
0100
0000
0000
1000
0000
0000
0010
0000
0000
0100
0000
0000
,
0001
1000
0001
0010
0100
0010
0001
1000
,
0010
0100
0001
1000
0001
0010
0100
1000
,
0001
1000
0100
0010
0002
0000
0000
0000
,
0000
0000
0000
0000
,
0000
0000
0000
0000
0000
0000
0003
0000
1000
0000
1000
0000
,
1000
0000
1000
0000
1000
0000
1000
0000
0000
0001
0000
0000
,
1000
0001
0100
0000
0001
1000
0100
0000
,
1000
0001
1000
0001
1000
0000
0010
0000
,
1000
0000
0100
0010
0000
0010
0100
0000
,
0010
0000
0001
1000
0000
1000
0001
0000
,
0100
0001
1000
0000
0100
1000
0001
0000
,
0010
0100
0010
0100
0010
0000
0001
1000
,
0000
1000
0001
0000
0100
0000
0010
1000
,
0000
1000
0010
0000
1000
0000
0100
0010
,
0000
0010
0001
0000
1000
0000
0001
0000
,
0100
0010
0100
0000
0001
0000
1000
0001
,
0000
0001
1000
0000
0100
0010
0100
0000
,
0010
0000
0000
0001
0000
0000
0010
0000
0000
0000
0000
0000
0001
0000
0000
1000
0000
1000
0010
0000
0000
0100
0000
0000
,
0001
0000
0001
0010
0000
0000
0100
0000
0000
1000
0000
1000
0001
0000
0000
0100
0000
0000
0010
0000
0010
1000
0000
0000
,
0000
2002
0000
0000
0000
0000
0000
0000
,
0000
3003
0000
1001
0000
0000
0000
0000
;

//---------------dance-single - ----------------
#NOTEDATA:;
#CHARTNAME:;
#STEPSTYPE:dance-single;
#DESCRIPTION:;
#CHARTSTYLE:;
#DIFFICULTY:Easy;
#METER:8;
#RADARVALUES:0.244785,0.415358,0.024596,0.114780,0.028695,209.000000,206.000000,3.000000,14.000000,0.000000,0.000000,0.000000,0.000000,0.000000,0.244785,0.415358,0.024596,0.114780,0.028695,209.000000,206.000000,3.000000,14.000000,0.000000,0.000000,0.000000,0.000000,0.000000;
#CREDIT:Daniel Van Eden;
#DISPLAYBPM:91.000000:183.000000;
#NOTES:
0000
0000
0000
0000
,
0000
0000
0000
0000
,
0000
0000
0000
0000
,
0000
0000
0000
0000
0000
0000
0000
0000
0000
0000
0000
0000
1000
0000
0000
0000
0000
1000
0000
0000
0000
0010
0000
0000
,
0100
0010
1000
0000
1000
0001
0000
0001
,
0010
0000
0000
0000
0000
0000
0010
0000
0000
0001
0000
0000
0000
0000
0000
0001
0000
0000
0010
0000
0000
0000
0000
0100
,
0000
0000
0000
1000
0000
0000
0000
0000
0001
0000
0000
0000
1000
0000
0000
0000
0000
0000
0000
0000
0000
0001
0000
0000
,
0000
0120
0000
0100
,
0000
0100
0000
0130
,
0000
0000
0000
0000
0000
0000
1000
0000
0000
0000
0000
1000
0000
0000
0000
0000
0000
0000
0000
0000
0000
0000
0000
0000
,
0000
0000
0000
0000
0000
0000
0001
0000
0000
0000
0000
0001
0000
0000
0000
0000
0000
0000
0000
0000
0000
0000
0000
0000
,
0000
0000
0000
0000
0000
0000
1000
0000
0000
0000
0000
1000
0000
0000
0000
0000
0000
0000
0000
0000
0000
0000
0000
0000
,
0000
0000
0000
0000
0000
0000
0001
0000
0000
0000
0000
0001
0000
0000
0000
0000
0000
0000
0000
0000
0000
0000
0000
0000
,
0000
1000
0010
1000
,
0000
0001
1000
0001
,
0000
0100
0001
0100
,
0000
0010
0100
0010
,
0000
1000
1000
0100
,
0100
0010
0010
0001
,
0001
2000
0000
0000
,
0000
0000
0000
0000
,
0000
3000
0001
0010
,
0100
0000
0000
0010
0000
0100
0000
0010
,
0000
0100
0010
0000
0001
0000
0000
1000
,
0000
0001
1000
0001
,
0001
0000
1000
0010
,
0100
0000
0000
0010
0000
0100
0000
0010
,
0000
0100
0010
0000
1000
0000
0100
0000
,
0010
0001
0100
0010
,
1000
0001
1000
0000
0001
0000
0100
0000
,
0010
0000
0000
1000
0000
0001
0000
1000
,
0000
0001
1000
0000
0100
0000
0000
0010
,
0000
0100
1000
0001
,
0001
0000
1000
0100
,
0010
0000
0000
0001
0000
1000
0000
0001
,
1000
0000
0000
1001
0001
0000
0000
0001
,
0000
1000
0001
0010
,
0000
0010
0001
0100
,
0000
0100
0001
1000
,
0000
0000
1000
0000
0100
0000
0000
0100
,
0000
1000
0001
0100
,
0000
0100
0001
0010
,
0000
0010
0001
1000
,
0100
0010
0001
0000
,
1000
0000
0000
0100
0000
0000
0010
0000
,
0000
0010
0002
0000
,
0000
0000
0000
0000
1003
0000
0000
2000
,
0000
0000
3000
0010
,
0100
0000
0000
0200
0000
0000
0010
0000
,
0010
0310
2000
0000
,
0000
0000
3001
0010
,
0100
1000
0001
1000
,
0010
1000
0010
0000
1000
0000
0001
0000
,
0100
0001
0100
0000
0001
0000
1000
0000
,
0100
0010
0100
0000
0020
0000
0000
0000
,
0000
0000
0000
0000
,
0000
0000
0030
0000
,
0000
0000
0200
0000
,
0000
0000
0000
0000
,
0310
0000
0001
1000
,
0001
0000
0000
0001
0000
0000
0010
0000
,
0100
0000
0000
0100
0000
0000
1000
0000
,
0001
0000
0010
0001
,
0010
0000
0000
0000
0001
0000
0000
2000
,
0000
0001
0000
0100
,
0000
0000
3001
0000
0010
0000
0000
0010
,
0000
0001
0200
0000
,
0000
0000
0000
0000
0310
0000
0000
0010
,
0000
1000
0002
0000
,
2003
0000
0000
0000
3100
0010
0001
1000
,
0001
0010
0100
1000
0001
1000
0100
0010
,
0000
2002
0000
0000
0000
0000
0000
0000
,
0000
0000
0000
3003
0000
0000
0000
0000
;

//---------------dance-single - ----------------
#NOTEDATA:;
#CHARTNAME:;
#STEPSTYPE:dance-single;
#DESCRIPTION:;
#CHARTSTYLE:;
#DIFFICULTY:Beginner;
#METER:3;
#RADARVALUES:0.174512,0.262404,0.057390,0.000000,0.000000,149.000000,142.000000,7.000000,0.000000,0.000000,0.000000,0.000000,0.000000,0.000000,0.174512,0.262404,0.057390,0.000000,0.000000,149.000000,142.000000,7.000000,0.000000,0.000000,0.000000,0.000000,0.000000,0.000000;
#CREDIT:Daniel Van Eden;
#DISPLAYBPM:91.000000:183.000000;
#NOTES:
0000
0000
0000
0000
,
0000
0000
0000
0000
,
0000
0000
0000
0000
,
0000
0000
0000
0000
1000
0000
0000
0100
,
0000
0000
0010
0000
0000
0001
0000
0000
,
1000
0000
0000
0001
0000
0000
0100
0000
,
0000
0010
0000
0000
0010
0000
0000
0010
,
0000
1001
0000
0000
,
0000
0000
0000
0000
,
0000
1000
0000
0000
,
0000
0001
0000
0000
,
0000
1000
0000
0000
,
0000
0001
0000
0000
,
0000
1000
0000
1000
,
0000
0100
0000
0100
,
0000
0010
0000
0010
,
0000
0001
0000
0001
,
0000
0100
0000
0001
,
0000
1000
0000
0010
,
0000
0100
0000
0000
,
0000
0000
0000
0000
,
0000
0000
1000
0000
,
0001
0000
0010
0010
,
0010
0000
0001
0001
,
0000
0000
1000
0000
,
0010
0000
0100
0000
,
0010
0000
1000
1000
,
1000
0000
0001
0000
,
0010
0000
0100
0000
,
1000
0000
0001
0000
,
1000
0000
0010
0010
,
0010
0000
1000
1000
,
0000
0000
0001
0000
,
0010
0000
0100
0000
,
1000
0000
0001
0001
,
0001
0000
1001
0000
,
1000
0000
0010
0000
,
0100
0100
0100
0000
,
0010
0000
1000
0000
,
0110
0000
0001
0000
,
1000
0000
0100
0000
,
0010
0010
0010
0000
,
0001
0000
1000
0000
,
1001
0000
0001
0000
,
0100
0000
0001
0001
,
0001
0000
1000
0000
,
0010
0000
1000
0000
,
0110
0000
0100
0000
,
0001
0000
1000
1000
,
1000
0000
0100
0000
,
0010
0000
0001
0000
,
1001
0000
1000
0100
,
0010
0001
1000
0001
,
0100
0010
1000
0001
,
0010
0100
1000
0000
,
0000
0000
0000
0000
,
0000
0000
0000
0000
,
0000
0000
1000
0000
,
0000
0000
0000
0000
,
0001
0000
0010
0000
,
0001
0000
0100
0100
,
0100
0000
0010
0000
,
1000
0000
0001
0001
,
0001
0000
1000
0000
,
0010
0000
1000
0000
,
0100
0000
0010
0000
,
0100
0100
0100
0000
,
1000
0000
0010
0010
,
0010
0000
1000
0000
,
0001
0000
0010
0100
,
1000
0001
1000
0010
,
0000
1001
0000
0000
0000
0000
0000
0000
;
