#TITLE:夏にキスしていいですか?;
#SUBTITLE:;
#ARTIST:アルスマグナ;
#TITLETRANSLIT:Natsu ni Kiss shite ii desu ka?;
#SUBTITLETRANSLIT:;
#ARTISTTRANSLIT:ARSMAGNA;
#GENRE:SUMMER J-POP;
#CREDIT:;
#BANNER:Natsu ni Kiss shite ii desu ka.png;
#BACKGROUND:Natsu ni Kiss shite ii desu ka-bg.png;
#LYRICSPATH:;
#CDTITLE:cdtitle.png;
#MUSIC:Natsu ni Kiss shite ii desu ka.ogg;
#OFFSET:-2.023000;
#SAMPLESTART:50.001999;
#SAMPLELENGTH:15.000000;
#SELECTABLE:YES;
#DISPLAYBPM:160.000000;
#BPMS:0.000000=120.000000
,12.000000=160.000000
;
#STOPS:232.000000=1.125000
;
#BGCHANGES:;
#KEYSOUNDS:;
#ATTACKS:;

//---------------dance-single - Daff_4K----------------
#NOTES:
     dance-single:
     Daff_4K:
     Beginner:
     4:
     0.174556,0.218922,0.080005,0.000000,0.000000,168.000000,157.000000,11.000000,0.000000,0.000000,0.000000,0.174556,0.218922,0.080005,0.000000,0.000000,168.000000,157.000000,11.000000,0.000000,0.000000,0.000000:
0000
0000
0000
0000
,
0000
0000
0000
0000
,
0000
0000
0000
0000
,
0000
0000
0000
0000
,
1000
0000
0010
0000
,
1000
0000
0000
0000
,
0100
0000
0100
0000
,
0010
0010
0010
0000
,
0001
0000
0010
0000
,
0001
0000
0000
0000
,
0100
0000
0100
0000
,
0010
0010
0010
0000
,
1000
0000
0001
0000
,
0100
0000
0010
0000
,
1001
0000
0000
0000
,
1000
0000
0100
0000
,
0010
0000
0000
0000
,
0001
0000
0000
0000
,
1000
0000
0000
0000
,
0001
0000
0100
0000
,
0010
0000
0000
0000
,
1000
0000
0000
0000
,
0001
0000
0010
0000
,
0001
0000
0000
0000
,
1000
0000
0010
0000
,
1000
0000
0000
0000
,
0100
0100
0100
0000
,
0010
0010
0010
0000
,
0001
0000
0001
0000
,
1000
0000
1000
0000
,
1001
0000
0000
0000
,
0001
0000
0100
0000
,
0010
0010
0010
0000
,
1000
0000
0001
0000
,
1000
1000
1000
0000
,
1000
0000
0100
0000
,
0010
0010
0010
0000
,
0001
0000
1000
0000
,
1001
0000
0000
0000
,
0001
0000
0100
0000
,
0010
0010
0010
0000
,
1000
0000
0100
0000
,
0010
0010
0010
0000
,
0110
0000
0000
0000
,
1001
0000
0000
0000
,
0010
0000
0100
0000
,
1001
0000
0000
0000
,
0010
0000
0100
0000
,
0010
0010
0010
0000
,
1000
0000
0000
0000
,
0100
0000
0100
0000
,
0001
0000
0000
0000
,
0010
0000
0010
0000
,
1000
0000
0000
0000
,
0001
0000
0000
0000
,
0100
0000
0100
0000
,
0010
0000
0010
0000
,
1001
0000
0000
0000
,
0000
1000
0000
0001
,
0000
0100
0100
0100
,
0000
0010
0000
1000
,
0000
0001
0001
0001
,
0000
0001
0000
1000
,
0000
0100
0100
0100
,
0000
0010
0000
0100
,
0000
1001
0000
0000
,
0000
1000
0000
0010
,
0000
0100
0100
0100
,
0000
0001
0000
0010
,
0000
0100
0100
0100
,
0000
0110
0000
0000
,
0000
1001
0000
0000
,
0000
0100
0000
0010
,
0000
1001
0000
0000
,
0000
0100
0000
0010
,
0000
0100
0100
0100
,
0000
1000
0000
0010
,
0000
0100
0000
0000
,
0000
0001
0000
0001
,
0000
1000
1000
1000
,
0000
0001
0000
0010
,
0000
0100
0000
0000
,
0000
1000
0000
1000
,
0000
0001
0001
0001
,
0000
1000
0000
0001
,
0000
0010
0000
0100
,
0100
0000
0000
0000
;

//---------------dance-single - Daff_4K----------------
#NOTES:
     dance-single:
     Daff_4K:
     Easy:
     5:
     0.210921,0.313655,0.080005,0.247287,0.000000,203.000000,192.000000,11.000000,34.000000,0.000000,0.000000,0.210921,0.313655,0.080005,0.247287,0.000000,203.000000,192.000000,11.000000,34.000000,0.000000,0.000000:
0000
0000
0000
0000
,
0000
0000
0000
0000
,
0000
0000
0000
0000
,
0000
0000
0000
0000
,
1000
0000
1000
0000
,
0001
0001
0001
0000
,
0100
0000
0100
0000
,
0010
0010
0100
0100
,
0001
0000
0001
0000
,
1000
1000
1000
0000
,
0100
0000
0100
0000
,
0010
0010
0100
0100
,
0010
0010
0100
0100
,
1000
0001
1000
0000
,
0002
0000
0000
0003
,
0200
0000
0000
0300
,
0020
0000
0000
0030
,
1000
0000
0001
0000
,
2000
0000
0000
3000
,
0200
0000
0000
0300
,
0020
0000
0000
0030
,
0001
0000
1000
0000
,
0001
0000
0001
0100
,
0100
0000
0100
0010
,
0010
0000
0010
1000
,
1000
0000
1000
0001
,
0001
0001
1000
0000
,
0100
0100
0010
0000
,
0001
0001
0100
0000
,
0010
0010
1000
0000
,
2002
0000
0000
3003
,
1000
0000
0010
0000
,
0100
0100
0100
0000
,
0001
0000
0100
0000
,
0010
0010
0010
0000
,
1000
0000
0001
0000
,
0010
0010
0010
0000
,
0002
0000
1003
0000
,
1000
0001
1000
0001
,
1000
1000
0100
0100
,
0010
0001
1000
0000
,
0001
0001
0100
0100
,
0010
1000
0001
0000
,
0220
0000
0330
0000
,
2002
0000
3003
0000
,
0020
0000
0130
0000
,
0220
0000
0330
0000
,
2002
0000
0000
0000
,
0000
0000
0000
3003
,
1000
0000
1000
0000
,
0002
0000
0003
0000
,
0100
0000
0100
0000
,
0020
0000
0030
0000
,
1000
1000
1000
0000
,
0001
0001
0001
0000
,
0010
0000
0100
0000
,
1000
0000
0001
0000
,
2002
0000
0000
0000
,
3003
0001
0000
0010
,
0000
0100
0100
0100
,
0000
1000
0000
0100
,
0000
0010
0010
0010
,
0000
0001
0000
1000
,
0000
0010
0010
0010
,
0000
2000
0000
3000
,
0000
0001
1000
0001
,
1000
0001
0001
0100
,
0100
0010
1000
0001
,
0000
1000
1000
0100
,
0100
0010
0001
1000
,
0000
0220
0000
0330
,
0000
2002
0000
3003
,
0000
0020
0000
0130
,
0000
0220
0000
0330
,
0000
2002
0000
0000
,
0000
0000
0000
0000
,
3003
1000
0000
1000
,
0000
0010
0010
0010
,
0000
0100
0000
0100
,
0000
0001
0001
1000
,
1000
0001
0000
0001
,
0000
0010
0010
0010
,
0000
0100
0000
0100
,
0000
1000
1000
0001
,
0001
0010
0010
0100
,
0100
1000
0001
1000
,
2002
3003
0000
0000
;

//---------------dance-single - Daff_4K----------------
#NOTES:
     dance-single:
     Daff_4K:
     Medium:
     9:
     0.423921,0.531667,0.450935,0.458208,0.000000,408.000000,346.000000,62.000000,63.000000,0.000000,0.000000,0.423921,0.531667,0.450935,0.458208,0.000000,408.000000,346.000000,62.000000,63.000000,0.000000,0.000000:
0000
0000
0000
0000
,
0000
0000
0000
0000
,
0000
0000
0000
0000
,
0000
0000
0000
0000
,
2000
3100
0002
0103
,
1000
0001
0100
1001
,
2000
3010
0002
0013
,
1000
0010
0100
1001
,
0002
0103
2000
3100
,
0001
1000
0100
1001
,
0002
0013
2000
3010
,
0001
0010
0100
1001
,
1010
1010
0101
0101
,
1001
0110
2002
3003
,
0002
0000
0203
0320
,
2030
0000
3002
0023
,
0230
0000
2300
3002
,
0103
0010
0100
0000
0001
1000
0001
0000
,
2000
0000
3200
0320
,
0032
0000
2003
3020
,
0230
0000
0302
2003
,
3100
0010
0100
0000
1000
0001
1000
0000
,
0002
0100
0103
0010
,
2000
0100
3100
0010
,
0002
1000
1003
0010
,
0100
0010
0100
0000
0001
1000
0001
0000
,
0110
0000
1001
0000
0110
0000
1000
0001
,
1000
0110
1001
0110
,
0001
0000
0100
0001
0100
0000
0010
1000
,
0010
0000
1000
0001
1000
0000
0001
0000
,
2002
0000
0000
3003
,
1000
0010
1000
0000
0001
0100
0001
0000
,
1000
0010
0100
1001
,
0001
0010
0001
0000
1000
0010
1000
0000
,
0001
1000
0100
1001
,
2000
0010
0001
3100
,
1000
0001
0100
1001
,
1200
0001
1000
0301
,
0110
0000
0000
1001
0000
1001
0000
0000
,
1000
0010
0100
0000
0010
1000
0001
0000
,
0010
0100
0110
1001
,
0001
0010
0100
0000
0010
0001
1000
0000
,
0010
0100
0110
1001
,
1200
0001
1300
1001
,
0201
1000
0301
1001
,
1000
0010
0100
0000
0001
0010
0100
0000
,
2000
0002
0000
0000
0000
0000
3003
0000
,
0010
0010
0010
0000
0100
0100
0100
0000
,
1000
0001
1000
0001
1000
0000
1001
0000
,
0001
0100
0010
1000
,
0002
0100
2000
3003
,
1000
0010
0100
0001
,
2000
0100
0002
3003
,
1000
0010
0100
0000
0010
0000
1000
0000
,
0001
0010
0100
0000
0010
0000
0001
0000
,
1000
0010
0100
0001
,
2000
3001
0002
1003
,
2002
0000
0000
0000
,
3003
0000
0001
0010
0001
0000
1000
0100
,
1000
0001
0010
0100
,
1001
0000
1000
0010
1000
0000
0001
0010
,
0001
1000
0001
0100
,
1001
0002
0010
1000
,
0103
0001
1000
0100
,
1001
0201
1000
0001
,
1300
0000
0110
0000
0000
1001
0000
1001
,
0000
0000
0001
0010
0100
0000
0010
0001
,
1000
0010
0100
0110
,
1001
0000
1000
0010
0100
0000
0010
1000
,
0001
0010
0100
0110
,
1001
0201
1000
0301
,
1001
1200
0001
1300
,
1001
0000
0001
0010
0100
0000
1000
0010
,
0100
0000
0002
2000
0000
0000
0000
0000
,
3003
0000
0010
0010
0010
0000
0100
0100
,
0100
0000
0001
1000
0001
1000
0001
0000
,
1001
2000
3010
0002
,
0013
1000
0001
0010
,
1001
2000
3100
0002
,
0103
1000
0100
0010
,
1001
0002
0013
2000
,
3010
0001
1000
0010
,
1001
0002
0103
2000
,
3100
0001
0100
0010
,
1001
1100
1100
0011
,
0011
1001
0110
2002
,
3003
0000
0000
0000
;

//---------------dance-single - Daff_4K----------------
#NOTES:
     dance-single:
     Daff_4K:
     Hard:
     13:
     0.627569,0.627309,0.778227,0.407296,0.116370,604.000000,497.000000,107.000000,56.000000,0.000000,0.000000,0.627569,0.627309,0.778227,0.407296,0.116370,604.000000,497.000000,107.000000,56.000000,0.000000,0.000000:
0000
0000
0000
0000
,
0000
0000
0000
0000
,
0000
0000
0000
0000
,
0000
0000
0000
0000
,
2001
0000
3010
0100
0002
0000
1003
0100
,
0010
0000
0001
1000
0001
0000
1000
0000
0010
0000
0000
0000
0101
0000
0000
0000
,
2001
0000
3100
0010
0002
0000
1003
0010
,
0110
1001
0011
1100
,
1002
0000
0013
0100
2000
0000
3001
0100
,
0010
0000
1000
0001
1000
0000
0001
0000
0010
0000
0000
0000
1100
0000
0000
0000
,
1002
0000
0103
0010
2000
0000
3001
0010
,
0110
1001
1010
0101
,
1001
1010
0011
0101
,
1100
1001
0110
1001
,
1200
0010
0302
2003
,
3020
0000
0100
0000
0031
1000
0020
0000
,
0230
1000
0010
0302
,
0013
1000
0010
0100
0010
0001
1000
0001
,
0200
0010
2300
3002
,
0023
0000
0100
0000
1030
0001
0020
0000
,
0230
0001
0010
2300
,
3010
0001
0010
0100
0010
1000
0001
1000
,
0200
0000
0310
0001
1000
0000
1010
0000
,
0102
0000
1003
0100
0010
0000
1001
0000
,
0201
0000
0310
1000
0001
0000
0011
0000
,
2100
0000
3001
0100
0010
0000
1001
0000
,
0100
1000
0010
1000
0100
0000
1001
0000
,
0100
0001
0010
0001
0100
0000
1001
0000
,
1000
0100
1100
0000
0001
0100
0101
0000
,
1000
0000
0010
0100
0000
0010
0100
0000
0001
0000
0010
0000
1000
0000
0010
0000
,
0001
0000
0100
0010
0100
0000
0010
0000
1000
0000
0001
0000
1001
0000
0000
0000
,
1000
0100
0001
0100
0010
0100
1000
0001
,
0101
0000
0000
0100
0010
0000
0000
0010
1000
0000
0000
1000
0001
0000
0000
0000
,
0001
0010
1000
0010
0100
0010
0001
1000
,
1010
0000
0000
0010
0100
0000
0000
0100
0001
0000
1000
0000
1001
0000
0000
0000
,
0021
0000
0130
1000
0020
0000
0130
0001
,
1001
0000
0000
1000
0100
0000
0000
0100
0001
0000
0000
0001
0010
0000
0000
0010
,
1000
0000
0000
1000
0100
0000
0000
0100
0010
0000
0000
0010
0001
0000
1000
0000
,
1001
0000
0100
0010
0100
0000
1001
0000
,
1000
0001
0100
0010
1000
0100
0001
1000
,
0010
0100
1000
0010
0110
0000
1001
0000
,
0001
1000
0100
0010
0001
0100
1000
0001
,
0010
0100
0001
0010
0110
0000
1001
0000
,
1020
0000
0001
0000
1030
0100
0110
0000
,
0021
0000
1000
0000
0031
0100
0110
0000
,
1000
0100
0010
0001
0100
0010
1000
0001
,
0110
2002
0000
0000
0000
0000
3003
0000
,
2000
0010
3010
0000
0002
0010
0013
0000
,
1000
0010
0100
0001
1000
0000
1001
0000
,
0201
0000
0310
1000
0100
0000
1001
0000
,
0102
0013
2001
3010
,
1200
0000
0310
0001
0100
0000
1001
0000
,
2100
3010
1002
0013
,
0001
0100
1000
0100
0010
0000
1001
0000
,
1000
0100
0001
0100
0010
0000
1001
0000
,
1000
0010
0001
0010
1000
0100
0010
0001
,
0201
0000
0310
1000
1200
0000
0310
0001
,
1000
0000
0010
0100
0010
0000
0100
0000
0001
0000
0010
0000
0100
0000
1000
0000
,
1001
0000
0001
0100
1000
0100
0010
0100
,
0001
0000
1000
0000
1100
0000
0000
0100
0010
0000
0000
0010
0001
0000
0000
0001
,
1000
0000
1000
0010
0001
0010
0100
0010
,
1000
0000
0001
0000
0011
0000
0000
0010
0100
0000
0000
0100
1000
0000
0001
0000
,
1001
0000
1020
0000
0130
0001
0020
0000
,
0130
0000
1000
0000
1001
0000
0000
0001
0100
0000
0000
0100
1000
0000
0000
1000
,
0010
0000
0000
0010
0001
0000
0000
0001
0100
0000
0000
0100
0010
0000
0000
0010
,
1000
0001
1001
0000
0100
0010
0100
0000
,
1001
0000
0001
1000
0100
0010
0001
0100
,
1000
0001
0010
0100
0001
0010
0110
0000
,
1001
0000
1000
0001
0100
0010
1000
0100
,
0001
1000
0010
0100
1000
0010
0110
0000
,
1001
0000
0021
0000
1000
0000
0031
0100
,
0110
0000
1020
0000
0001
0000
1030
0100
,
0110
0000
0001
0100
0010
1000
0100
0010
,
0001
1000
0110
2002
0000
0000
0000
0000
,
3003
0000
0002
0010
0013
0000
2000
0010
,
3010
0000
0001
0001
1000
1000
1001
0000
,
0110
0000
2001
0000
3100
0010
0001
0100
,
1000
0000
0100
0000
0001
0000
0010
0100
0010
0000
0100
0000
1000
0000
0000
0000
,
0011
0000
2001
0000
3010
0001
0010
0100
,
0001
1000
1100
0000
0011
0000
0101
0000
,
1010
0000
1002
0000
0103
0010
1000
0100
,
0001
0000
0100
0000
1000
0000
0010
0100
0010
0000
0100
0000
0001
0000
0000
0000
,
1010
0000
1002
0000
0013
1000
0010
0100
,
1000
0001
0101
0000
1010
0000
1100
0000
,
0011
1001
1010
0011
,
0101
1100
1001
0110
,
2002
3003
0000
0000
;

//---------------dance-single - Daff_4K----------------
#NOTES:
     dance-single:
     Daff_4K:
     Challenge:
     15:
     0.711730,0.846867,0.792773,0.174556,0.290926,685.000000,576.000000,109.000000,24.000000,0.000000,0.000000,0.711730,0.846867,0.792773,0.174556,0.290926,685.000000,576.000000,109.000000,24.000000,0.000000,0.000000:
// measure 0
0000
0000
0000
0000
,  // measure 1
0000
0000
0000
0000
,  // measure 2
0000
0000
0000
0000
,  // measure 3
0000
0000
0000
0000
,  // measure 4
1001
0000
0000
1000
0010
0000
0100
0000
0010
0000
0001
0000
0010
0000
1000
0000
,  // measure 5
0100
0000
0010
0100
0010
0000
0001
0000
1000
0000
0000
0000
0101
0000
0000
0000
,  // measure 6
1001
0000
0000
1000
0100
0000
0010
0000
0100
0000
0001
0000
0100
0000
1000
0000
,  // measure 7
1010
0101
0011
1100
,  // measure 8
1001
0000
0000
0001
0010
0000
0100
0000
0010
0000
1000
0000
0010
0000
0001
0000
,  // measure 9
0100
0000
0010
0100
0010
0000
1000
0000
0001
0000
0000
0000
1100
0000
0000
0000
,  // measure 10
1001
0000
0000
0001
0100
0000
0010
0000
0100
0000
1000
0000
0100
0000
0001
0000
,  // measure 11
0011
1100
1010
0101
,  // measure 12
1001
1100
0101
0011
,  // measure 13
1010
0000
1001
0000
0100
0010
1001
0000
,  // measure 14
0201
0000
0000
0000
1000
0000
0000
0000
0320
0000
0000
0000
1030
0000
0001
1000
,  // measure 15
0002
0000
0010
0000
1003
0001
0200
0000
,  // measure 16
0320
0000
0000
0000
0001
0000
0000
0000
0100
0000
0000
0000
1030
0000
0001
1000
,  // measure 17
0001
0010
1000
0010
0001
0100
0010
1000
,  // measure 18
0200
0000
0000
0000
0001
0000
0000
0000
0320
0000
0000
0000
0031
0000
1000
0001
,  // measure 19
2000
0000
0010
0000
3001
1000
0200
0000
,  // measure 20
0320
0000
0000
0000
1000
0000
0000
0000
0100
0000
0000
0000
0031
0000
1000
0001
,  // measure 21
1000
0010
0001
0010
1000
0100
0010
0001
,  // measure 22
0200
0000
0310
1000
0001
0000
0110
0000
,  // measure 23
2001
0000
3010
0100
0001
0000
1010
0000
,  // measure 24
1200
0000
0310
0001
1000
0000
0110
0000
,  // measure 25
1002
0000
0013
0100
1000
0010
0100
0001
,  // measure 26
0000
0110
0000
1001
0001
0010
0100
1000
,  // measure 27
0000
0110
0000
1001
0000
1000
0010
0100
,  // measure 28
0001
0010
1000
0010
0001
1000
0010
0001
,  // measure 29
0010
0000
1000
0001
1000
0000
0001
0000
0010
0000
0100
0000
1000
0000
0001
0000
,  // measure 30
0100
0010
0100
0010
1000
0001
1000
0001
1000
0001
1000
0001
1000
0000
0000
0000
,  // measure 31
0001
0100
0001
0000
1000
0000
0100
0000
0001
0000
0100
0000
0010
0000
0001
0000
,  // measure 32
1001
0000
0000
1000
0010
0000
0000
0010
0001
0000
0100
0000
1000
0000
0010
0000
,  // measure 33
0100
0000
0001
1000
0001
0000
1000
0000
0100
0000
0001
0000
0100
0000
0010
0000
,  // measure 34
0001
0000
1000
0000
1010
0000
0000
0010
0100
0000
0001
0000
1001
0000
0000
0000
,  // measure 35
1000
0100
1000
0000
0001
0000
0100
0000
1000
0000
0100
0000
0010
0000
1000
0000
,  // measure 36
1001
0000
0000
0001
0010
0000
0000
0010
1000
0000
0100
0000
0001
0000
0000
0001
,  // measure 37
1000
0000
0000
1000
0100
0000
0000
0100
0010
0000
0000
0010
0001
0000
1000
0000
,  // measure 38
1001
0000
0011
1100
0000
0110
1001
0000
,  // measure 39
1000
0010
1000
0000
0100
0000
0001
0000
1000
0000
0010
0000
0001
0000
0100
0000
,  // measure 40
0010
1000
1100
0000
0010
0001
0101
0000
,  // measure 41
0001
0010
0001
0000
0100
0000
1000
0000
0001
0000
0010
0000
1000
0000
0100
0000
,  // measure 42
0010
0001
0101
0000
0010
1000
1100
0000
,  // measure 43
1001
0000
0000
0001
0010
0000
0000
0010
1000
0000
0100
0000
0001
0000
1001
0000
,  // measure 44
0000
1000
0010
0000
0000
0010
0001
0000
0100
0000
1000
0000
1001
0000
0000
0000
,  // measure 45
0001
0000
0100
0010
0100
0000
1000
0000
0001
0000
0010
0000
1000
0000
0001
0000
,  // measure 46
0110
2002
0000
0000
0000
0000
3003
0000
,  // measure 47
1000
0010
1010
0000
0001
0010
0011
0000
,  // measure 48
1000
1000
0001
0001
0110
0000
1001
0000
,  // measure 49
1200
0000
0301
1000
0010
0001
0100
0000
,  // measure 50
1010
1100
0011
1001
,  // measure 51
0201
0000
1300
0001
0010
1000
0100
0000
,  // measure 52
0011
0101
1010
1001
,  // measure 53
0001
0100
0100
1000
0001
0000
0110
0000
,  // measure 54
1000
0010
0010
0001
1000
0000
0110
0000
,  // measure 55
0001
1000
0000
0110
0000
1001
0000
0001
,  // measure 56
1000
0000
0010
0100
0010
0000
0100
0000
0001
0000
0010
0100
0010
0000
0100
0000
,  // measure 57
1000
0010
1000
0010
1000
0010
1000
0010
0100
0001
0100
0001
0100
0001
0100
0001
,  // measure 58
1000
0000
0000
0000
0001
0100
0001
0000
1000
0000
0010
0000
0001
0000
0010
0100
,  // measure 59
0010
0000
1000
0000
1100
0000
0000
0100
0001
0000
0000
0001
0010
0000
1000
0000
,  // measure 60
0001
0000
0010
0000
1000
0000
0010
0100
0010
0000
0001
1000
0001
0000
0100
0000
,  // measure 61
0010
0000
1000
0000
0100
0000
0010
0000
0011
0000
0000
0001
0100
0000
0010
0000
,  // measure 62
1010
0000
0000
0000
1000
0100
1000
0000
0001
0000
0010
0000
1000
0000
0010
0100
,  // measure 63
0010
0000
0001
0000
0101
0000
0000
0100
1000
0000
0000
1000
0010
0000
0001
0000
,  // measure 64
1000
0000
0000
1000
0001
0000
0000
0001
0100
0000
0000
0100
0010
0000
0000
0010
,  // measure 65
1000
0001
1001
0000
1010
0101
0000
0110
,  // measure 66
1001
0000
0000
0000
1000
0100
1000
0000
0001
0000
0100
0000
1000
0000
0100
0010
,  // measure 67
0100
0001
0010
1000
0001
0100
1000
0010
,  // measure 68
0110
0000
0000
0000
0001
0100
0001
0000
1000
0000
0100
0000
0001
0000
0100
0010
,  // measure 69
0100
1000
0010
0001
1000
0100
0001
0010
,  // measure 70
0110
0000
0000
0000
1001
0000
0000
1000
0100
0000
0000
0100
0001
0000
0010
0000
,  // measure 71
1000
0000
1001
0000
0000
0001
0100
0000
0000
0100
1000
0000
0010
0000
0001
0000
,  // measure 72
1001
0000
0000
0000
1000
0000
0010
0100
0010
0000
0001
0000
1000
0000
0100
0000
,  // measure 73
0001
1000
0110
2002
0000
0000
0000
0000
,  // measure 74
3003
0000
0002
0100
0103
0000
2000
0100
,  // measure 75
3100
0000
0001
0001
1000
1000
0110
0000
,  // measure 76
1001
0000
0000
0000
1010
0000
0000
0010
0001
0000
1000
0000
0100
0000
0001
1000
,  // measure 77
0001
0000
1000
0000
0100
0000
0010
0001
0010
0000
0001
0000
1000
0000
0000
0000
,  // measure 78
0110
0000
0000
0000
1001
0000
0000
0001
0010
0000
1000
0000
0010
0000
0001
1000
,  // measure 79
0001
1000
1010
0000
0101
0000
0110
0000
,  // measure 80
1001
0000
0000
0000
0011
0000
0000
0010
1000
0000
0001
0000
0100
0000
1000
0001
,  // measure 81
1000
0000
0001
0000
0100
0000
0010
1000
0010
0000
1000
0000
0001
0000
0000
0000
,  // measure 82
0110
0000
0000
0000
1001
0000
0000
1000
0010
0000
0001
0000
0010
0000
1000
0001
,  // measure 83
1000
0001
0011
0000
1100
0000
0110
0000
,  // measure 84
1001
1010
0101
0011
,  // measure 85
1100
0000
1001
0000
0110
0000
1001
0110
,  // measure 86
2002
3003
0000
0000
;
