#TITLE:Naissance;
#SUBTITLE:;
#ARTIST:BanYa;
#TITLETRANSLIT:;
#SUBTITLETRANSLIT:;
#ARTISTTRANSLIT:;
#GENRE:Big beat;
#CREDIT:tikal.;
#MUSIC:naissance.ogg;
#BANNER:naissance.png;
#BACKGROUND:naissance-bg.png;
#CDTITLE:cdtitle.png;
#SAMPLESTART:68.956;
#SAMPLELENGTH:14.170;
#SELECTABLE:YES;
#OFFSET:0.121;
#BPMS:0.000=135.500;
#STOPS:;
#BGCHANGES:;
#FGCHANGES:;

//--------------- dance-single - tikal. '00 ----------------
#NOTES:
     dance-single:
     tikal. '00:
     Hard:
     13:
     0,0,0,0,0:
0000
0000
0000
0000
,
0000
0000
0000
0000
,
0000
0000
0000
0000
,
0000
0000
0000
0000
,
0001
1000
0000
0100
0000
0010
0000
0001
,
0000
0100
0000
0100
0000
0010
0000
0010
,
0000
1000
0000
0001
0000
0010
0000
0100
,
1000
0100
0010
0001
0100
0010
1001
0000
,
1000
0001
0000
0100
0000
0010
0000
1000
,
0000
0100
0000
0100
0000
0010
0000
0010
,
0000
0001
1000
0010
0100
0000
0100
0000
,
0001
0010
0100
1000
0010
0100
1001
0000
,
1000
0000
0010
0000
0100
0000
0000
0010
0000
0010
1000
0000
0001
1000
0000
0000
,
1000
0000
0100
0000
0010
0000
0000
0100
0000
0100
1000
0000
0001
0000
1000
0000
,
1000
0000
0010
0000
0001
0000
0000
0010
0000
0010
1000
0000
0100
1000
0000
0000
,
0001
0100
0010
1000
0100
0010
1001
0000
,
0001
0000
0010
0000
0100
0000
0000
0010
0000
0010
0001
0000
1000
0001
0000
0000
,
0001
0000
0100
0000
0010
0000
0000
0100
0000
0100
0001
0000
1000
0000
0001
0000
,
0001
0000
0010
0000
1000
0000
0000
0010
0000
0010
0001
0000
0100
0001
0000
0000
,
0010
0000
0000
0000
0100
0000
0000
1000
0001
0000
0100
0010
0000
1000
0001
0000
,
1001
0000
0000
0000
0000
0000
0000
0000
1100
0000
0000
1100
0000
0000
1001
0000
,
0001
0000
0000
0000
0100
0000
0000
0000
0101
0000
0000
0101
0000
0000
1001
0000
,
1000
0000
0000
0000
0010
0000
0000
0000
1010
0000
0000
1010
0000
0000
1001
0000
,
0001
0000
0010
0010
0100
0100
0000
0000
,
1001
0000
0000
0000
1000
0000
0000
0000
0001
0100
0000
0100
0010
0000
1000
0010
,
1000
0000
0000
0000
0001
0000
0000
0000
1000
0100
0000
0100
0010
0000
0001
0010
,
0001
0000
0000
0000
1000
0000
0000
0000
0001
0010
0000
0010
0100
0000
1000
0100
,
1000
0000
0000
0000
0010
0000
0110
0000
0000
0000
0001
0000
1000
0000
0100
0010
,
0001
0000
0001
0000
0100
0000
0010
0100
0001
0000
0001
0000
1000
0000
0000
0010
,
1000
0000
1000
0000
0100
0000
0010
0100
1000
0000
1001
0000
1001
0000
0001
1000
,
0001
0000
0001
0000
0010
0000
0100
0010
0001
0000
0001
0000
1000
0000
0000
0100
,
1000
1010
1001
0000
0001
0011
1001
0000
,
1000
0000
0000
0000
0010
0000
0000
0001
0000
0000
0010
0000
1000
0000
0000
0000
,
0001
0000
0000
0000
0010
0000
0000
1000
0000
0000
0010
0000
0001
0000
1000
0000
,
1000
0000
0000
0000
0100
0000
0000
0001
0000
0000
0100
0000
1000
0000
0000
0000
,
0010
0000
0000
0000
0100
0000
0000
0001
0010
0000
0100
1000
0000
0010
0100
0000
,
0001
0000
0000
0000
0100
0000
0000
1000
0000
0000
0100
0000
0001
0000
0000
0000
,
1000
0000
0000
0000
0100
0000
0000
0001
0000
0000
0100
0000
1000
0000
0001
0000
,
0001
0000
0000
0000
0010
0000
0000
1000
0000
0000
0010
0000
0001
0000
0000
0000
,
0100
0000
0000
0000
0010
0000
0000
1000
0100
0000
0010
0001
0000
0100
0010
0000
,
1001
0000
0000
0000
0001
0000
0000
1000
0010
0000
0001
0010
0000
0100
0010
1000
,
0001
0000
0000
0000
1000
0000
0000
0001
0010
0000
1000
0010
0000
0100
0010
0001
,
1000
0000
0000
0000
0001
0000
0000
1000
0100
0000
0001
0100
0000
0010
0100
1000
,
0001
0000
0100
0110
0010
0110
0000
0000
,
1001
0000
0000
0000
0001
0000
1000
0100
1000
0000
0001
0010
0100
1000
0010
0100
,
0001
0000
0000
0000
1000
0000
0001
0100
0001
0000
1000
0010
0100
0001
0010
0100
,
1000
0000
0000
0000
0001
0000
1000
0010
1000
0000
0001
0100
0010
1000
0100
0010
,
0001
0010
0100
1000
0010
0100
1001
0000
,
0001
0000
0100
0000
0010
0001
0000
0001
0000
0010
1000
0000
0001
0000
0000
0000
,
1000
0000
0100
0000
0010
1000
0000
1000
0000
0010
0001
0000
1001
0000
1000
0001
,
1000
0000
0010
0000
0100
1000
0000
1000
0000
0100
0001
0000
1001
0000
1000
0001
,
1000
1100
1001
0000
0001
0101
1001
0000
,
1100
0011
0101
1010
,
1001
0000
0000
0000
0100
0010
0100
0010
0100
0010
0100
0010
0100
0010
0100
0000
,
0110
0000
0000
0000
;

//--------------- dance-single - tikal. '00? ----------------
#NOTES:
     dance-single:
     tikal. '00?:
     Challenge:
     16:
     0,0,0,0,0:
0000
0000
0000
0000
,
0000
0000
0000
0000
,
0000
0000
0000
0000
,
0000
0000
0000
0000
,
0001
0000
1000
0000
0100
0000
0010
0100
0001
0100
0010
0000
0100
0000
1000
0000
,
0001
0000
1000
0000
0010
0000
0100
0010
0001
0010
0100
0001
1000
0000
0100
0000
,
1000
0000
0001
0000
0100
0000
0010
0100
1000
0100
0010
0000
0100
0000
0001
0000
,
1000
0010
0100
0001
0010
0100
1001
0000
,
1000
0000
0001
0000
0100
0000
0010
0100
1000
0100
0010
0000
0100
0000
0001
0000
,
1000
0000
0001
0000
0010
0000
0100
0010
1000
0010
0100
1000
0001
0000
0100
0000
,
0001
0000
1000
0000
0100
0000
0010
0100
1000
0001
0100
0000
0010
0000
1000
0000
,
0001
0010
0001
1000
0010
0100
0010
1000
0001
0010
0100
1000
0010
0100
0001
0010
,
0100
0000
1000
0000
1100
0000
0000
1000
0001
0000
0100
0000
0010
0100
0000
0000
,
0100
0000
0001
0000
0101
0000
0000
0001
1000
0100
0010
0000
0110
0000
0100
0000
,
0010
0000
0001
0000
0011
0000
0000
0001
1000
0000
0010
0000
0100
0010
0000
0000
,
1000
0100
0010
0001
0100
0010
1001
0000
,
0110
0000
0000
0000
1000
0000
0000
0001
0000
0001
0100
0000
0010
1000
0000
0000
,
0001
0000
0001
0000
0101
0000
0000
0001
1000
0100
0010
0001
0100
0000
0001
0000
,
1000
0000
1000
0000
1100
0000
0000
1000
0001
0100
0010
1000
0100
0010
0000
0000
,
0001
0100
0001
1000
0100
0010
0100
1000
0001
0100
0010
1000
0100
0010
0001
1000
,
0010
0000
0100
0000
0101
0000
0000
0100
0001
1000
0001
0010
0001
1000
0010
0100
,
0001
0000
1000
0000
1010
0000
0000
0010
1000
0001
1000
0100
1000
0001
0100
0010
,
1000
0000
0001
0000
0011
0000
0000
0010
0001
1000
0001
0100
0001
1000
0100
0010
,
0001
0000
0000
0000
1000
0000
1000
0001
1000
0010
1000
0001
0100
0001
0010
0100
,
1000
0000
0000
0000
1100
0000
0000
0100
1000
0010
0100
1000
0100
0010
1000
0001
,
0010
0000
0001
0000
0011
0000
0000
0010
0001
0100
0010
0001
0010
0100
0001
1000
,
0100
0000
0010
0000
0110
0000
0000
0100
1000
0010
0100
1000
0100
0010
1000
0100
,
0010
0000
0000
0000
0001
0000
0001
0100
0001
0010
0100
0001
0100
0010
0001
0100
,
0010
0000
1000
0010
0100
0010
1000
0001
0010
0000
0010
0100
1000
0000
1000
0001
,
0010
0000
0001
0010
0100
0010
0001
1000
0010
0000
0110
0000
1001
0000
1000
0001
,
0100
0000
0001
0100
0010
0100
0001
1000
0100
0000
0100
0010
0001
0000
0001
1000
,
0010
0000
0110
0000
1001
0000
1000
0001
0010
0000
0110
0000
1001
0000
0001
1000
,
0010
0000
0100
0000
0001
0000
0000
0010
0100
0001
0100
0000
1000
0001
0000
0000
,
0010
0000
0100
0000
1000
0000
0000
0010
0100
1000
0100
0000
0001
0000
0100
0000
,
0100
0000
0010
0000
1000
0000
0000
0100
0010
1000
0010
0000
0001
1000
0000
0000
,
0100
1000
0100
1000
0001
0100
0010
1000
0001
0010
0001
1000
0010
0100
0010
1000
,
0100
0000
0010
0000
0001
0000
0000
0100
0010
0001
0010
0000
1000
0001
0000
0000
,
0100
0000
0010
0000
1000
0000
0000
0100
0010
1000
0010
0000
0001
0000
0010
0000
,
0010
0000
0100
0000
1000
0000
0000
0010
0100
1000
0100
0000
0001
1000
0000
0000
,
0010
1000
0010
1000
0001
0010
0100
1000
0001
0100
0001
1000
0100
0010
0100
1000
,
0001
0000
0010
0000
1100
0000
0000
0100
1000
0001
0010
0010
1000
0001
0100
0100
,
1000
0000
0010
0000
0101
0000
0000
0100
0001
1000
0010
0010
0001
1000
0100
0100
,
0001
0000
0100
0000
1010
0000
0000
0010
1000
0001
0100
0100
1000
0001
0010
0010
,
1000
0000
0000
0000
0001
0000
0001
1000
0001
0010
0001
1000
0100
0100
0001
1000
,
0010
0000
0000
0000
0101
0000
0000
0100
0001
1000
0100
0100
0001
0010
0010
1000
,
0001
0000
1000
0000
1100
0000
0000
0100
1000
0001
0100
0100
1000
0010
0010
0001
,
1000
0000
0100
0000
0110
0000
0000
0010
0001
1000
0010
0010
0001
0100
0100
1000
,
0001
0000
0010
0000
0100
0000
1000
0010
0100
1000
0100
0001
0010
0100
1000
0001
,
0100
0000
0001
1000
0001
0010
0000
0010
0000
0010
0100
0010
0001
0000
1000
0001
,
0010
0000
0001
1000
0001
0100
0000
0100
0000
0100
0010
0000
0110
0000
0001
1000
,
0010
0000
1000
0001
1000
0100
0000
0100
0000
0100
0010
0000
0110
0000
0001
1000
,
0100
0000
0110
0000
1001
0000
1000
0001
0100
0000
0110
0000
1001
0000
0001
1000
,
0100
0000
1000
0001
0100
0000
0001
1000
0010
0000
1000
0001
0010
0000
0001
1000
,
0100
0000
1000
0001
0100
0010
0100
0010
1000
0001
1000
0001
0010
0100
1000
0001
,
0100
0000
0000
0000
;
