#TITLE:Na Na Na (Na Na Na Na Na Na Na Na Na);
#SUBTITLE:;
#ARTIST:My Chemical Romance;
#TITLETRANSLIT:;
#SUBTITLETRANSLIT:;
#ARTISTTRANSLIT:;
#GENRE:;
#CREDIT:;
#MUSIC:Na Na Na (Na Na Na Na Na Na Na Na Na).ogg;
#BANNER:na na na bn.png;
#BACKGROUND:na na na bg.png;
#CDTITLE:;
#SAMPLESTART:46.498;
#SAMPLELENGTH:11.566;
#SELECTABLE:YES;
#OFFSET:-0.233;
#BPMS:0.000=166.000;
#STOPS:204.000=1.084;
#BGCHANGES:;
#FGCHANGES:;

//--------------- dance-single - eataninja ----------------
#NOTES:
     dance-single:
     eataninja:
     Beginner:
     5:
     0,0,0,0,0:
0000
0000
0000
0000
,
0000
0000
0000
0000
,
0000
0000
0000
0000
,
0000
0000
0000
0000
,
0000
0000
0000
0000
,
0000
0000
0000
0000
,
0010
0010
0010
0010
,
0000
0100
0000
0100
,
0001
0001
0001
0000
,
0001
0001
0001
0000
,
1000
1000
1000
0000
,
1000
1000
1000
0000
,
0100
0100
0100
0000
,
0010
0010
0010
0000
,
0001
0001
0001
0000
,
0000
1000
0000
1000
,
0000
1001
0000
0010
,
0000
0100
0000
0001
,
0000
1001
0000
0010
,
0000
0100
0000
1000
,
0000
1001
0000
0001
,
0000
0110
0000
0100
,
0001
0000
1000
0000
,
0100
0100
0100
0000
,
0010
0000
0001
0000
,
0100
0000
0010
0000
,
1000
0001
1000
0000
,
0001
0001
0100
0000
,
0010
0000
0110
0000
,
0010
0010
1000
0000
,
1001
0000
1001
0000
,
0010
0010
0010
0000
,
0001
0001
0001
0000
,
0001
0001
1000
0000
,
0010
0010
0010
0000
,
0010
0010
0100
0000
,
0001
0001
0010
0000
,
0100
0010
0100
0000
,
1000
0000
0001
0000
,
0100
0000
0001
0000
,
1000
1000
1000
0000
,
1000
1000
0001
0000
,
0010
0010
0010
0000
,
0010
0010
0100
0000
,
1000
1000
0010
0000
,
0100
0010
0100
0000
,
1001
0000
0100
0000
,
1001
0000
0010
0000
,
0001
0000
0001
0000
,
0001
0000
0100
0000
,
1000
0000
0100
0000
,
0001
0000
1001
0000
,
1001
0000
1001
0000
,
1001
0000
0110
0000
,
0110
0000
0100
0001
,
0000
1000
1000
1000
,
0000
0001
0001
0001
,
0000
1001
0000
0110
,
0000
0100
0100
0100
,
0000
1000
1000
1000
,
0000
0001
0010
0001
,
0000
0001
0001
0001
,
0000
1000
0010
1000
,
0000
0010
0010
0010
,
0000
0010
0010
0100
,
0000
0001
0000
1000
,
0000
0100
0000
0010
,
0000
0001
0001
0001
,
0001
0001
0001
1000
,
0000
1000
1000
1000
,
1000
1000
1000
0010
,
0000
0010
0010
0010
,
0010
0010
0010
0100
,
0000
0002
0000
0013
,
0000
0200
0000
1300
,
0000
0020
0000
0130
,
0000
0002
0000
1003
,
0000
2000
0000
3100
,
0000
0002
0000
0103
,
0000
0000
0000
0000
0000
2002
0000
0000
0000
0000
0000
0000
0000
0000
0000
0000
,
0000
0000
0000
0000
,
0000
3003
0000
0000
;

//--------------- dance-single - eataninja ----------------
#NOTES:
     dance-single:
     eataninja:
     Easy:
     7:
     0,0,0,0,0:
0000
0000
0000
0000
,
0000
0000
0000
0000
,
0000
0000
0000
0000
,
0000
0000
0000
0000
,
0000
0000
0000
0000
,
0000
0000
0000
0000
,
0001
0001
1000
1000
,
0000
0010
0100
0010
,
2000
3001
0002
1003
,
2000
3001
0010
0001
,
0200
0310
0020
0130
,
0200
0310
1000
0001
,
0020
0130
0200
0310
,
0002
1003
2000
3001
,
0100
0100
0010
1000
,
0000
0100
0100
0100
,
0010
1001
0001
0000
,
0100
0010
0100
0001
,
0010
1001
1000
0000
,
0100
0001
0100
1000
,
0001
2001
3100
0000
,
1000
1002
0103
0000
,
0100
1000
0100
0001
,
1000
0100
0010
0010
,
0001
0001
1000
1000
,
0010
0010
0100
0001
,
0010
1000
0010
0001
,
0001
2000
3010
0100
,
0100
1000
0100
0001
,
0001
0010
0100
1000
,
1001
0001
1001
0010
,
0100
0100
0100
0100
,
0202
0303
0202
0303
,
0010
1000
0100
0010
,
0022
0033
0022
0033
,
0100
1000
0001
0100
,
0220
0330
2002
3003
,
0001
0100
1000
0100
,
0010
1000
0100
0010
,
1000
0010
0001
1000
,
2020
3030
2020
3030
,
0100
0001
0010
0100
,
2200
3300
2200
3300
,
0010
0001
1000
0010
,
0220
0330
2002
3003
,
0001
0100
0010
0010
,
0001
0010
1000
0100
,
0001
0100
1000
0001
,
0200
0300
0200
0300
,
0020
0030
0020
0030
,
1001
0110
1001
0110
,
0101
1000
1100
0000
,
1100
0001
0101
0000
,
0101
1000
1010
0000
,
1010
0001
0011
0000
,
0011
0100
0100
1000
,
1000
0010
0010
0100
,
0100
1000
0100
0001
,
0010
0100
1000
1000
,
0001
0202
0303
2200
,
3300
0100
0001
1000
,
1000
2200
3300
0202
,
0303
0100
1000
0001
,
0001
0202
0303
2020
,
3030
1000
0100
0010
,
0010
1000
0010
0100
,
1000
0010
0001
0010
,
0100
0101
0101
1001
,
1001
0010
1000
0100
,
0100
1100
1100
1001
,
1001
0010
0001
0100
,
0100
0110
0110
1001
,
1001
0010
0100
1000
,
1000
0020
0001
0230
,
0300
0100
0001
0010
,
0100
2000
0010
3002
,
0003
0001
0010
1000
,
0010
0200
1000
0320
,
0030
0001
1000
0010
,
1000
0000
0000
0000
0000
0200
0000
0000
0000
0000
0000
0000
0000
0000
0000
0000
,
0000
0000
0000
0000
,
0000
0300
0000
0000
;

//--------------- dance-single - eataninja ----------------
#NOTES:
     dance-single:
     eataninja:
     Medium:
     10:
     0,0,0,0,0:
0000
0000
0000
0000
,
0000
0000
0000
0000
,
0000
0000
0000
0000
,
0000
0000
0000
0000
,
0000
0000
0000
0000
,
0000
0000
0000
0000
,
0100
0100
0100
0100
,
0000
1000
0001
1000
0001
1000
0001
0000
,
0100
0000
0100
0010
0100
0000
0100
0010
,
0100
0001
0010
0100
,
1000
0000
1000
0001
1000
0000
1000
0001
,
1000
0010
0100
0001
,
0010
0000
0010
0001
0010
0000
0100
0000
,
1000
0000
1000
0001
1000
0000
0010
0000
,
0100
0000
0100
0010
0100
0000
0001
0000
,
0000
1000
0100
1000
0100
1000
0100
0000
,
0010
1001
1000
0010
,
0100
0000
2000
0000
3100
0001
1000
0000
,
0100
1001
0001
0010
,
0100
0000
0002
0000
0103
1000
0001
0000
,
0100
0000
0010
0100
0010
0000
1000
1000
,
0001
0000
0010
0100
1000
0000
0001
0100
,
1000
0000
1000
0100
0001
0000
0010
0000
,
0100
0000
1000
0001
1000
0001
1000
0000
,
0020
0000
0130
0001
2000
0000
3100
0010
,
0002
0000
1003
0010
0100
0000
0001
0000
,
0021
0000
0130
1000
0001
0000
1000
0010
,
0100
0000
2000
0000
3100
0001
1000
0000
,
0100
0000
0101
0000
1100
0000
1000
0010
,
0100
0000
0010
0100
0001
0000
1000
0100
,
0001
0000
0001
0100
1000
0000
0010
0100
,
0001
0000
1000
0000
0001
0010
0100
0100
,
2000
0100
3002
0100
,
2003
0000
0100
0000
3001
0100
0100
0000
,
0002
0100
2003
0100
,
3002
0000
0100
0000
1003
0010
0010
0000
,
0200
1000
0320
1000
,
0230
0000
0010
0000
0301
1000
1000
0000
,
0200
0302
0203
1300
,
0020
0032
0023
1030
,
0002
0010
2003
0100
,
3002
0000
0010
0000
1003
0010
0010
0000
,
2000
0010
3002
0100
,
2003
0000
0010
0000
3001
0100
0100
0000
,
0020
0001
0230
1000
,
0320
0000
0001
0000
1030
0001
1000
0000
,
0100
0000
0001
0000
0001
0100
1000
0000
,
0010
0000
0001
0000
0001
0010
1000
0000
,
0002
0003
0002
0003
,
1000
0000
0100
0000
0010
0001
0100
0000
,
0002
1003
0002
1003
,
0101
0000
0010
0000
0110
0000
0100
0001
,
1000
0000
0100
0000
0110
0000
0010
0001
,
1000
0010
0002
0023
,
1030
0000
0100
0000
0010
0000
1000
0010
,
0001
0000
1000
0001
1000
0000
1000
0010
,
1000
0000
0001
1000
0001
0000
0001
0100
,
0001
0000
1000
0100
0010
0010
0001
0000
,
0100
0000
0000
0010
1000
0010
1000
0010
,
0100
0210
0301
0120
,
1030
0000
0001
0000
0010
0000
0100
1000
,
1000
1002
0103
2001
,
3100
0000
0010
0001
0001
0000
1000
0010
,
0010
0120
1030
0210
,
0301
0000
1000
0000
0100
0000
0001
0100
,
1000
0000
0010
0000
0100
0000
1000
0100
,
0001
0000
0010
0000
1000
0000
0010
0100
,
1000
1001
1001
0101
,
0101
0000
1000
0001
0001
0000
0001
0010
,
0010
1001
1001
1100
,
1100
0000
0001
1000
1000
0000
1000
0010
,
0010
0011
1010
0011
,
1010
0000
0100
0001
0001
0000
1000
0100
,
1000
0000
1100
0000
1001
0000
0010
0100
,
0001
0000
0101
0000
1001
0000
0010
0100
,
1000
0000
1100
0000
0101
0000
1000
0001
,
0010
0000
0011
0000
1010
0000
0001
1000
,
0010
0000
0110
0000
1001
0000
0010
0100
,
0001
0000
1001
0000
0110
0000
1000
0001
,
0100
0000
0000
0000
0000
0202
0000
0000
0000
0000
0000
0000
0000
0000
0000
0000
,
0000
0000
0000
0000
,
0000
0303
0000
0000
;

//--------------- dance-single - eataninja ----------------
#NOTES:
     dance-single:
     eataninja:
     Hard:
     12:
     0,0,0,0,0:
0000
0000
0000
0000
,
0000
0000
0000
0000
,
0000
0000
0000
0000
,
0000
0000
0000
0000
,
0000
0000
0000
0000
,
0000
0000
0000
0000
,
0001
0001
0001
0001
,
1000
0010
0100
0100
0001
0001
1000
0100
,
0020
0000
0031
1000
0020
0000
1030
0001
,
0020
0000
0031
1000
0010
0001
0010
1000
,
0200
0000
1300
0001
0200
0000
0301
1000
,
0200
0000
1300
0001
0100
1000
0100
0001
,
2000
0000
3010
0100
0002
0000
0013
0100
,
2000
0000
3001
0100
2000
0000
3100
0001
,
0020
0000
0031
1000
0020
0000
0230
0000
,
0301
1000
0001
1000
0010
0100
0100
0001
,
1000
0000
1100
0100
0010
0000
0010
0001
,
0100
0000
0100
0010
1000
0100
0010
0001
,
1000
0000
1010
0010
0100
0000
0100
0001
,
0010
0000
0010
0100
1000
0001
0100
0000
,
0010
0000
0110
0100
0001
0000
0001
1000
,
1100
0000
0100
1000
0010
0000
0010
0100
,
0001
0000
0010
0100
1000
0000
0010
0100
,
0001
1000
0001
0001
0010
0100
1000
1000
,
0002
0000
1003
0010
0002
0000
0013
1000
,
0002
0000
0013
0100
0001
0100
0010
0001
,
2000
0000
3010
0100
0020
0000
0130
0001
,
1000
0000
1100
0000
0100
0001
0100
1000
,
0001
0000
0100
1000
1100
0000
0100
0001
,
1000
0000
0100
0010
0001
0000
1000
0010
,
1010
0000
1000
0100
1100
0000
1000
0001
,
0100
1000
0100
0001
1000
1000
0001
0010
,
0200
0000
0000
0300
0100
0000
0001
0000
0200
0000
0000
0300
0100
0000
1000
0000
,
0100
0010
0001
1000
0010
0100
0100
0000
,
0020
0000
0000
0030
0010
0000
0001
0000
0020
0000
0000
0030
0010
0000
1000
0000
,
0010
0100
0001
1000
0100
0010
0010
0000
,
0002
0000
0000
0003
0001
0000
1000
0000
0002
0000
0000
0003
0001
0000
0100
0000
,
0001
1000
0010
0001
0010
1000
0001
0000
,
0020
0000
0230
0000
0302
0000
0103
0010
,
0002
0203
1300
0100
,
0020
0000
0000
0030
0010
0000
1000
0000
0200
0000
0000
0300
0100
0000
1000
0000
,
0010
0100
0001
1000
0100
0010
0010
0000
,
0200
0000
0000
0300
0100
0000
1000
0000
0020
0000
0000
0030
0010
0000
1000
0000
,
0100
0010
0001
1000
0010
0100
0100
0000
,
0002
0000
0000
0003
0001
0000
0100
0000
2000
0000
0000
3000
1000
0000
0100
0000
,
0001
1000
1000
0100
0010
0001
0100
0000
,
0020
2030
3002
0103
,
1000
0100
0001
0000
0010
0100
1000
0000
,
0001
0000
0001
0100
0001
0000
0001
1000
,
0001
0000
1000
0001
0100
1000
0100
0001
,
1000
0010
0100
0100
0001
0010
0100
0100
,
1000
0000
0100
0000
0110
0000
0100
0100
,
0120
0000
0031
0000
1001
0000
0001
0001
,
1002
0103
2000
3200
,
0301
0000
1000
0010
0100
0010
1000
0100
,
0001
0100
0110
0000
0110
0000
1001
0000
,
1001
1010
1010
0101
,
0101
0000
0100
1000
0100
0001
0010
0100
,
1000
0000
0001
1000
0010
1000
0001
0010
,
0100
0000
0100
0000
0002
0000
0000
0003
0001
0000
0100
0000
2000
0000
0000
3000
,
1000
0100
0010
0001
1000
0001
0100
0010
,
0010
0000
0000
0000
0002
0000
0000
0003
0001
0000
0010
0000
2000
0000
0000
3000
,
1000
0010
0100
0001
1000
0100
0010
0001
,
0001
0000
0000
0000
0200
0000
0000
0300
0100
0000
1000
0000
0200
0000
0000
0300
,
0100
0001
1000
0100
0100
0010
0001
1000
,
1000
0000
0001
0010
1000
0000
0010
0100
,
1000
0000
0010
0100
0010
0100
0001
1000
,
0001
1000
1010
0000
1010
0000
1100
0000
,
1100
0000
0001
1000
0001
0100
0010
0100
,
0100
0101
0101
0011
,
0011
0000
1000
0001
0010
0100
1000
0001
,
0001
1001
0101
1001
,
0011
1001
1100
1001
,
1010
0000
0010
1000
0200
0000
0310
0001
,
0100
0000
0100
0001
0020
0000
0130
1000
,
0010
0000
0100
1000
0100
0001
0010
0100
,
1000
0000
0100
0001
0100
1000
0010
0100
,
0001
2000
3010
2001
,
3100
0001
0100
2000
,
3001
0000
0000
0000
0000
0200
0000
0000
0000
0000
0000
0000
0000
0000
0000
0000
,
0000
0000
0000
0000
,
0000
0300
0000
0000
;
