#TITLE:NAVIGATOR;
#SUBTITLE:;
#ARTIST:SixTONES;
#TITLETRANSLIT:;
#SUBTITLETRANSLIT:;
#ARTISTTRANSLIT:;
#GENRE:;
#CREDIT:;
#BANNER:NAVIGATOR.png;
#BACKGROUND:NAVIGATOR-bg.png;
#LYRICSPATH:;
#CDTITLE:;
#MUSIC:NAVIGATOR.ogg;
#OFFSET:1.220000;
#SAMPLESTART:54.623871;
#SAMPLELENGTH:13.150688;
#LASTBEATHINT:0.535333;
#SELECTABLE:YES;
#BPMS:0.000000=146.000000
,66.000000=73.000000
,81.000000=146.000000
;
#STOPS:22.000000=0.411000,
29.000000=0.411000,
36.000000=0.411000,
43.000000=0.411000,
50.000000=0.411000,
57.000000=0.411000,
113.000000=0.411000
;
#BGCHANGES:3.500=NAVIGATOR.avi=1.000=0=0=0=StretchNoLoop====,
200.750=NAVIGATOR-bg.png=1.000=1=0=1===CrossFade==,
216.750=NAVIGATOR-bg.png=1.000=1=0=1===CrossFade==,
99999=-nosongbg-=1.000=0=0=0 // don't automatically add -songbackground-
;
#KEYSOUNDS:;
#ATTACKS:;

//---------------dance-single - ----------------
#NOTES:
     dance-single:
     :
     Challenge:
     13:
     0.482024,0.736265,0.440109,0.230533,0.461066,322.000000,280.000000,42.000000,22.000000,8.000000,0.000000,0.482024,0.736265,0.440109,0.230533,0.461066,322.000000,280.000000,42.000000,22.000000,8.000000,0.000000:
// measure 0
0000
0000
0000
0000
,  // measure 1
0000
0000
0000
0000
,  // measure 2
0000
0000
0000
0000
0000
0000
0000
0000
0000
0000
0000
0000
0000
0000
0000
0000
0000
0000
M000
00M0
0M00
000M
M000
00M0
,  // measure 3
0M00
000M
M000
00M0
0M00
000M
M000
0000
0000
0000
0000
0000
0000
0000
0000
0000
0000
0000
0000
0000
0000
0000
0000
0000
,  // measure 4
0000
0000
0000
0000
0000
0000
0000
0000
0000
0000
0000
0000
0000
0000
0000
0000
0000
0000
M000
00M0
0M00
000M
M000
00M0
,  // measure 5
0M00
000M
M000
00M0
0M00
000M
M000
00M0
0M00
000M
M000
00M0
0M00
0000
0000
0000
0000
0000
1010
0000
0000
0000
0000
0000
,  // measure 6
0011
0000
0000
0000
1010
0000
0000
1001
0000
0000
0011
0000
0110
0000
0000
0000
,  // measure 7
1001
0110
0101
1100
,  // measure 8
0101
0000
0000
1001
0000
0000
1100
0000
0110
0000
0000
0000
1001
0000
0000
0000
,  // measure 9
0110
0000
0001
0010
0100
1000
0010
0100
,  // measure 10
1000
0100
0010
1000
0100
0010
0001
0000
,  // measure 11
0000
0010
0100
1000
0001
0100
0010
0001
,  // measure 12
1000
0000
0110
0000
1001
0000
0000
1000
,  // measure 13
0010
0100
0001
0010
0100
0001
1000
0010
,  // measure 14
0100
1000
0001
0000
0011
0000
1010
0000
,  // measure 15
0011
0000
0000
1001
0000
0000
1010
0000
0110
0000
0000
0000
1001
0000
0000
0000
,  // measure 16
0110
0000
0000
0000
0000
0000
0000
0000
MMMM
0000
0000
0000
0000
0000
0000
0000
1000
0000
0000
0000
0000
0000
1000
0000
0010
0000
0000
0000
0100
0000
0100
0010
,  // measure 17
0100
0000
0001
0000
1000
0000
0100
0000
0010
0000
0000
0000
0000
0000
0010
0100
0010
0000
0001
0000
0100
0000
0010
0000
1000
0000
0100
0000
0010
0000
0001
0000
,  // measure 18
0100
0000
0000
0000
0100
0000
0000
0000
0100
0000
0000
0000
0002
0000
0000
0000
0023
0000
0000
0000
0130
0000
0000
0000
1000
0000
0000
M100
0001
0000
0100
0000
,  // measure 19
0001
0000
0000
010M
1000
0000
0100
0000
1000
0000
0000
M100
0001
0000
0100
0000
0001
0000
0000
1000
0010
0000
0000
0010
0001
0000
0000
0001
0100
0000
0000
0100
,  // measure 20
1000
0101
1100
0101
,  // measure 21
1010
0000
0000
0100
0001
0000
0000
0001
0000
0000
0010
0000
0011
0000
0000
0100
,  // measure 22
1000
0000
0001
0100
1000
0100
0001
0000
,  // measure 23
0010
0000
0000
0000
1000
0000
0010
0000
0001
0000
0100
0000
0010
0000
0000
1000
,  // measure 24
0001
0000
0000
0000
0000
0000
0010
0000
0100
0000
1000
0000
2002
0000
0000
3003
0000
0000
1100
0000
0000
0000
0000
0000
,  // measure 25
0011
0000
0000
0100
1000
0000
0000
1000
0000
0000
0010
0000
1010
0000
0000
0100
,  // measure 26
0001
0000
1000
0100
0001
0100
1000
0000
,  // measure 27
0010
0000
0000
0000
0001
0000
0010
0000
1000
0000
0100
0000
0010
0000
0000
0001
,  // measure 28
1000
0010
2000
3200
,  // measure 29
0302
0023
2030
3200
,  // measure 30
0320
0000
0032
0000
1003
0000
0000
0010
,  // measure 31
1010
0000
0000
1000
0000
0000
0001
1000
0010
0000
0010
0100
0010
0100
0010
0000
,  // measure 32
0100
0010
1000
0000
0002
0000
0023
0000
,  // measure 33
2030
3200
0302
0023
,  // measure 34
0230
2300
3001
1000
,  // measure 35
0001
0000
0000
0100
0000
0000
1000
0100
1000
0000
0000
0000
1000
0000
0100
0000
,  // measure 36
0001
0010
0100
0000
0001
1000
0010
0001
,  // measure 37
0100
0000
0000
0100
0000
0000
0100
0000
1000
0000
0001
0000
0010
0000
1000
0000
,  // measure 38
0001
0000
0010
0000
0100
0000
1000
0100
1000
0000
0100
0010
0000
0010
0001
0000
,  // measure 39
2000
0000
0000
0000
3200
0000
0301
0100
0001
0000
0000
0000
0001
0000
0100
0000
,  // measure 40
0010
0001
1000
0000
0100
0000
0000
0100
,  // measure 41
1100
0000
0000
0000
0000
0000
0001
0000
0101
0000
0000
1000
0000
0000
0010
0000
,  // measure 42
1010
0000
1000
0000
0001
0000
0010
0000
0100
0000
0000
0100
0000
0000
1000
0000
,  // measure 43
1100
0000
0000
0000
0000
0000
1000
0001
0100
0000
0100
0010
0100
0010
0100
0000
,  // measure 44
0010
0000
0100
0000
0001
0000
0000
0000
1000
0000
0000
1000
0000
0000
0100
0000
,  // measure 45
0001
0000
0000
0001
0000
0000
0100
0000
1000
0000
0000
1000
0000
0000
0010
0000
,  // measure 46
0001
1000
0001
0010
,  // measure 47
0110
0000
0000
1000
0000
0000
0001
0010
0100
0000
1000
0000
0010
0000
0100
0000
,  // measure 48
0110
0000
0000
0000
0000
0000
0000
0000
0000
0M00
00M0
M000
000M
00M0
0000
0M00
,  // measure 49
0000
M000
0M00
00M0
000M
0M00
0000
0M00
0000
0M00
00M0
0000
00M0
M000
0000
M000
,  // measure 50
0M00
00M0
000M
M000
0000
0000
0000
0000
0000
0000
0000
0000
0000
0000
0000
0000
;
