#VERSION:0.83;
#TITLE:NANAIRO;
#SUBTITLE:;
#ARTIST:HAYAKO;
#TITLETRANSLIT:;
#SUBTITLETRANSLIT:;
#ARTISTTRANSLIT:;
#GENRE:;
#ORIGIN:;
#CREDIT:;
#BANNER:NANAIRO.png;
#BACKGROUND:NANAIRO-bg.png;
#PREVIEWVID:;
#JACKET:NANAIRO-jacket.png;
#CDIMAGE:;
#DISCIMAGE:;
#LYRICSPATH:;
#CDTITLE:;
#MUSIC:NANAIRO.ogg;
#OFFSET:-0.364114;
#SAMPLESTART:27.555412;
#SAMPLELENGTH:12.799995;
#SELECTABLE:YES;
#BPMS:0.000=150.000;
#STOPS:66.000=0.400,
241.000=0.400;
#DELAYS:;
#WARPS:;
#TIMESIGNATURES:0.000=4=4;
#TICKCOUNTS:0.000=4;
#COMBOS:0.000=1;
#SPEEDS:0.000=1.000=0.000=0;
#SCROLLS:0.000=1.000;
#FAKES:;
#LABELS:0.000=Song Start;
#BGCHANGES:;
#KEYSOUNDS:;
#ATTACKS:
;

//---------------dance-single - ----------------
#NOTEDATA:;
#CHARTNAME:;
#STEPSTYPE:dance-single;
#DESCRIPTION:;
#CHARTSTYLE:;
#DIFFICULTY:Hard;
#METER:15;
#RADARVALUES:0.640303,0.761393,0.135580,0.103679,0.486494,562.000000,545.000000,17.000000,13.000000,0.000000,0.000000,0.000000,0.000000,0.000000,0.640303,0.761393,0.135580,0.103679,0.486494,562.000000,545.000000,17.000000,13.000000,0.000000,0.000000,0.000000,0.000000,0.000000;
#CREDIT:Daniel Van Eden;
#NOTES:
0000
0000
0000
0000
,
0000
0000
0000
0000
,
0000
0000
0000
0000
,
0000
0000
0000
0000
,
0000
0000
0000
0000
,
0000
0000
0000
0000
,
0000
0000
0000
0000
,
0000
0000
0000
0000
,
0000
0000
0000
0000
,
1000
0000
1000
0000
0001
0000
0010
0001
1000
0000
0100
0000
1000
0000
0010
1000
,
0001
0000
0001
0000
1000
0000
0010
1000
0001
0000
0100
0000
0001
0100
0010
1000
,
0001
0000
0001
0000
1000
0000
0100
1000
0001
0000
0010
0000
0001
0000
0100
0001
,
1000
0000
1000
0000
0010
0000
0100
0010
1000
0000
0001
0000
0010
0100
1000
0000
,
0010
0000
0101
0000
0100
0010
1010
0000
,
0100
0000
0011
0000
0001
0100
1000
0100
,
0001
0100
0001
0100
0010
0100
0010
0100
0010
1000
0010
1000
0001
1000
0100
0010
,
0002
0000
0000
0000
0003
0000
1001
1000
,
0100
0000
0001
0000
0100
0000
1000
0000
0010
1000
0010
0000
0100
0000
0010
0000
,
0010
0000
0100
0001
0100
0000
0001
0000
0010
0000
0010
0000
1000
0000
0000
0010
,
0000
0000
0001
0000
1000
0000
0000
0000
0010
0000
0010
0000
0001
0000
0000
0010
,
0000
0000
1000
0001
1000
0000
0001
0000
0010
0100
1000
0000
1001
0000
0001
0000
,
0100
0000
1000
0000
0100
0000
0001
0000
0010
0001
0010
0000
0100
0000
0010
0000
,
0010
0000
0100
1000
0100
0000
1000
0000
0010
0000
0010
0000
0001
0000
0000
0010
,
0000
1000
0001
0010
0100
0010
0010
0001
,
0001
0000
1000
0010
0100
0000
0001
0000
1000
0100
0010
0001
1000
0000
0010
0000
,
0100
0000
1000
0000
0100
0000
0000
0101
0000
0000
0021
0000
0130
0000
0001
0000
,
0001
0000
0100
1000
0001
0000
0100
0000
0010
0000
0010
0000
0001
0000
0000
0010
,
0000
0000
1000
0000
0001
0000
0010
0000
0100
0000
0100
0000
0001
0000
0000
0100
,
0000
0000
1000
0100
0010
0000
0001
0000
1000
0010
0100
0000
0001
0000
0100
0000
,
0010
0001
0010
1000
0100
0010
1000
0010
,
0001
1000
0010
0100
1001
0000
1000
1000
,
0010
0100
0010
0000
0100
0000
0001
0100
0001
0000
1000
0000
0100
0000
0100
0000
,
0010
0010
0001
0010
0100
1000
0002
0000
,
0000
0000
0000
0023
,
0000
1000
0000
0230
,
0000
0000
0000
2300
,
0000
0000
0000
0000
0010
0000
0000
0000
3001
0000
0000
0000
0100
0000
0000
0001
,
0000
0001
0010
0000
1000
0000
0000
0000
0010
0000
0000
0001
0000
0000
1000
0010
,
0000
0010
1000
0000
0001
0000
0000
0000
0000
0100
0001
0000
1000
0000
0000
0100
,
0000
0100
0010
0001
1000
0000
0000
0000
0010
0000
0000
0001
0000
0000
0010
1000
,
0000
1000
0001
0000
0020
0000
0230
0000
2300
0000
3020
0000
0031
0000
0000
0000
,
0010
0000
1000
0001
0010
0000
0100
1000
0001
0000
0100
0000
1000
0000
0001
0000
,
0010
0000
1000
0000
0001
0000
0000
0000
0010
0000
0010
0000
0001
0000
0000
0010
,
0000
0001
0010
0000
0100
0010
0000
0000
0100
0000
0000
1000
0000
0000
1000
0100
,
0010
0000
0001
0000
0100
0001
1000
0000
0100
1000
0001
1000
0010
0000
0000
0000
,
1010
0000
0000
0000
0100
0000
0000
0100
0001
0000
1000
0000
0100
0000
0000
0000
,
0011
0000
0000
0000
0100
0000
0000
0100
2000
0000
0000
0000
3010
0000
0000
0010
,
0100
0000
0001
0000
0010
0100
0000
0010
0100
0000
1000
0000
0001
0000
0000
0000
,
0000
0000
0000
0000
0000
0000
0100
0000
0001
0000
0100
0000
0010
0000
1000
0000
0001
0000
0010
0000
0000
0100
0000
0000
,
1000
0000
0001
0000
1000
0000
0100
0000
0010
0000
0001
0000
0100
0000
0000
1000
,
0000
0000
0100
0000
0000
0000
0000
0000
0001
0000
0001
0000
0010
0000
0000
1000
,
0000
0000
0010
0000
0000
0000
0000
0000
0100
0000
0100
0000
0001
0000
0000
0100
,
0000
1000
0010
0100
0001
1000
0010
0010
,
1000
0000
0100
1000
0001
0000
0010
0000
0001
0000
0100
0001
1000
0000
0010
0000
,
1000
0000
0001
0100
0001
0000
1000
0000
0001
1000
0100
0010
0001
0000
0001
0000
,
0010
0000
0100
1000
0001
0000
0100
0000
0001
0000
0010
0001
1000
0000
1000
0000
,
0010
0000
0100
0001
1000
0000
0100
0000
0001
0000
0100
0000
1000
0000
0000
0010
,
1000
0000
0001
0000
0100
0000
0000
0001
0100
0000
0010
0000
1000
0000
0000
0001
,
1000
0000
0100
0000
0010
0000
0000
0001
1000
0000
0010
0000
0100
0010
0100
0010
,
1000
0010
1000
0010
1000
0001
1000
0001
0010
0100
1000
0001
2000
0000
0000
0000
,
0000
0000
0000
0000
3000
0000
0000
0000
1001
0000
0001
0000
0100
0010
0100
0010
,
0100
0000
0001
0000
0010
0001
0010
0000
0100
0000
0010
0000
0010
0000
0100
1000
,
0100
0000
1000
0000
0010
0000
0010
0000
0001
0000
0000
0010
0000
0010
1000
0010
,
1000
0000
0000
0000
0100
0000
0100
0000
0001
0000
0000
0100
0000
0000
1000
0001
,
1000
0000
0001
0000
0010
0100
1000
0000
1001
0000
1000
0000
0100
0010
0100
0010
,
0100
0000
1000
0000
0010
1000
0010
0000
0100
0000
0010
0000
0010
0000
0100
0001
,
0100
0000
0001
0000
0010
0000
0010
0000
1000
0000
0000
0010
0000
0010
0001
0010
,
0001
0000
0010
0000
0100
0000
1000
0000
1000
0000
0001
0000
0001
0000
0010
0001
,
1000
0000
0010
0000
0100
0010
1000
0100
0010
0000
0001
0000
0101
0000
0100
0000
,
0110
0000
0000
1010
0000
0000
1200
0000
0310
0000
1000
0000
1000
0000
0010
0001
,
1000
0000
0010
0000
0001
0000
0001
0000
0010
0000
0000
1000
0000
1000
0001
1000
,
0001
0000
0010
0000
0100
0000
0100
0000
0001
0000
0000
0100
0000
0000
1000
0100
,
0010
0000
0001
0000
0010
0100
1000
0000
0001
0000
1000
0000
0010
0000
0001
0000
,
1000
0100
1000
0001
0010
1000
0001
0010
,
1000
0000
0010
0000
1001
0000
0000
0000
0001
0000
0001
0000
0010
0100
0010
0000
,
0100
0000
1000
0100
1000
0100
1000
0000
0100
0000
0100
0000
0010
0000
0010
0000
,
0001
0010
0100
1000
0000
0000
0000
0000
;

//---------------dance-single - ----------------
#NOTEDATA:;
#CHARTNAME:;
#STEPSTYPE:dance-single;
#DESCRIPTION:;
#CHARTSTYLE:;
#DIFFICULTY:Challenge;
#METER:16;
#RADARVALUES:0.761072,0.852760,0.398765,0.183432,0.665938,668.000000,618.000000,50.000000,23.000000,0.000000,0.000000,0.000000,0.000000,0.000000,0.761072,0.852760,0.398765,0.183432,0.665938,668.000000,618.000000,50.000000,23.000000,0.000000,0.000000,0.000000,0.000000,0.000000;
#CREDIT:Daniel Van Eden;
#NOTES:
0000
0000
0000
0000
,
0000
0000
0000
0000
,
0000
0000
0000
0000
,
0000
0000
0000
0000
,
0000
0000
0000
0000
,
0000
0000
0000
0000
,
0000
0000
0000
0000
,
0000
0000
0000
0000
,
0000
0000
0000
0000
,
1000
0000
1000
0000
0010
0000
1000
0001
1000
0100
0010
0001
1000
0000
0001
1000
,
0001
0000
0001
0000
0010
0000
0001
1000
0100
0000
0010
0000
0100
1000
0010
1000
,
0001
0000
0001
0000
0010
0000
0001
1000
0001
0100
0010
1000
0001
0000
0010
0100
,
0010
0000
0000
0000
0000
0000
0010
0000
0000
0001
0000
0000
0010
0000
0000
0000
0000
0000
0001
0000
0100
0000
0010
0000
1000
0000
0000
0000
0000
0000
0001
0000
0000
0000
0000
0000
1000
0000
0000
0100
0000
0000
0010
0000
0000
0001
0000
0000
,
1000
0010
1010
0000
0010
0100
0101
0000
,
0001
0010
0110
0000
0100
1100
1000
1010
,
0010
1000
0001
0100
0010
1000
0100
0010
0001
1000
0001
0100
0010
1000
0100
0010
,
0002
0000
0000
0000
0003
0000
0011
0001
,
0010
0100
0010
0100
1000
0000
0001
0000
0100
0100
0001
0000
0020
0000
0100
0000
,
0130
1000
0100
1000
0001
0000
0100
0000
0010
0000
0010
0000
2010
0000
0000
0000
,
3010
0100
0010
0100
0001
0000
0100
0000
1000
0000
1000
0000
0100
0000
0001
0000
,
0001
0000
0000
0000
0000
0000
1000
0000
0100
0000
0010
0000
0001
0000
0000
0000
0000
0000
1000
0000
0000
0000
0000
0000
0010
0000
0000
0100
0000
0000
0001
0000
0000
1000
0000
0000
0001
0000
0000
0000
0000
0000
1000
0000
0000
0000
0000
0000
,
0010
0100
0010
0100
0001
0000
0010
0000
0100
0100
1000
0000
0020
0000
0100
0000
,
0130
0001
0100
0001
1000
0000
0100
0000
0010
0000
0010
0000
0012
0000
0000
0000
,
0013
0100
0010
0100
1000
0000
0010
0000
0100
0000
0110
0000
0010
0000
1010
0000
,
1001
0000
0001
1000
0010
0000
0100
0000
0010
1000
0100
0010
0001
0000
0010
0000
,
0110
0000
0100
0000
1100
0000
0000
1010
0000
0000
0011
0000
0001
0000
1001
0000
,
1000
0001
1000
0100
0010
0000
0001
0000
0100
0000
0100
0000
1002
0000
0000
0000
,
1003
0010
1000
0010
0200
0000
0000
0000
0301
0000
0021
0000
0000
0000
0100
0000
,
0130
0000
0000
0000
0000
0000
1000
0000
0001
0000
0100
0000
0010
0000
0000
0000
0000
0000
1000
0000
0000
0000
0000
0000
0001
0000
0000
0010
0000
0000
0100
0000
0000
1000
0000
0000
0001
0000
0000
0000
0000
0000
1000
0000
0000
0000
0000
0000
,
0100
1100
0100
0001
0101
0100
1000
1100
,
1000
0010
0110
0100
1001
0000
0011
0010
,
0100
0010
0100
0000
1100
0000
1000
0100
1000
0010
0100
0000
0010
0000
0010
0000
,
0100
0000
0001
0000
1001
0000
0001
0000
1000
0001
0010
0100
2000
0000
0000
0000
,
0000
0000
0000
3002
,
0000
0100
0000
0023
,
0000
0000
0000
0230
,
0000
0000
0000
0000
1000
0000
0010
0000
0010
0000
0310
0000
0011
0000
0000
0001
,
0000
0010
0100
0000
1100
0000
0000
0000
1000
0000
0000
1000
0000
0000
0010
1000
,
0010
0100
0001
0000
0100
0000
0000
0000
0000
0010
0100
0000
0100
0000
0000
0001
,
0100
0010
1000
0001
0010
0000
0000
0000
0001
0000
0000
0001
0000
0000
0010
0001
,
1000
0010
0100
0000
0010
1000
0100
0010
0001
1000
0100
0010
0001
0000
0000
0000
,
0010
0100
1000
0001
0010
0001
0100
0010
1000
0000
0001
0100
0001
0000
0100
0010
,
0100
0001
0010
0000
0110
0000
0000
0000
0100
0010
0100
0000
0100
0000
0000
1000
,
0100
1000
0010
0100
0001
0010
0000
0000
0100
0000
0000
1100
0000
0000
1000
0001
,
1000
0100
0010
0000
0001
0010
0100
0010
0001
1000
0010
0100
0001
0000
0000
0000
,
0100
0010
1000
0001
0010
0100
0010
0001
1000
0000
0010
0000
0010
0000
0100
0000
,
0001
0000
0100
0000
0010
0000
0000
0010
2000
0000
0000
0000
3100
0000
0010
0001
,
0010
0000
0100
0000
1000
0001
1000
0010
0100
0000
0001
0000
0002
0000
0000
0000
,
0003
0000
0000
0000
0000
0000
0001
0000
0010
0000
0100
0010
0100
0000
1000
0000
0001
0000
0010
0000
0000
0001
0000
0000
,
0100
0000
1000
0000
0100
0000
0001
0000
1000
0000
0010
0000
1000
0000
0000
0001
,
0000
0000
0100
0000
0000
0000
0000
0000
0001
0000
0001
0000
0010
0000
0000
0100
,
0000
0000
1000
0000
0000
0000
0000
0000
0010
0000
0010
0000
0100
0000
0000
0001
,
0000
1000
0001
1000
0100
1000
0010
0010
,
1000
0000
0001
0100
0001
0100
0010
1000
0001
0000
1000
0100
1000
0000
1000
0000
,
0010
0000
0100
0001
1000
0000
0100
0000
1000
0010
0100
0001
0010
0000
0010
0000
,
0001
0000
1000
0100
1000
0100
0010
0001
1000
0000
0001
0100
0001
0000
0001
0000
,
0010
0000
0100
1000
0010
0000
0001
0000
0010
0000
1000
0000
0010
0000
0000
0010
,
1000
0000
0100
0000
0010
0000
0000
0010
0001
0000
1000
0000
0100
0000
0000
0100
,
0010
0000
0001
0000
0100
0000
0000
0100
0010
0000
1000
0000
0001
1000
0100
0010
,
0001
1000
0100
1000
0010
0100
0001
1000
0001
0100
0010
1000
0200
0000
0000
0000
,
0000
0000
0000
0000
0300
0000
0000
0000
1001
0000
1000
0000
0100
0010
0001
1000
,
0010
0000
1000
0000
0010
0010
0100
0000
0002
0000
0010
0000
0013
0100
1000
0001
,
0100
0000
0010
0000
0100
0000
0100
0000
0102
0000
0000
0000
0103
0010
1000
0001
,
0010
0000
0000
0100
0000
0000
0010
0000
0000
0011
0000
0000
0001
0000
0000
0100
0000
0000
0100
0000
0000
0001
0010
0100
,
1000
0000
0001
0000
0100
0010
1000
0001
1000
0000
0001
0000
0100
0010
1000
0001
,
0010
0000
0001
0000
1000
1000
0010
0000
0200
0000
0010
0000
0310
1000
0001
0010
,
0100
0000
1000
0000
0010
0000
0010
0000
2010
0000
0000
0000
3001
0100
0010
1000
,
0100
0000
1000
0000
0010
0000
0110
0000
0100
0000
0101
0000
1001
0000
1000
0001
,
0100
0000
0010
0000
0100
0001
0010
0100
1000
0000
0100
0000
0110
0000
0010
0000
,
0011
0000
0001
0010
0100
0000
1100
0000
1000
0000
1001
0000
0001
1000
0001
0010
,
0100
0000
1000
0000
0010
0000
0010
0000
2001
0000
0000
0000
3001
0100
0001
0100
,
0020
0000
0000
0000
0000
0000
1030
0000
0000
1200
0000
0000
0000
0000
0000
0010
0000
0000
0310
0000
0000
0001
1000
0010
,
0100
0000
0001
0000
1000
0100
0010
0001
1000
0000
0001
0000
0010
0000
0011
0000
,
0010
1000
1010
0010
0001
0011
0001
0100
,
0110
0000
0010
0000
1001
0000
0000
0000
0101
0000
0001
0000
0100
0001
0010
0000
,
0010
0000
0100
1000
0100
1000
0010
0000
0120
0000
0100
0000
0100
0000
0130
0000
,
0001
1000
0100
0010
0000
0000
0000
0000
;

//---------------dance-single - ----------------
#NOTEDATA:;
#CHARTNAME:;
#STEPSTYPE:dance-single;
#DESCRIPTION:;
#CHARTSTYLE:;
#DIFFICULTY:Medium;
#METER:11;
#RADARVALUES:0.481936,0.548203,0.103679,0.079753,0.127605,423.000000,410.000000,13.000000,10.000000,0.000000,0.000000,0.000000,0.000000,0.000000,0.481936,0.548203,0.103679,0.079753,0.127605,423.000000,410.000000,13.000000,10.000000,0.000000,0.000000,0.000000,0.000000,0.000000;
#CREDIT:Daniel Van Eden;
#NOTES:
0000
0000
0000
0000
,
0000
0000
0000
0000
,
0000
0000
0000
0000
,
0000
0000
0000
0000
,
0000
0000
0000
0000
,
0000
0000
0000
0000
,
0000
0000
0000
0000
,
0000
0000
0000
0000
,
0000
0000
0000
0000
,
1000
1000
0010
1000
0001
0100
0001
0000
,
0100
0100
0001
0100
0010
1000
0010
1000
,
0001
0001
0010
0001
1000
0100
1000
0000
,
0100
0100
0010
0100
0001
0100
1000
0001
,
0100
0000
0101
0000
0001
0100
0101
0000
,
1000
0000
1010
0000
0010
1000
0010
0001
,
0010
1000
0100
0010
0001
1000
0100
0010
,
0002
0000
0000
0000
0003
0000
1000
0001
,
0100
0000
1000
0000
0100
0000
0001
0000
0010
0000
0100
0000
1000
0000
0000
0010
,
0000
0000
1000
0000
0001
0000
0000
0000
1000
0000
1000
0000
0001
0000
0000
0010
,
0000
0001
1000
0000
0100
0100
1000
0010
,
0010
0100
0001
0010
0100
1000
0001
1000
,
0100
0000
0001
0000
0100
0000
1000
0000
0010
0000
0100
0000
0001
0000
0000
1000
,
0000
0000
0001
0000
0010
0000
0000
0000
0100
0000
0100
0000
1000
0000
0000
0001
,
0000
1000
0010
0100
0010
0100
0001
1000
,
0001
0010
0100
1000
0001
1000
0010
0100
,
0010
0001
0010
1000
0001
0010
0100
0010
,
0010
0000
0000
0000
1001
0000
0000
0000
1000
0000
1000
0000
0001
0000
0000
0100
,
0000
0000
0001
0000
0010
0000
0000
0000
0001
0000
0001
0000
1000
0000
0000
0100
,
0000
1000
0010
0100
0001
1000
0001
0100
,
0010
1000
0100
0001
0000
0100
0010
0001
,
0100
1000
0000
0100
0001
0010
0100
1000
,
0000
1000
0001
0000
0010
0001
0010
0100
,
0000
0100
0010
0001
1000
1000
0020
0000
,
0000
0000
0000
2030
,
0000
0000
0000
3002
,
0000
0000
0000
0023
,
0000
0000
0000
0000
0000
0000
0000
0000
0000
0000
0000
0000
0130
0000
0000
0100
,
0000
0000
0100
0000
0010
0000
0000
0000
0100
0000
0000
0100
0000
0000
0100
0000
,
1000
0000
0001
0000
0010
0000
0000
0000
0000
0000
0001
0000
0100
0000
0000
0100
,
0000
0000
0100
0000
0010
0000
0000
0000
0100
0000
0000
0100
0000
0000
0001
0000
,
1000
0001
0020
0000
0000
0000
0130
0000
,
0010
0100
1000
0100
0010
0001
1000
0010
,
0100
0000
0010
0000
1000
0000
0000
0000
0001
0000
0001
0000
1000
0000
0000
0010
,
0000
0000
0100
0000
0000
0001
0000
0000
0010
0000
0000
0100
0000
0000
1000
0100
,
0010
0001
2000
0000
0000
0000
3001
0000
,
0100
0010
0100
0001
0100
0010
1000
0001
,
0010
0000
0100
0000
1000
0000
0000
0000
1001
0000
0000
0000
0001
0000
0000
0010
,
0000
0000
0100
0000
0000
1000
0000
0000
0010
0000
0000
0100
0000
0000
0001
0100
,
0010
1000
0002
0000
2003
0000
3100
0000
,
0010
0000
0001
0000
0010
0000
0000
0000
0100
0000
1000
0000
0001
0000
0000
1000
,
0000
0000
0001
0000
0000
0000
0000
0000
0100
0000
0100
0000
0010
0000
0000
1000
,
0000
0000
0001
0000
0000
0000
0000
0000
0010
0000
0010
0000
0100
0000
0000
1000
,
0000
0001
0100
0000
0010
0000
1000
0000
,
0001
0000
0100
0000
0010
0000
0000
0000
1000
0000
0001
0000
0010
0000
0000
0100
,
0000
0000
0010
0000
0000
0000
0000
0000
0001
0000
0001
0000
0100
0000
0000
0010
,
0000
0000
0100
0000
0000
0000
0000
0000
0001
0000
0001
0000
1000
0000
0000
0010
,
0000
0000
1000
0000
0001
0000
0000
0100
0000
0000
0001
0000
1000
0000
0000
0000
,
1100
0000
0100
1000
1100
0000
0001
0000
,
0011
0000
0010
0001
1000
0001
0010
0100
,
1000
0001
1000
0010
0100
0001
2000
0000
,
0000
0000
3000
0000
0001
0001
0100
0001
,
0100
0000
1000
0000
0010
0000
0100
0000
0001
0000
0000
0010
0000
0000
0001
0000
,
1000
0000
0000
0000
0001
0000
0001
0000
1000
0000
0000
0010
0000
0000
1000
0000
,
0001
0000
0100
0100
0001
0010
0010
0100
,
1000
0010
0100
0001
1000
0001
0100
1000
,
0100
0000
0001
0000
0010
0000
0100
0000
1000
0000
0000
0001
0000
0000
1000
0000
,
0010
0000
0000
0000
0100
0000
0100
0000
0001
0000
0000
1000
0000
0000
0001
0000
,
0010
0100
0010
0100
1000
0001
1000
0010
,
0100
0001
1000
0001
0010
0000
1100
0000
,
1010
0000
0000
0110
0000
0000
1001
0000
0000
0000
0001
0000
0001
0000
1000
0000
,
1100
0000
0000
0000
1000
0000
1000
0000
0001
0000
0000
0010
0000
0000
0100
0000
,
1000
0000
0000
0000
0001
0000
0001
0000
1000
0000
0000
0010
0000
0000
0100
0000
,
0001
0010
0100
1000
0001
1000
0100
1000
,
0010
0001
0000
0010
0100
0001
0010
1000
,
0000
0010
0001
0100
0010
1000
0001
0100
,
0100
0001
1000
0001
0010
0100
0100
0100
,
0010
0001
1000
0001
0000
0000
0000
0000
;

//---------------dance-single - ----------------
#NOTEDATA:;
#CHARTNAME:;
#STEPSTYPE:dance-single;
#DESCRIPTION:;
#CHARTSTYLE:;
#DIFFICULTY:Easy;
#METER:8;
#RADARVALUES:0.338381,0.395924,0.119630,0.063802,0.031901,297.000000,282.000000,15.000000,8.000000,0.000000,0.000000,0.000000,0.000000,0.000000,0.338381,0.395924,0.119630,0.063802,0.031901,297.000000,282.000000,15.000000,8.000000,0.000000,0.000000,0.000000,0.000000,0.000000;
#CREDIT:Daniel Van Eden;
#NOTES:
0000
0000
0000
0000
,
0000
0000
0000
0000
,
0000
0000
0000
0000
,
0000
0000
0000
0000
,
0000
0000
0000
0000
,
0000
0000
0000
0000
,
0000
0000
0000
0000
,
0000
0000
0000
0000
,
0000
0000
0000
0000
,
0001
0000
0010
0000
0001
0100
0001
0000
,
1000
0000
0010
0000
1000
0001
1000
0000
,
0100
0000
0010
0000
0001
0100
0001
0000
,
1000
0000
0010
0000
1000
0100
0010
0001
,
1000
0000
0010
0000
1000
1000
0001
0000
,
1000
0000
0001
0000
0010
0010
0001
0001
,
1000
0000
0010
0000
1000
0001
0100
0010
,
2000
0000
3000
0001
,
1000
0001
1000
0000
0000
0010
0000
0000
,
0010
1000
0100
0100
,
1000
0001
1000
0000
0000
0100
0000
0000
,
0100
1000
0010
0100
,
0001
1000
0001
0000
0000
0010
0000
0000
,
0010
0001
0100
0100
,
0001
1000
0001
0000
0000
0100
0000
0000
,
0100
0001
0010
0100
,
0010
0000
0100
0000
0010
0000
0000
0010
0000
0000
0010
0000
0000
0000
0001
0000
,
1000
1001
0000
0001
,
0100
0001
0100
0000
0000
0010
0000
0000
,
0010
1000
0001
0010
,
0000
0110
0000
0000
0100
0000
0000
1100
,
0000
0000
1000
0000
1001
0000
0001
0100
,
0000
0100
0010
0000
0010
1000
0000
1000
,
0001
0010
0100
0020
,
0000
0000
0000
0032
,
0000
0000
0000
2003
,
0000
0000
0000
3200
,
0000
0000
0000
0000
0000
0000
0000
0000
0000
0000
0000
0000
1300
0000
0000
1000
,
0000
0000
1000
0000
0001
0000
0000
0000
0100
0000
0000
0100
0000
0000
0001
0000
,
0000
0001
0000
0000
1000
0000
0000
0000
0000
0000
0000
0000
0001
0000
0000
0001
,
0000
0000
0001
0000
1000
0000
0000
0000
0010
0000
0000
0010
0000
0000
1000
0000
,
0000
1000
0000
0000
0200
0000
0000
0000
0000
0000
0000
0000
0310
0000
0000
0000
,
0001
0000
1000
0000
0010
0000
1000
0001
,
1000
0001
1000
0000
0100
0000
0010
0000
,
0001
1000
0001
0100
,
0010
0100
0020
0000
0000
0000
1030
0000
,
0100
0000
0010
0000
0001
0000
0100
0010
,
0100
0010
0100
0000
1001
0000
0001
0000
,
1000
0100
0010
0001
,
1000
0001
1000
0000
0000
0000
1000
0000
,
0000
0010
1000
0001
,
0000
0010
0010
0100
,
0000
1000
0001
0100
,
0010
0100
0001
1000
,
0010
0000
1000
1000
0001
0000
0010
0000
,
0001
0000
0100
0010
0100
0010
0100
0000
,
0001
0000
1000
1000
0010
0000
1000
0000
,
0001
0000
1000
0001
1000
0001
1000
0000
,
0010
0000
1000
1000
0001
0000
1000
0000
,
0001
0000
0010
0010
0001
0000
1000
0000
,
0100
0010
0001
2000
,
0000
0000
3000
0000
1001
0000
0001
0010
,
0001
0000
0000
0101
0000
0000
0100
0000
,
0001
0000
0100
0010
0100
0000
0001
1000
,
0001
0000
0000
0010
0000
0000
0010
0000
,
0001
0000
0010
0000
0100
0000
1000
0001
,
1000
0000
0000
1010
0000
0000
0010
0000
,
1000
0000
0100
0010
0100
0000
1000
0001
,
1000
0000
0000
1100
0000
0000
0100
0000
,
1000
0000
0001
0000
0010
0000
0001
1000
,
0001
0000
0000
1000
0000
0000
0001
0000
0000
0000
0001
0000
1000
0000
0000
0000
,
1001
0000
0000
0000
0001
0000
0100
0001
,
0100
0000
0000
0010
0000
0010
1000
0000
,
1000
0000
0001
0000
0010
0000
0000
0110
,
0000
0000
1100
0000
0000
1010
0000
0000
,
0110
0000
1001
0000
0001
0100
0000
0100
,
0010
0000
0010
1000
0000
1000
0001
0000
,
0010
0100
0010
0100
0000
0000
0000
0000
;

//---------------dance-single - ----------------
#NOTEDATA:;
#CHARTNAME:;
#STEPSTYPE:dance-single;
#DESCRIPTION:;
#CHARTSTYLE:;
#DIFFICULTY:Beginner;
#METER:4;
#RADARVALUES:0.221030,0.304059,0.055827,0.000000,0.000000,194.000000,187.000000,7.000000,0.000000,0.000000,0.000000,0.000000,0.000000,0.000000,0.221030,0.304059,0.055827,0.000000,0.000000,194.000000,187.000000,7.000000,0.000000,0.000000,0.000000,0.000000,0.000000,0.000000;
#CREDIT:Daniel Van Eden;
#NOTES:
// measure 0
0000
0000
0000
0000
,  // measure 1
0000
0000
0000
0000
,  // measure 2
0000
0000
0000
0000
,  // measure 3
0000
0000
0000
0000
,  // measure 4
0000
0000
0000
0000
,  // measure 5
0000
0000
0000
0000
,  // measure 6
0000
0000
0000
0000
,  // measure 7
0000
0000
0000
0000
,  // measure 8
0000
0000
0000
0000
,  // measure 9
1000
0000
0001
0000
,  // measure 10
1000
1000
0010
0010
,  // measure 11
1000
0000
0001
0000
,  // measure 12
0010
0010
0100
1000
,  // measure 13
0001
0000
1000
0000
,  // measure 14
0010
0000
0100
0000
,  // measure 15
0001
0001
1000
1000
,  // measure 16
0001
0000
0000
1001
,  // measure 17
0000
0001
0000
0100
,  // measure 18
0100
0100
0000
0010
,  // measure 19
0010
0010
0000
1000
,  // measure 20
1000
0001
0001
0010
,  // measure 21
0000
0100
0000
1000
,  // measure 22
1000
1000
0000
0001
,  // measure 23
0001
0001
0000
0010
,  // measure 24
0010
0100
0100
1000
,  // measure 25
0000
0000
0001
0000
0000
0001
0000
0000
,  // measure 26
0001
1000
0000
0010
,  // measure 27
0010
0010
0000
1000
,  // measure 28
1000
1000
0000
0100
,  // measure 29
0000
0010
0000
0000
0010
0000
0000
0100
,  // measure 30
0000
1000
0001
1000
,  // measure 31
0000
0010
0000
0100
,  // measure 32
0100
0100
0000
0001
,  // measure 33
0000
0000
0000
0010
,  // measure 34
0000
0000
0000
0100
,  // measure 35
0000
0000
0000
1000
,  // measure 36
0000
0000
0000
1000
,  // measure 37
0000
1001
0000
0001
,  // measure 38
0001
1001
0000
0010
,  // measure 39
0000
0110
0000
0100
,  // measure 40
0100
0010
0000
0001
,  // measure 41
0000
0100
0000
0000
0010
0000
0000
0010
,  // measure 42
0000
1000
0001
1000
,  // measure 43
0000
0100
0000
0000
0010
0000
0000
0010
,  // measure 44
0000
0001
0000
1000
,  // measure 45
1000
0100
0100
0010
,  // measure 46
0001
1000
0000
0001
,  // measure 47
0001
0100
0100
0010
,  // measure 48
1000
0001
0000
1000
,  // measure 49
0000
0010
0000
1000
,  // measure 50
0000
0100
0100
0100
,  // measure 51
0000
0010
0010
0010
,  // measure 52
0000
0001
0000
1000
,  // measure 53
0000
0001
0000
0100
,  // measure 54
0100
0100
0000
0001
,  // measure 55
0001
0001
0000
1000
,  // measure 56
1000
1000
0000
0010
,  // measure 57
0010
1000
0000
1000
,  // measure 58
1000
0001
0000
1000
,  // measure 59
0000
0100
0100
0010
,  // measure 60
0000
0000
1001
0000
,  // measure 61
0001
0000
0000
0010
0000
0000
0010
0000
,  // measure 62
0010
0000
0001
0001
,  // measure 63
0001
0000
0000
1000
0000
0000
1000
0000
,  // measure 64
1000
0001
1000
0000
,  // measure 65
0010
0000
0000
1000
0000
0000
1000
0000
,  // measure 66
0001
0000
0010
0010
,  // measure 67
0010
0000
0000
0100
0000
0000
0100
0000
,  // measure 68
0100
0000
0010
0010
,  // measure 69
0001
0001
1000
0001
,  // measure 70
1000
0000
0010
0000
,  // measure 71
0010
0000
0000
1000
0000
0000
1000
0000
,  // measure 72
0001
0000
0001
0000
0100
0000
0000
0100
,  // measure 73
0000
0000
0110
0000
0000
0010
0000
0000
,  // measure 74
1000
1001
0001
0001
,  // measure 75
0010
0010
0100
0010
,  // measure 76
0100
1000
0000
0000
;
