#TITLE:My Time;
#SUBTITLE:;
#ARTIST:RiraN;
#TITLETRANSLIT:;
#SUBTITLETRANSLIT:;
#ARTISTTRANSLIT:;
#GENRE:HARDSTYLE;
#CREDIT:;
#BANNER:My Time.png;
#BACKGROUND:;
#LYRICSPATH:;
#CDTITLE:;
#MUSIC:My Time.ogg;
#OFFSET:0.542000;
#SAMPLESTART:84.247002;
#SAMPLELENGTH:17.599998;
#SELECTABLE:YES;
#BPMS:0.000000=150.000000
,100.000000=75.000000
,121.000000=150.000000
;
#STOPS:100.000000=2.400000
;
#BGCHANGES:;
#KEYSOUNDS:;
#ATTACKS:;

//---------------dance-single - ----------------
#NOTES:
     dance-single:
     :
     Hard:
     13:
     0.499402,0.588147,0.652781,0.197552,0.257677,407.000000,331.000000,76.000000,23.000000,0.000000,0.000000,0.499402,0.588147,0.652781,0.197552,0.257677,407.000000,331.000000,76.000000,23.000000,0.000000,0.000000:
// measure 0
0000
0000
0000
0000
,  // measure 1
0000
0000
0000
0000
,  // measure 2
0000
0000
0000
0000
,  // measure 3
0000
0000
0000
0000
,  // measure 4
0000
0000
0000
0000
0000
0000
0000
0010
,  // measure 5
1000
0001
1000
0001
1000
0001
0000
0100
,  // measure 6
0001
1000
0001
1000
0001
1000
0000
0010
,  // measure 7
1000
0001
0010
0000
0001
0000
0100
0010
,  // measure 8
0110
1001
0110
0000
,  // measure 9
1001
1020
0230
0301
,  // measure 10
0011
0010
0200
0000
2300
0000
0010
0000
,  // measure 11
3001
1200
0320
0031
,  // measure 12
0010
0001
0200
0000
0020
0000
0000
0330
,  // measure 13
1001
2100
3020
0130
,  // measure 14
1010
0010
0200
0000
0302
0000
0010
0000
,  // measure 15
1003
2001
3020
0100
,  // measure 16
1030
0000
0000
0000
0000
0000
0100
0000
0010
0000
0000
0010
0000
0000
0100
0000
,  // measure 17
1000
0000
0000
0000
0001
0000
0000
0000
1000
0000
1000
0000
0100
1000
0100
0000
,  // measure 18
0000
0000
1000
0000
0010
0000
0100
0001
0100
0000
0100
0000
0100
0000
0000
0000
,  // measure 19
0000
0000
0000
0000
1010
0000
0000
0001
0010
0000
0010
0000
0010
0001
0010
0000
,  // measure 20
0000
0000
0100
0000
0100
0000
0100
1000
0100
0000
0010
0000
0021
0000
0000
0000
,  // measure 21
0130
0000
0000
0000
0010
0000
0000
0000
0001
0000
0001
0000
1000
0001
1000
0000
,  // measure 22
0000
0000
0010
0000
0010
0000
0100
0010
0100
0000
0100
0000
0001
0000
0000
0000
,  // measure 23
1000
0000
0000
0000
0001
0000
0000
0010
0100
0000
0100
0000
0100
1000
0100
0000
,  // measure 24
0010
0000
0000
0000
0000
0000
0010
0000
0100
0000
0000
1000
0000
0000
0001
0000
,  // measure 25
1001
0000
0000
0000
,  // measure 26
0000
0000
0000
0000
0000
0000
0000
0000
1000
0000
0000
0000
0000
0000
0100
0000
1000
0000
0000
0010
0000
0000
0100
0000
0000
0000
0000
0000
0000
0000
0010
0000
,  // measure 27
1000
0000
0000
0001
0000
0000
0010
0000
0100
0000
0000
0000
0000
0000
0010
0000
0001
0000
0000
1000
0000
0000
0001
0000
0000
0000
0000
0000
0000
0000
1000
0000
,  // measure 28
0001
0000
0000
0100
0000
0000
0001
0000
0010
0000
0000
0000
0000
0000
0100
0000
0010
0000
0000
0001
0000
0000
1000
0000
0000
0000
0000
0000
0000
0000
0001
0000
,  // measure 29
1000
0000
0000
0100
0000
0000
0010
0000
0100
0000
0000
0000
0000
0000
0010
0000
0100
0000
0000
1000
0000
0000
0010
0000
0000
0000
0000
0000
0000
0000
0100
0000
,  // measure 30
0010
0000
0000
1000
0000
0000
0001
0000
1001
0000
0000
0000
1000
0000
0000
0000
0100
0000
0000
0000
0000
0000
0000
0000
0000
0000
0000
0000
0010
0000
0000
0000
,  // measure 31
0100
0000
0000
0000
1000
0000
0010
0000
1000
0000
1000
0001
0000
0001
0010
0000
,  // measure 32
0100
0000
0010
0001
0010
0000
0000
0100
,  // measure 33
1000
0000
0000
0000
0001
0000
1000
0000
0001
0000
0100
0010
0000
0010
1000
0000
,  // measure 34
0100
0000
0010
0100
0010
0000
0000
0100
,  // measure 35
1000
0000
0000
0000
0001
0000
0100
0000
0001
0000
0100
0010
0000
0010
1000
0000
,  // measure 36
0001
0010
0100
1000
0100
0000
0000
1000
,  // measure 37
0001
0000
0000
0000
0100
0000
0010
0000
1000
0000
0001
0100
0000
0010
1000
0000
,  // measure 38
0100
0000
0010
0000
0021
0000
0000
0000
0000
0000
0130
0000
1000
0000
0000
0010
,  // measure 39
0000
0000
0100
0000
0210
0000
0000
0000
0000
0000
0310
0000
1000
0000
0000
0001
,  // measure 40
0000
0000
0010
0000
0210
0000
0000
0000
0000
0000
0310
0000
0001
0000
0000
1000
,  // measure 41
0000
0000
0010
0000
0210
0000
0000
0000
0000
0000
0301
0000
1000
0000
0000
0010
,  // measure 42
0000
1000
1001
0000
0110
0000
1001
0000
,  // measure 43
0110
0101
1100
0101
,  // measure 44
1100
0000
0000
0000
1000
0000
0100
0000
0010
0000
0001
0000
1000
0001
1000
0001
,  // measure 45
1000
0001
1000
0001
0200
0000
0000
0000
0010
0000
0000
0000
0301
0000
1000
0000
,  // measure 46
0001
0011
1100
1010
,  // measure 47
1001
1100
1010
0110
,  // measure 48
0011
1001
0110
1100
,  // measure 49
0011
1001
1010
0101
,  // measure 50
1000
0001
1001
0000
0110
0000
0101
0000
,  // measure 51
1010
0101
0011
0110
,  // measure 52
0100
0000
0010
0001
1000
0000
0000
0000
0101
0000
0000
0000
1010
0000
0000
1010
,  // measure 53
0000
0000
1000
0010
0100
0000
0000
0000
0000
0000
0000
0000
0000
0000
0000
0000
,  // measure 54
0000
1001
0011
1001
,  // measure 55
1010
1001
0011
1001
,  // measure 56
1001
0000
0010
0100
0010
0000
0000
0000
0110
0000
0000
0000
0101
0000
0000
0000
,  // measure 57
0110
0000
1010
0000
0110
0000
0101
0100
,  // measure 58
0110
0000
0010
1000
0001
0000
0000
0000
0011
0000
0000
0000
1100
0000
0000
0000
,  // measure 59
0110
0000
0000
0000
0011
0000
0000
0000
0110
0000
0000
0000
1000
0100
0010
0000
,  // measure 60
0011
0000
0001
0000
2001
0000
0000
0000
3010
0000
0100
0000
0001
0010
0100
0000
,  // measure 61
1000
0100
0010
0000
1001
0000
0000
0000
0000
0000
0010
0000
2000
0000
0000
3002
,  // measure 62
0000
0103
1001
0000
0000
0000
0000
0000
;

//---------------dance-single - ----------------
#NOTES:
     dance-single:
     :
     Medium:
     10:
     0.388969,0.481211,0.455229,0.326390,0.085892,317.000000,264.000000,53.000000,38.000000,0.000000,0.000000,0.388969,0.481211,0.455229,0.326390,0.085892,317.000000,264.000000,53.000000,38.000000,0.000000,0.000000:
// measure 0
0000
0000
0000
0000
,  // measure 1
0000
0000
0000
0000
,  // measure 2
0000
0000
0000
0000
,  // measure 3
0000
0000
0000
0000
,  // measure 4
0000
0000
0000
0000
0000
0000
0000
0001
,  // measure 5
1000
0001
1000
0001
1000
0001
0000
0010
,  // measure 6
0100
0010
0100
0010
0100
0010
0000
0100
,  // measure 7
1000
0010
0100
0000
0001
0000
0010
0100
,  // measure 8
1000
0000
0001
0100
0010
0100
0000
0000
,  // measure 9
1001
0101
0022
0000
,  // measure 10
0033
0001
1000
0000
2200
0000
0000
0000
,  // measure 11
3300
1001
2020
0000
,  // measure 12
3030
1000
0001
0000
0020
0000
0000
0000
,  // measure 13
0130
1100
2020
0000
,  // measure 14
3030
0100
0001
0000
0022
0000
0000
0000
,  // measure 15
0033
0110
2200
3300
,  // measure 16
1002
0000
0000
0000
0003
0000
1000
0000
0001
0000
0000
0010
0000
0000
0100
0000
,  // measure 17
0010
0000
0010
0000
0001
0010
0100
0010
,  // measure 18
0000
0010
0100
1000
0001
1000
0002
0000
,  // measure 19
0003
0000
0100
0000
0100
0010
1000
0100
,  // measure 20
0000
0100
1000
0100
0010
0100
1200
0000
,  // measure 21
0310
0000
0001
0000
0001
1000
0010
1000
,  // measure 22
0000
1000
0001
0010
0100
0010
0001
0000
,  // measure 23
0100
0000
0010
0000
0010
0100
0001
1000
,  // measure 24
2001
0000
0000
0000
3000
0000
0100
0000
1000
0000
0000
0010
0000
0000
0100
0000
,  // measure 25
1001
0000
0000
0000
,  // measure 26
0000
2000
3002
0200
,  // measure 27
0003
0302
2003
0020
,  // measure 28
3000
2030
3200
0020
,  // measure 29
0300
0230
2300
0002
,  // measure 30
3000
0000
1003
0100
0010
0000
0000
0100
,  // measure 31
1000
0000
0000
0000
0100
0000
1000
0000
0010
0000
0000
0100
0000
0100
0000
0000
,  // measure 32
0001
0000
1000
0100
0010
0000
0000
0100
,  // measure 33
1000
0000
0000
0000
0010
0000
1000
0000
0001
0000
0000
1000
0000
1000
0000
0000
,  // measure 34
0010
0100
0001
1000
0100
0000
0000
0010
,  // measure 35
0100
0000
0000
0000
0010
0000
0001
0000
0100
0000
0000
0010
0000
0010
0000
0000
,  // measure 36
0100
0000
0010
0000
1000
0000
0000
0000
0000
0000
0001
0000
1000
0000
0000
0100
,  // measure 37
0000
0000
0020
0000
0000
0000
0030
0000
0000
0000
0100
0000
1000
0000
0000
0010
,  // measure 38
0000
0100
0110
0000
1001
0000
0110
0000
,  // measure 39
0000
1010
0101
1010
,  // measure 40
0000
1100
0011
1100
,  // measure 41
0011
0101
1010
1001
,  // measure 42
0000
0000
0001
0100
0010
1000
0001
0100
,  // measure 43
0000
1000
0100
0010
0001
1000
0100
0010
,  // measure 44
0000
0100
1000
0010
0100
0000
0001
0000
,  // measure 45
0100
0010
1001
0000
0110
0000
1001
0000
,  // measure 46
0000
0000
0000
0000
0101
0000
0000
0000
0000
0000
0001
0000
0100
0000
0000
0010
,  // measure 47
0000
0000
2000
0000
0000
0000
0000
0000
3000
0000
0100
0000
1000
0000
0000
0100
,  // measure 48
0000
0000
0010
0000
0002
0000
0000
0000
0003
0000
0010
0000
0001
0000
0000
0100
,  // measure 49
0000
0000
0020
0000
0000
0000
0000
0000
0030
0000
0100
0000
0010
0000
0000
1000
,  // measure 50
0000
0000
0001
0000
0020
0000
0000
0000
0030
0000
0100
0000
1000
0000
0000
0001
,  // measure 51
0000
0000
0200
0000
0000
0000
0000
0000
0300
0000
0001
0000
0010
0000
0000
0100
,  // measure 52
0000
0000
0010
0000
0002
0000
0000
0000
0003
0000
1000
0000
0001
0000
0000
0100
,  // measure 53
0000
0000
0020
0000
0000
0000
0000
0000
0030
0000
1000
0000
0100
0000
0000
0010
,  // measure 54
0000
0001
1001
0000
1010
0000
1001
0000
,  // measure 55
0011
1001
1100
1001
,  // measure 56
0001
0100
0110
0000
1010
0000
0101
0000
,  // measure 57
0011
0000
0110
0000
1100
0000
0100
1000
,  // measure 58
0100
1000
1010
0000
0101
0000
0011
0000
,  // measure 59
0101
0000
1001
0000
0011
0000
1000
0100
,  // measure 60
0010
0000
0100
0000
1100
0000
0000
0000
0000
0000
0100
0000
1000
0000
0000
0010
,  // measure 61
0000
0000
0200
0000
0000
0000
0000
0000
0300
0000
0010
0000
1000
0000
0000
0001
,  // measure 62
0000
0010
1001
0000
0000
0000
0000
0000
;

//---------------dance-single - ----------------
#NOTES:
     dance-single:
     :
     Easy:
     7:
     0.253996,0.347541,0.180374,0.128838,0.000000,207.000000,186.000000,21.000000,15.000000,0.000000,0.000000,0.253996,0.347541,0.180374,0.128838,0.000000,207.000000,186.000000,21.000000,15.000000,0.000000,0.000000:
// measure 0
0000
0000
0000
0000
,  // measure 1
0000
0000
0000
0000
,  // measure 2
0000
0000
0000
0000
,  // measure 3
0000
0000
0000
0000
,  // measure 4
0000
0000
0000
0000
,  // measure 5
1000
1000
1000
0000
,  // measure 6
0001
0001
0001
0000
,  // measure 7
1000
0000
0001
0000
,  // measure 8
0110
1001
0110
0000
,  // measure 9
0000
1000
0200
0000
,  // measure 10
0300
1000
0020
0000
,  // measure 11
0030
0100
0002
0000
,  // measure 12
0003
0010
0200
0000
,  // measure 13
0310
0001
2000
0000
,  // measure 14
3000
0001
0200
0000
,  // measure 15
0300
0010
2000
0000
,  // measure 16
3001
0000
1000
0000
,  // measure 17
0001
0010
0001
0100
,  // measure 18
0001
0000
1000
0000
0100
1000
0100
0000
,  // measure 19
1000
0010
0100
0010
,  // measure 20
1000
0000
0001
0000
0010
0100
0010
0000
,  // measure 21
0100
0010
0001
1000
,  // measure 22
0010
0000
1000
0000
0001
0100
0001
0000
,  // measure 23
0100
0001
0010
0100
,  // measure 24
1100
0000
0101
0000
,  // measure 25
1001
0000
0000
0000
,  // measure 26
0000
1000
0001
0100
,  // measure 27
0000
0010
1000
0100
,  // measure 28
0000
0010
0001
1000
,  // measure 29
0000
0100
0010
0001
,  // measure 30
0000
1000
0001
0000
,  // measure 31
0100
0001
0010
0000
,  // measure 32
0100
0010
0001
0000
,  // measure 33
1000
0001
0100
0000
,  // measure 34
0010
1000
0001
0000
,  // measure 35
0010
0100
1000
0000
,  // measure 36
0100
1000
0010
0000
,  // measure 37
0100
0010
1000
0001
,  // measure 38
0000
2002
3003
0010
,  // measure 39
0000
2002
3003
0010
,  // measure 40
0000
2002
3003
0010
,  // measure 41
0000
2002
3003
0010
,  // measure 42
0000
1001
1000
1000
,  // measure 43
0000
1001
0001
0001
,  // measure 44
0000
0110
0100
0110
,  // measure 45
0010
0110
1001
0110
,  // measure 46
0000
1000
0010
1000
,  // measure 47
0010
0100
0001
0100
,  // measure 48
0001
0010
0001
0010
,  // measure 49
0001
1000
0001
1000
,  // measure 50
0001
1000
0001
0000
1000
0000
0010
0000
,  // measure 51
1000
0010
0100
0010
,  // measure 52
0100
0001
0100
0000
0001
0000
0010
0000
,  // measure 53
0100
1001
0000
0000
,  // measure 54
0000
1001
0001
0010
,  // measure 55
0001
1000
0010
0100
,  // measure 56
0010
1000
0010
0000
1000
0000
0001
0000
,  // measure 57
0010
0000
0100
0000
0010
0000
0001
1000
,  // measure 58
0001
1000
0001
0000
1000
0000
0100
0000
,  // measure 59
0010
0100
1000
0001
,  // measure 60
0100
0001
0100
0000
0001
0000
0100
0000
,  // measure 61
0010
1001
0000
0010
,  // measure 62
1000
1001
0000
0000
;

//---------------dance-single - ----------------
#NOTES:
     dance-single:
     :
     Beginner:
     5:
     0.138655,0.240606,0.085892,0.034357,0.000000,113.000000,103.000000,10.000000,4.000000,0.000000,0.000000,0.138655,0.240606,0.085892,0.034357,0.000000,113.000000,103.000000,10.000000,4.000000,0.000000,0.000000:
// measure 0
0000
0000
0000
0000
,  // measure 1
0000
0000
0000
0000
,  // measure 2
0000
0000
0000
0000
,  // measure 3
0000
0000
0000
0000
,  // measure 4
0000
0000
0000
0000
,  // measure 5
1000
0000
0000
0000
,  // measure 6
0001
0000
0000
0000
,  // measure 7
0100
0000
0010
0000
,  // measure 8
1000
1000
1000
0000
,  // measure 9
0000
0001
0001
0000
,  // measure 10
0000
1000
1000
0000
,  // measure 11
0000
0001
0001
0000
,  // measure 12
0000
1000
1000
0000
,  // measure 13
0000
0010
0010
0000
,  // measure 14
0000
0100
0100
0000
,  // measure 15
0000
0010
0010
0000
,  // measure 16
1001
0000
0000
0000
,  // measure 17
1000
0000
0001
0000
,  // measure 18
0100
0000
0010
0010
,  // measure 19
0010
0000
0100
0000
,  // measure 20
0010
0000
1000
1001
,  // measure 21
0010
0000
1000
0000
,  // measure 22
0100
0000
0010
0010
,  // measure 23
0100
0000
1000
0000
,  // measure 24
1001
0000
0010
0000
,  // measure 25
0110
0000
0000
0000
,  // measure 26
0000
1000
0000
0001
,  // measure 27
0000
1000
0000
0001
,  // measure 28
0000
0100
0000
0010
,  // measure 29
0000
0100
0000
0010
,  // measure 30
0000
1000
0000
0000
,  // measure 31
0000
0001
0000
0000
,  // measure 32
0000
0010
0000
0000
,  // measure 33
0000
0001
0000
0000
,  // measure 34
0000
1000
0000
0000
,  // measure 35
0000
0010
0000
0000
,  // measure 36
0000
1000
0000
0000
,  // measure 37
0000
0100
0000
0000
,  // measure 38
0000
0020
0000
0030
,  // measure 39
0000
0020
0000
0030
,  // measure 40
0000
0020
0000
0030
,  // measure 41
0000
0020
0000
0030
,  // measure 42
0000
0100
0100
0100
,  // measure 43
0000
0100
0100
0100
,  // measure 44
0000
0010
0000
0100
,  // measure 45
0000
1001
0110
1001
,  // measure 46
0000
0001
0000
1000
,  // measure 47
0000
0010
0000
1000
,  // measure 48
0000
0001
0000
0010
,  // measure 49
0000
0001
0000
1000
,  // measure 50
0000
0001
0000
0100
,  // measure 51
0000
0010
0000
1000
,  // measure 52
0000
0100
0000
1000
,  // measure 53
0000
1001
0000
0000
,  // measure 54
0000
0010
0000
0100
,  // measure 55
0000
0001
0000
0000
,  // measure 56
0000
1000
0000
0010
,  // measure 57
0000
0100
0000
0000
,  // measure 58
0000
0001
0000
0010
,  // measure 59
0000
0100
0000
0000
,  // measure 60
0000
0010
0000
0001
,  // measure 61
0000
1001
0000
1000
,  // measure 62
0001
0110
0000
0000
;
