#TITLE:My Lovin';
#SUBTITLE:(You're Never Gonna Get It);
#ARTIST:En Vogue;
#TITLETRANSLIT:;
#SUBTITLETRANSLIT:;
#ARTISTTRANSLIT:;
#GENRE:;
#CREDIT:;
#BANNER:My Lovin' (You're Never Gonna Get It).png;
#BACKGROUND:My Lovin' (You're Never Gonna Get It)-bg.png;
#LYRICSPATH:;
#CDTITLE:;
#MUSIC:My Lovin' (You're Never Gonna Get It).ogg;
#OFFSET:-1.238999;
#SAMPLESTART:58.457077;
#SAMPLELENGTH:18.673466;
#SELECTABLE:YES;
#BPMS:0.000000=98.000000
,188.000000=98.699997
,192.000000=98.000000
;
#STOPS:
;
#BGCHANGES:;
#KEYSOUNDS:;
#ATTACKS:;

//---------------dance-single - ----------------
#NOTES:
     dance-single:
     :
     Challenge:
     14:
     0.517693,0.585754,0.128218,0.000000,0.749064,537.000000,518.000000,19.000000,0.000000,0.000000,0.000000,0.517693,0.585754,0.128218,0.000000,0.749064,537.000000,518.000000,19.000000,0.000000,0.000000,0.000000:
// measure 0
0000
0000
0000
0000
,  // measure 1
0000
0000
0000
0000
,  // measure 2
0000
0000
0000
0000
,  // measure 3
0110
0000
1000
0000
1001
0000
0001
1000
0010
1000
0001
1000
0001
0010
0000
0000
,  // measure 4
0010
0000
0100
0000
0110
0000
0100
0010
0100
1000
0100
1000
0001
1000
0000
0000
,  // measure 5
0110
0000
0001
0000
1001
0000
1000
0001
0010
0001
1000
0001
1000
0010
0000
0000
,  // measure 6
0010
0000
0100
0000
0110
0000
0100
0010
0100
0001
0100
0001
1000
0001
0000
0000
,  // measure 7
0001
0000
1000
0001
0000
1000
0001
0000
0010
0000
0100
1000
1001
0000
1000
0001
,  // measure 8
0000
0100
0000
1000
0000
0100
0000
0001
0000
0100
0000
0010
0000
1000
0000
0001
,  // measure 9
1000
0000
1000
0000
0010
0000
0010
0000
0100
0000
0100
0001
0000
0100
0001
1000
,  // measure 10
0001
0010
0000
0100
0000
0001
0000
1000
0000
0010
0100
0010
0000
0001
1000
0001
,  // measure 11
1000
0000
0001
1000
0000
0001
1000
0000
0010
0000
0100
0001
1001
0000
0001
1000
,  // measure 12
0000
0100
0000
0001
0000
0100
0000
1000
0000
0100
0000
0010
0000
0001
0000
1000
,  // measure 13
0001
0000
0001
0000
0010
0000
0010
0000
0100
0000
0100
1000
0000
0100
1000
0001
,  // measure 14
1000
0010
0000
0100
0000
1000
0000
0001
0000
0010
0000
0100
0001
0000
0100
0001
,  // measure 15
1000
0000
0100
0000
0001
0000
0100
0000
1000
0001
0000
0100
0000
1000
0000
0001
,  // measure 16
0000
1000
0000
0100
0000
0010
0000
1000
0000
0001
0000
0010
0000
0010
0100
0000
,  // measure 17
1000
0001
0100
1000
0100
0001
0010
0100
,  // measure 18
0001
0000
1000
0000
0001
0000
0100
0000
0010
0001
1000
0000
1001
0000
0000
0000
,  // measure 19
1000
0000
0010
0000
0001
0000
0010
0000
1000
0001
0000
0010
0000
0100
0000
0001
,  // measure 20
0000
1000
0000
0010
0000
0100
0000
1000
0000
0001
0000
0100
0000
0100
0010
0000
,  // measure 21
1000
0001
0010
1000
0000
0010
0001
0001
,  // measure 22
1000
0010
0001
0100
0001
0010
1000
0001
,  // measure 23
1000
0000
0100
0010
0100
0000
0001
0100
0010
0001
1000
0001
0100
0010
0000
1000
,  // measure 24
0000
0001
0000
0001
1000
0000
0010
0100
1000
0100
0010
0100
0001
1000
0100
0000
,  // measure 25
0010
0000
0000
0000
0100
0000
0001
0100
0010
0100
1000
0100
0010
0001
1000
0000
,  // measure 26
0001
0100
0000
0010
0000
0001
0000
1000
0000
0100
0000
0001
1000
0000
0000
0000
,  // measure 27
0001
0000
0100
0010
0100
0000
1000
0100
0010
1000
0001
1000
0100
0010
0000
0001
,  // measure 28
0000
1000
0000
1000
0001
0000
0010
0100
0001
0100
0010
0100
1000
0001
0100
0000
,  // measure 29
0010
0000
0000
0000
0100
0000
1000
0100
0010
0100
0001
0100
0010
1000
0000
0001
,  // measure 30
0000
0010
0000
1000
0000
0001
0000
0100
0000
1000
0000
0001
1000
0000
0000
0000
,  // measure 31
0001
0000
1000
0001
0000
1000
0001
0000
0010
0000
0100
1000
1001
0000
0000
0000
,  // measure 32
0001
0000
0100
0010
1000
0100
0000
0001
0100
1000
0001
0000
0010
0001
1000
0000
,  // measure 33
1001
0000
0001
0000
0100
0000
0100
0000
1000
0000
1000
0100
0000
1000
0100
0001
,  // measure 34
1000
0000
1000
0000
0100
0000
0100
0000
0001
0100
1000
0001
0000
0100
0010
0000
,  // measure 35
1000
0000
0001
1000
0000
0001
1000
0000
0100
0000
0010
0001
1001
0000
0000
0000
,  // measure 36
1000
0000
0100
0010
0001
0100
0000
1000
0100
0001
1000
0000
0010
1000
0001
0000
,  // measure 37
1001
0000
1000
0000
0100
0000
0100
0000
0001
0000
0001
0100
0000
0001
0100
1000
,  // measure 38
0001
0000
0001
0000
0100
0000
0100
0000
1000
0100
0001
1000
0000
0100
0010
0000
,  // measure 39
0001
0000
0100
0000
1000
0000
0100
0000
0001
0000
0010
0100
0000
1000
0000
0010
,  // measure 40
0000
0001
0000
0100
0000
0001
0000
0010
0000
1000
0000
0100
0000
0010
0000
0001
,  // measure 41
1000
0000
0010
0000
0001
0000
0010
0000
1000
0000
0001
0010
0000
0100
0000
0001
,  // measure 42
0000
1000
0000
0010
0100
0000
1000
0000
0000
0000
1000
0000
1001
0000
0000
0000
,  // measure 43
0001
0000
0100
0000
1000
0000
0100
0000
0001
0000
0010
0100
0000
0001
0000
1000
,  // measure 44
0000
0010
0000
0001
1000
0000
0010
0100
0000
1000
0000
0001
0010
0100
0010
0000
,  // measure 45
1000
0001
0010
1000
0000
0010
0001
0001
,  // measure 46
1000
0010
0001
0100
0001
0010
1000
0001
,  // measure 47
1001
0000
0000
0000
,  // measure 48
0001
0000
1000
0100
0000
1000
0001
0000
0000
1000
0000
0001
0100
0000
0000
0010
0000
0010
0000
0000
0000
0110
0000
0000
,  // measure 49
0000
0000
0001
0100
0000
0001
1000
0000
0000
0001
0000
1000
0100
0000
0000
0010
0000
0010
0000
0000
0000
0110
0000
0000
,  // measure 50
0000
0000
0001
0010
0000
0001
1000
0000
0000
0001
0000
1000
0010
0000
0000
0100
0000
0100
0000
0000
0000
0110
0000
0000
,  // measure 51
0000
0000
1000
0010
0000
1000
0001
0000
0001
0000
0000
0000
0000
0000
0000
0000
0000
0000
0000
0000
0000
0000
0000
0000
,  // measure 52
1000
0000
0001
1000
0000
1000
0010
0000
1000
0001
0000
1000
0001
0000
1000
0001
0000
0001
0010
0000
0000
0100
0000
0000
,  // measure 53
0010
0000
0100
0010
0000
0010
0001
0000
0010
0100
0000
0010
0100
0000
0010
0100
0000
0100
1000
0000
0000
1000
0000
0000
,  // measure 54
0001
0000
1000
0001
0000
0001
0010
0000
0001
1000
0000
0001
1000
0000
0001
1000
0000
1000
0010
0000
0000
0100
0000
0000
,  // measure 55
0010
0000
0100
0010
0000
0010
1000
0000
1000
0001
0000
1000
0001
0000
0010
0100
0000
0100
1000
0000
1000
0001
0000
0000
,  // measure 56
1001
0000
0000
0000
;
