#VERSION:0.83;
#TITLE:My Heart Beats Like a Drum;
#SUBTITLE:(Dum Dum Dum);
#ARTIST:ATC;
#TITLETRANSLIT:;
#SUBTITLETRANSLIT:;
#ARTISTTRANSLIT:;
#GENRE:;
#ORIGIN:;
#CREDIT:;
#BANNER:;
#BACKGROUND:;
#PREVIEWVID:;
#JACKET:;
#CDIMAGE:;
#DISCIMAGE:;
#LYRICSPATH:;
#CDTITLE:;
#MUSIC:My Heart Beats Like A Drum (Dam Dam Dam) (Radio Edit).ogg;
#OFFSET:-0.437000;
#SAMPLESTART:44.485001;
#SAMPLELENGTH:28.608999;
#SELECTABLE:YES;
#BPMS:0.000=132.128;
#STOPS:223.000=0.454;
#DELAYS:;
#WARPS:;
#TIMESIGNATURES:0.000=4=4;
#TICKCOUNTS:0.000=4;
#COMBOS:0.000=1;
#SPEEDS:0.000=1.000=0.000=0;
#SCROLLS:0.000=1.000;
#FAKES:;
#LABELS:0.000=Song Start;
#BGCHANGES:;
#KEYSOUNDS:;
#ATTACKS:
;

//---------------dance-single - ----------------
#NOTEDATA:;
#CHARTNAME:;
#STEPSTYPE:dance-single;
#DESCRIPTION:;
#CHARTSTYLE:;
#DIFFICULTY:Beginner;
#METER:3;
#RADARVALUES:0.142199,0.167179,0.040083,0.000000,0.000000,149.000000,143.000000,6.000000,0.000000,0.000000,0.000000,0.000000,0.000000,0.000000,0.142199,0.167179,0.040083,0.000000,0.000000,149.000000,143.000000,6.000000,0.000000,0.000000,0.000000,0.000000,0.000000,0.000000;
#CREDIT:;
#NOTES:
0000
0000
0000
1000
,
0000
0000
0000
0001
,
0000
0000
0000
1000
,
0000
0000
0000
0001
,
0000
0000
0000
0100
,
0000
0010
0000
1000
,
0000
0001
0000
1000
,
0000
0100
0000
0010
,
0000
0001
0000
1000
,
0000
0001
0000
1000
,
0000
0001
0000
0001
,
0000
1000
0000
0010
,
0000
0100
0000
0001
,
0000
1000
0000
0100
,
0000
0010
0000
0001
,
0000
1000
0000
0001
,
0000
1000
0000
1001
,
0000
0001
0000
0000
,
0000
0100
0000
0000
,
0000
0010
0000
1000
,
0000
0000
0000
0001
,
0000
0001
0000
0000
,
0000
1000
0000
0000
,
0000
0001
0000
1001
,
0000
1000
0000
0001
,
0000
0100
0000
0010
,
0000
0100
0100
0100
,
0000
0010
0010
0010
,
0000
0100
0000
0001
,
0000
0100
0000
0010
,
0000
0100
0100
0100
,
0000
0001
0001
0001
,
0000
1000
0000
1001
,
0000
0001
0000
0100
,
0000
0010
0010
0010
,
0000
1000
1000
1000
,
0000
0001
0000
0100
,
0000
0010
0000
1000
,
0000
0001
0001
0001
,
0000
0100
0100
0100
,
0000
0010
0000
1000
,
0000
0001
0000
1000
,
0000
0010
0000
0100
,
0000
0010
0000
1000
,
0000
0010
0000
0100
,
0000
0001
0000
0100
,
0000
0001
0000
1000
,
0000
0001
0000
1001
,
0000
0000
0000
0100
,
0000
0000
0000
0100
,
0000
0000
0000
1000
,
0000
0000
0000
0001
,
0000
0000
0000
0100
,
0000
0100
0000
0010
,
0000
0010
0000
1000
,
0000
0001
0000
1001
,
0000
0000
1000
0000
,
0001
0000
0001
0000
,
1000
1000
1000
0000
,
1000
1000
1000
0000
,
0001
0000
0100
0000
,
0010
0000
1000
0000
,
0001
0001
0001
0000
,
1000
1000
1000
0000
,
0001
0000
0100
0000
,
0010
0000
1000
0000
,
0001
0001
0001
0000
,
0100
0100
0100
0000
,
0010
0000
1000
0000
,
0001
0000
0100
0000
,
0010
0010
0010
0000
,
1000
0000
1001
0000
;

//---------------dance-single - ----------------
#NOTEDATA:;
#CHARTNAME:;
#STEPSTYPE:dance-single;
#DESCRIPTION:;
#CHARTSTYLE:;
#DIFFICULTY:Easy;
#METER:4;
#RADARVALUES:0.228090,0.266384,0.086846,0.033402,0.000000,239.000000,226.000000,13.000000,5.000000,0.000000,0.000000,0.000000,0.000000,0.000000,0.228090,0.266384,0.086846,0.033402,0.000000,239.000000,226.000000,13.000000,5.000000,0.000000,0.000000,0.000000,0.000000,0.000000;
#CREDIT:;
#NOTES:
0000
0000
0000
1000
,
0000
0001
0000
0100
,
0000
0010
0000
1000
,
0000
0010
0000
0100
,
0000
0001
0000
1000
,
0010
1000
0100
1000
,
0001
0100
0010
0100
,
0001
1000
0100
0010
,
0001
0100
0000
0002
,
1003
0000
0001
0000
,
1000
0010
1000
0001
,
0100
0000
0001
0000
,
1000
0001
1000
0010
,
0100
0000
0001
0000
,
1000
0100
0010
0001
,
0100
0000
0010
1000
,
0001
0000
0000
1001
,
1000
0000
0002
0000
0003
0000
0000
0100
,
0000
0010
0000
1000
0000
0000
0000
0000
,
0001
1000
0010
0100
,
0001
1000
0100
0010
,
0001
0000
2000
0000
3000
0000
0000
0010
,
0000
1000
0000
0001
0000
0000
0000
0000
,
1000
0100
0010
0011
,
0001
1000
0100
1001
,
0001
1000
0010
1000
,
0000
0100
0100
0100
,
0000
0010
0010
0010
,
0000
1000
0001
1000
,
0010
0100
0001
0010
,
0000
0100
0100
0100
,
0000
1000
0001
1001
,
0000
1000
0001
1001
,
1000
0010
0100
0001
,
0000
1000
1000
0001
,
0000
0100
0100
0010
,
0000
1000
0001
1000
,
0010
0100
0001
0010
,
0000
0001
1000
0001
,
0000
0100
0010
0100
,
0000
0001
1000
1001
,
0001
0100
0001
0010
,
0001
1000
0100
1000
,
0010
0100
0001
0100
,
0010
1000
0100
0010
,
0100
1000
0001
0100
,
0010
1000
0001
0010
,
0100
1000
0010
2002
,
3003
0000
0000
1000
,
0000
0001
0000
0100
,
0000
0010
0000
1000
,
0000
0001
0000
1000
,
0000
0000
0000
0001
,
1000
0001
1000
0010
,
0100
0010
0100
0001
,
1000
0001
1000
1001
,
0100
0001
0101
0100
,
0010
1000
0010
0000
,
1000
0100
0001
0000
,
0100
1000
0010
0000
,
0100
0001
0100
0010
,
1000
0100
0010
0000
,
0001
0100
0010
0000
,
1000
0001
1000
0000
,
0001
1000
0110
0100
,
0010
0100
0010
0000
,
1000
1000
1000
0000
,
0100
0100
0010
0000
,
1000
0001
1000
0010
,
0100
0001
0010
0000
,
0100
1000
1100
0000
,
0010
0001
1001
0000
,
0000
0000
1001
0000
;

//---------------dance-single - ----------------
#NOTEDATA:;
#CHARTNAME:;
#STEPSTYPE:dance-single;
#DESCRIPTION:;
#CHARTSTYLE:;
#DIFFICULTY:Medium;
#METER:9;
#RADARVALUES:0.375061,0.363251,0.394148,0.046763,0.000000,393.000000,334.000000,59.000000,7.000000,0.000000,0.000000,0.000000,0.000000,0.000000,0.375061,0.363251,0.394148,0.046763,0.000000,393.000000,334.000000,59.000000,7.000000,0.000000,0.000000,0.000000,0.000000,0.000000;
#CREDIT:;
#NOTES:
0000
0000
0000
1000
,
0100
0010
0001
1000
,
0010
0100
0100
0001
,
1000
0010
0100
0001
,
0100
0010
0010
1010
,
1000
0001
0100
1010
,
1000
0001
0001
1001
,
1000
0010
0100
0101
,
0001
1000
0001
1000
,
0001
0010
0001
0000
1000
0100
1000
0000
,
0001
0100
0001
0010
0001
0100
0001
0000
,
1000
0100
1000
0000
0001
0010
0001
0000
,
1000
0100
1000
0010
1000
0100
1000
0000
,
0001
0010
0001
0000
1000
0100
1000
0000
,
0001
0010
0001
0100
0001
0010
0001
0000
,
1000
0100
0010
0000
0001
0010
0100
0000
,
1000
0000
0001
0100
0010
0000
1010
0000
,
1000
0001
0200
0000
0300
0000
0000
0010
,
0000
1000
0000
0001
0000
0000
1000
0000
,
0010
0100
0001
0010
0001
0100
0010
0100
,
0001
1000
0001
0001
,
1000
0010
0200
0000
0300
0000
0000
0001
,
0100
0200
0000
0310
0000
0000
0000
0100
,
0001
0010
0001
0100
0010
0100
0001
1000
,
0001
2000
3001
1001
,
1000
0010
0001
0000
0001
0010
1000
0000
,
0001
0011
1001
1100
,
0000
1001
0110
1001
,
0000
1000
0001
1000
,
0001
0010
0100
0000
1000
0010
0100
0000
,
0000
0101
0110
1010
,
0000
1001
0110
1001
,
0000
1000
0001
1001
,
1000
0100
1000
0000
0001
0010
0001
0000
,
1000
1001
0110
1001
,
0001
1100
1001
0110
,
0001
1000
0001
0100
,
0010
1000
0010
0000
0100
0001
1000
0000
,
0100
1100
0110
0011
,
0100
0110
1001
0110
,
0001
1000
0001
1001
,
1000
0001
1000
0000
0001
0100
0001
0000
,
1000
0100
0010
0001
0010
0100
1000
0000
,
0001
0010
0001
0000
1000
0010
1000
0000
,
0001
0100
0001
0010
0001
0100
0010
0000
,
1000
0100
1000
0000
0001
0100
0001
0000
,
1000
0100
0010
0001
0100
0010
1000
0000
,
0001
0010
0001
0000
0100
0000
0101
0000
,
0001
1000
0001
1000
,
0001
0100
0001
0000
1000
0010
1000
0000
,
0001
0100
0010
1000
,
0001
1000
0100
0010
,
0001
0100
0010
1000
,
1000
0010
0100
0001
,
0001
0100
0010
1000
,
0001
1000
0001
1001
,
0020
0000
0130
0000
0101
0000
0001
1000
,
0001
0000
0100
0010
1000
0000
0001
0000
,
0011
0110
1100
0000
,
1001
0110
1001
0000
,
1000
0000
0001
0000
0100
0000
0010
1000
,
0100
0000
0010
0001
0100
0000
0010
0000
,
1100
1001
0110
0000
,
1001
0110
1001
0000
,
0001
0000
1000
0000
1001
0000
0001
0100
,
0001
0000
1000
0100
1000
0000
0001
0000
,
1100
1001
0101
0010
,
1100
1001
0110
1000
,
0001
0000
0100
0000
0010
0000
0100
0010
,
0100
0000
0001
0100
0010
0000
1000
0000
,
0101
0110
1010
0000
,
1000
0001
0202
0303
,
0000
0000
1001
0000
;

//---------------dance-single - ----------------
#NOTEDATA:;
#CHARTNAME:;
#STEPSTYPE:dance-single;
#DESCRIPTION:;
#CHARTSTYLE:;
#DIFFICULTY:Hard;
#METER:11;
#RADARVALUES:0.521077,0.508551,0.260538,0.126929,0.126929,546.000000,507.000000,39.000000,19.000000,0.000000,0.000000,0.000000,0.000000,0.000000,0.521077,0.508551,0.260538,0.126929,0.126929,546.000000,507.000000,39.000000,19.000000,0.000000,0.000000,0.000000,0.000000,0.000000;
#CREDIT:;
#NOTES:
0000
0000
0000
0000
0000
0000
1000
0001
,
1000
0001
0100
0010
0100
0010
1000
0100
,
0001
0100
1000
0010
1000
0010
0100
0001
,
0100
0001
1000
0100
0010
0001
1000
0010
,
1000
0100
0010
0001
0010
0001
0011
0000
,
0001
1000
0010
0000
0100
0001
0100
0000
,
0010
1000
0100
0001
0100
1000
0010
0000
,
0100
0001
0010
0000
0100
1000
0010
0100
,
0001
0100
0010
0000
1000
0000
0200
0000
,
0310
0001
0100
0000
0100
0010
1000
0000
,
1000
0100
0001
0100
1000
0100
0010
0000
,
0001
0100
0010
0000
1000
0100
0010
0000
,
0001
0100
1000
0100
0001
0100
0010
1000
,
0001
0100
2000
0000
3001
0010
1000
0000
,
0001
0100
0001
0100
0010
1000
0020
0000
,
1030
0100
1000
0000
0001
0100
0001
1000
,
0001
1000
0100
0010
0001
1000
1010
0000
,
1000
0000
0001
0100
0001
0000
1000
0000
0100
0000
0010
0001
0010
0000
0100
0000
,
1000
0000
0001
1000
0001
0000
0100
0000
0010
0000
1000
0100
1000
0000
0001
0000
,
0100
0010
1000
0100
0001
1000
0010
0001
,
1000
0000
0001
0100
0000
0010
0000
1000
0001
0000
1000
0000
0002
0000
0000
0000
,
1003
0010
0100
0001
1000
0100
0010
0001
,
0100
0020
0000
1030
0001
0100
0001
1000
,
0100
0010
0001
0100
0010
1000
1010
0010
,
0100
0000
0000
0000
0002
0000
0000
0000
2003
0000
3000
0000
1001
0000
0000
0001
,
0100
0000
0000
0100
0010
0000
0000
0010
1000
0000
0000
1000
0001
0000
1000
0000
,
0100
1000
1100
0000
0110
0000
0011
0000
,
0001
0100
0101
0000
0110
0000
1010
0000
,
1000
0000
0001
0000
0200
0000
0000
0000
0320
0000
0000
0000
1030
0000
0000
1000
,
0001
0000
0000
0001
0100
0000
0000
0100
0010
0000
0000
0010
1000
0000
0001
0000
,
0100
0001
0011
0000
1100
0000
1000
0001
,
1000
0100
1000
0000
0110
0000
0011
0001
,
0100
0000
1000
0000
0100
0000
0001
0000
0100
0000
0010
0100
0001
0000
0000
0001
,
0100
0000
0000
0100
0010
0000
0000
0010
1000
0000
0000
1000
0001
0000
0100
0000
,
0010
1000
1100
0000
0110
0000
0001
0100
,
0010
1000
1100
0000
1001
0000
0001
0100
,
1000
0000
0100
0000
0002
0000
0000
0000
2003
0000
0000
0000
3001
0000
0000
0010
,
0100
0000
0000
1000
0100
0000
0000
0010
0100
0000
0000
1000
0100
0000
0010
0000
,
0001
0100
0010
0000
0110
0000
1000
0100
,
0001
0100
2000
0000
3002
0000
1003
0100
,
0010
0001
0100
0010
1000
0001
1001
1000
,
0010
0100
0010
0100
0001
0010
0001
0010
,
0100
1000
0010
1000
0001
1000
0001
0010
,
0100
1000
0001
0100
0010
1000
0001
0100
,
1000
0100
0001
0100
0010
1000
0100
0001
,
0100
1000
0010
0001
0010
1000
0100
0010
,
0100
1000
0001
0100
0001
0010
0001
1000
,
0100
1000
0001
0100
0001
0100
0110
0010
,
1000
0010
1000
0100
0010
0001
0200
0000
,
0310
1000
0002
0000
1003
0100
2000
0000
,
3001
0100
0001
0010
0001
0100
0010
0000
,
1000
0100
1000
0000
0001
0100
0001
0000
,
1000
0010
0100
0001
,
0001
0001
0001
1000
,
1000
0000
1000
0000
1000
0000
0001
0100
,
0010
0000
1000
0100
1000
0000
1001
0000
,
0001
0000
0000
0000
0100
0000
0000
0000
0010
0000
1000
0010
1000
0000
0001
0000
,
0100
0000
0010
1000
0010
0000
1000
0000
0100
0000
0010
0001
0010
0000
0100
0000
,
1100
0000
0000
0000
0011
0000
0000
0000
1000
0000
0001
0100
0001
0000
1000
0000
,
1010
0000
0000
0000
0110
0000
0000
0000
0001
0000
1000
0010
1000
0000
0001
0000
,
0020
0000
0000
0000
0230
0000
0000
0000
0310
0000
0001
1000
0010
0000
0100
0000
,
0001
0000
1000
0100
0010
0000
0001
0000
0100
0000
0010
1000
0010
0000
0100
0000
,
0101
0000
0011
0000
1001
0000
1000
0100
,
1000
0000
0110
0000
0001
0100
0001
0010
,
0002
0000
0000
0000
1003
0000
0000
0000
1001
0000
0001
0100
0001
0000
1000
0000
,
0100
0000
0010
0001
0010
0000
0100
0000
1000
0000
0001
0100
0001
0000
1000
0000
,
1100
0000
0110
0000
0001
0100
0001
0010
,
0011
0000
0110
0000
0100
1000
0001
0100
,
0010
0000
1000
0000
1000
0000
0010
1000
0100
0000
0010
0000
0001
0000
1000
0010
,
1000
0000
0001
0000
0100
0000
0010
1000
0010
0000
0100
0000
0001
0000
1000
0000
,
1100
0000
0011
0000
1001
1000
0001
0100
,
0010
0000
1000
0000
1010
1000
0001
0100
,
0010
1000
0001
0001
1000
0000
0000
0000
;

//---------------dance-double - ----------------
#NOTEDATA:;
#CHARTNAME:;
#STEPSTYPE:dance-double;
#DESCRIPTION:;
#CHARTSTYLE:;
#DIFFICULTY:Hard;
#METER:11;
#RADARVALUES:0.506762,0.508551,0.220456,0.120249,0.026722,531.000000,498.000000,33.000000,18.000000,0.000000,0.000000,0.000000,0.000000,0.000000,0.506762,0.508551,0.220456,0.120249,0.026722,531.000000,498.000000,33.000000,18.000000,0.000000,0.000000,0.000000,0.000000,0.000000;
#CREDIT:;
#NOTES:
00000000
00000000
00000000
00000000
00000000
00000000
00010000
00001000
,
01000000
00100000
01000000
00001000
00010000
00000010
00000100
00000010
,
00010000
00001000
01000000
00100000
01000000
00010000
01000000
00001000
,
00100000
00001000
00010000
00000100
00010000
00000010
00001000
00000001
,
00000100
00000001
00001000
00000100
00010000
00001000
00011000
00000000
,
00010000
00001000
00100000
00000000
00010000
10000000
01000000
00010000
,
01000000
10000000
00010000
00100000
00001000
00010000
00000100
00000001
,
00000100
00001000
00000010
00000100
00000001
00010000
00001000
00010000
,
00001000
00100000
00010000
00000000
10000000
00000000
00020000
00000000
,
10030000
01000000
00010000
00000000
00001000
00000010
00000001
00000000
,
00000001
00000010
00001000
00010000
01000000
10000000
00010000
00000000
,
10000000
01000000
00010000
00000000
00001000
00000010
00000001
00000000
,
00000001
00000010
00001000
00010000
01000000
10000000
00010000
00000000
,
10000000
01000000
00010000
00001000
00010000
00000100
00001000
00000100
,
00010000
01000000
10000000
01000000
00010000
00100000
00001000
00010000
,
00001000
00000100
00000001
00000000
00000001
00000100
00001000
00000100
,
00000010
00000000
00001000
00000100
00010000
00001000
00011000
00000000
,
00001000
00000000
01000000
00010000
01000000
00000000
00010000
00000000
10000000
00000000
00100000
01000000
00100000
00000000
10000000
00000000
,
00010000
00000000
01000000
00100000
01000000
00000000
00001000
00000000
00010000
00000000
00000100
00001000
00000100
00000000
00010000
00000000
,
00001000
00100000
01000000
00100000
00001000
00010000
00000100
00000010
,
00000001
00000010
00000000
00000100
00000000
00001000
00000010
00000000
00000100
00000000
00000000
00000000
00000201
00000000
00000000
00000000
,
00000301
00000010
00000100
00000000
00000100
00010000
00001000
00010000
,
00001000
20000000
00000000
30010000
00000000
00000000
00100000
00001000
,
00100000
00010000
10000000
01000000
00010000
00001000
00000010
00000001
,
00000010
00000000
00000002
00000000
00002003
00000000
00003001
00000100
,
00000010
00000100
00000001
00001000
00000100
00010000
00001000
00100000
,
00010000
01000000
10010000
00000000
00110000
00000000
00001000
00010000
,
00000100
00010000
00010100
00000000
00001100
00000000
00001000
00000100
,
00000001
00000100
00002000
00000000
00003200
00000000
00010300
00001000
,
00100000
00010000
01000000
00010000
10000000
01000000
00010000
00001000
,
00000100
00000001
00000101
00000000
00000110
00000000
00001000
00000100
,
00010000
00001000
00011000
00000000
00110000
00000000
10010000
10000000
,
00010000
00000000
01000000
00000000
00001000
00000000
00010000
00000000
00000010
00000000
00000100
00000001
00000100
00000000
00000010
00000000
,
00010000
00001000
00010000
00000001
00001000
00010000
00001000
00000100
,
00010000
00001000
00011000
00000000
10010000
00000000
00001000
00010000
,
00000100
00000010
00000110
00000000
00000101
00000000
00000001
00001000
,
00000100
00010000
00002000
00000000
00203000
00000000
00310000
10000000
,
00001000
00010000
00001000
01000000
00000100
00000010
00000100
00000010
,
00010000
00001000
00011000
00000000
00101000
00000000
00010000
10000000
,
00100000
01000000
00011000
00000000
00010100
00000000
00010000
00001000
,
00010000
00000100
00010000
00001000
10000000
00010000
10000000
01000000
,
00010000
01000000
00010000
00001000
00000100
00000001
00000001
00000010
,
00001000
00010000
00100000
10000000
00100000
00010000
00001000
00000010
,
00000001
00000100
00000010
00100000
00000100
01000000
00010000
10000000
,
00010000
10000000
01000000
00100000
01000000
10000000
00010000
01000000
,
00001000
00100000
00010000
01000000
00001000
00100000
00000010
00010000
,
00001000
00100000
00000010
00010000
00001000
00100000
00000010
00000100
,
00000001
00000010
00000100
00010000
00001000
00100000
00101000
00001000
,
10000000
00010000
10000000
01000000
10000000
00010000
02000000
00000000
,
03010000
00100000
00002000
00000000
00013000
00000100
00001000
00000000
,
00000010
00001000
00000010
00000100
00000001
00000100
00000010
00000000
,
00001000
00000100
00001000
00000000
00000001
00000100
00000010
00000000
,
00001000
00000100
00010000
00001000
,
10000000
00010000
00001000
00000001
,
00001000
00010000
01000000
00010000
,
01000000
00100000
01000000
10010000
,
02000000
00000000
03020000
00000000
10030000
01000000
00010000
00001000
,
00010000
01000000
10000000
00010000
10000000
01000000
00100000
00010000
,
00110000
00000000
00011000
00000000
00001000
00000010
00000100
00000001
,
00000011
00000000
00001100
00000000
00000100
00010000
00000100
00001000
,
00000200
00000000
02000300
00000000
03100000
10000000
01000000
10000000
,
01000000
00100000
00010000
00100000
00010000
01000000
00001000
00010000
,
00011000
00000000
00010100
00000000
00010000
00000010
00001000
00000001
,
00001001
00000000
00001100
00000000
00010000
00001000
00100000
00010000
,
20000000
00000000
30010000
00000000
01010000
01000000
00001000
00010000
,
00001000
01000000
00001000
00010000
00001000
00100000
00000010
00001000
,
00000001
00000010
00000001
00000010
00001000
00000100
00010000
00000100
,
00010000
00001000
00010000
00001000
10000000
00100000
01000000
00010000
,
02000000
00000000
03020000
00000000
10030000
01000000
10000000
10000000
,
10000000
00010000
01000000
01000000
01000000
00001000
00010000
00000100
,
00010000
00001000
00010000
00000100
00010100
00010000
00000100
00001000
,
00000010
00000000
00001000
00000000
00001001
00000001
00001000
00000010
,
00001000
00000010
00001000
00000100
00010000
00000000
00000000
00000000
;

//---------------dance-single - Mods----------------
#NOTEDATA:;
#CHARTNAME:;
#STEPSTYPE:dance-single;
#DESCRIPTION:Mods;
#CHARTSTYLE:;
#DIFFICULTY:Edit;
#METER:11;
#RADARVALUES:0.521077,0.508551,0.260538,0.126929,0.126929,546.000000,507.000000,39.000000,19.000000,0.000000,0.000000,0.000000,0.000000,0.000000,0.521077,0.508551,0.260538,0.126929,0.126929,546.000000,507.000000,39.000000,19.000000,0.000000,0.000000,0.000000,0.000000,0.000000;
#CREDIT:;
#ATTACKS:TIME=45.403473:LEN=29.000000:MODS=*88 Beat:TIME=74.466187:LEN=5.000000:MODS=*99 No Beat,*99 No Dizzy No Tornado:TIME=103.528809:LEN=41.000000:MODS=*70 Beat:TIME=130.775131:LEN=5.000000:MODS=*98 No Beat,*98 No Dizzy,*73 No Drunk:TIME=9.075063:LEN=5.000000:MODS=*99 50% Drunk Dizzy:TIME=16.794849:LEN=5.000000:MODS=*99 Stealth:TIME=17.248953:LEN=5.000000:MODS=*99 No Stealth:TIME=17.703058:LEN=5.000000:MODS=*2 50% Flip:TIME=18.611269:LEN=5.000000:MODS=*99 No Flip:TIME=24.060530:LEN=5.000000:MODS=54% Stealth:TIME=25.876951:LEN=5.000000:MODS=No Stealth:TIME=30.872107:LEN=5.000000:MODS=*99 20% Reverse:TIME=31.326212:LEN=5.000000:MODS=*99 No Reverse:TIME=33.142635:LEN=5.000000:MODS=*99 59% Stealth:TIME=34.959053:LEN=5.000000:MODS=*99 No Stealth:TIME=38.591896:LEN=5.000000:MODS=*99 75% Bumpy Beat:TIME=42.224735:LEN=5.000000:MODS=*99 No Bumpy No Beat:TIME=48.128101:LEN=5.000000:MODS=*99 Reverse:TIME=48.582207:LEN=5.000000:MODS=*99 No Reverse:TIME=49.036312:LEN=5.000000:MODS=*99 Reverse:TIME=49.944523:LEN=5.000000:MODS=*99 No Reverse:TIME=50.398628:LEN=5.000000:MODS=*99 Reverse:TIME=50.852734:LEN=5.000000:MODS=*99 No Reverse:TIME=55.393784:LEN=5.000000:MODS=*99 Reverse:TIME=55.847889:LEN=5.000000:MODS=*99 No Reverse:TIME=56.301994:LEN=5.000000:MODS=*99 Reverse:TIME=57.210205:LEN=5.000000:MODS=*99 No Reverse:TIME=57.664310:LEN=5.000000:MODS=*99 Reverse:TIME=58.118416:LEN=5.000000:MODS=*99 No Reverse:TIME=59.934834:LEN=11.000000:MODS=*99 628% Dizzy:TIME=62.659466:LEN=5.000000:MODS=*99 Reverse:TIME=63.113571:LEN=5.000000:MODS=*99 No Reverse:TIME=63.567677:LEN=5.000000:MODS=*99 Reverse:TIME=64.475876:LEN=5.000000:MODS=*99 No Reverse:TIME=64.929985:LEN=5.000000:MODS=*99 Reverse:TIME=65.384087:LEN=5.000000:MODS=*99 No Reverse:TIME=67.200508:LEN=5.000000:MODS=*99 30% Tornado:TIME=74.466187:LEN=5.000000:MODS=*2 Space:TIME=75.374397:LEN=5.000000:MODS=*2 Incoming:TIME=76.282608:LEN=5.000000:MODS=*2 Space:TIME=77.190819:LEN=5.000000:MODS=*2 Incoming:TIME=78.099030:LEN=5.000000:MODS=*99 No Incoming:TIME=78.099030:LEN=5.000000:MODS=*2 Centered:TIME=79.007240:LEN=5.000000:MODS=*2 No Centered:TIME=79.915451:LEN=5.000000:MODS=*2 Centered:TIME=80.823662:LEN=5.000000:MODS=*2 No Centered:TIME=81.731873:LEN=5.000000:MODS=*2 Flip:TIME=82.640083:LEN=5.000000:MODS=*2 No Flip:TIME=83.548294:LEN=5.000000:MODS=*2 Reverse:TIME=84.456505:LEN=5.000000:MODS=*2 No Reverse:TIME=85.364716:LEN=5.000000:MODS=*2 200% Space:TIME=86.272919:LEN=5.000000:MODS=*2 200% Incoming:TIME=87.181129:LEN=5.000000:MODS=*992 No Incoming:TIME=89.451660:LEN=5.000000:MODS=*99 Stealth:TIME=90.359871:LEN=5.000000:MODS=*991 No Stealth:TIME=90.359871:LEN=5.000000:MODS=*2 50% Flip:TIME=91.268082:LEN=5.000000:MODS=*99 No Flip:TIME=96.263237:LEN=5.000000:MODS=*0.3 200% Beat:TIME=106.253441:LEN=5.000000:MODS=*99 Flip:TIME=106.707550:LEN=5.000000:MODS=*99 No Flip:TIME=107.161652:LEN=5.000000:MODS=*99 Reverse:TIME=108.069862:LEN=5.000000:MODS=*99 Flip:TIME=108.523964:LEN=5.000000:MODS=*99 No Flip:TIME=108.978073:LEN=5.000000:MODS=*99 No Reverse:TIME=110.340385:LEN=29.000000:MODS=*99 50% Drunk:TIME=113.519127:LEN=5.000000:MODS=*99 Reverse:TIME=113.973228:LEN=5.000000:MODS=*99 No Reverse:TIME=114.427330:LEN=5.000000:MODS=*99 Reverse:TIME=115.335541:LEN=5.000000:MODS=*99 Flip:TIME=115.789650:LEN=5.000000:MODS=*99 No Flip:TIME=116.243752:LEN=5.000000:MODS=*99 No Reverse:TIME=118.060173:LEN=5.000000:MODS=*99 Bumpy:TIME=120.784805:LEN=5.000000:MODS=*99 Reverse:TIME=121.238914:LEN=5.000000:MODS=*99 No Reverse:TIME=121.693016:LEN=5.000000:MODS=*99 Reverse:TIME=122.601227:LEN=5.000000:MODS=*99 Flip:TIME=123.055328:LEN=5.000000:MODS=*99 No Flip:TIME=123.509438:LEN=5.000000:MODS=*99 No Reverse:TIME=124.871750:LEN=5.000000:MODS=*99 314% Dizzy:TIME=128.050491:LEN=5.000000:MODS=*99 Reverse Flip:TIME=128.504593:LEN=5.000000:MODS=*99 No Reverse No Flip:TIME=128.958710:LEN=5.000000:MODS=*99 Reverse Flip:TIME=129.866913:LEN=5.000000:MODS=*99 No Reverse:TIME=130.321014:LEN=5.000000:MODS=*99 No Flip;
#NOTES:
// measure 0
0000
0000
0000
0000
0000
0000
1000
0001
,  // measure 1
1000
0001
0100
0010
0100
0010
1000
0100
,  // measure 2
0001
0100
1000
0010
1000
0010
0100
0001
,  // measure 3
0100
0001
1000
0100
0010
0001
1000
0010
,  // measure 4
1000
0100
0010
0001
0010
0001
0011
0000
,  // measure 5
0001
1000
0010
0000
0100
0001
0100
0000
,  // measure 6
0010
1000
0100
0001
0100
1000
0010
0000
,  // measure 7
0100
0001
0010
0000
0100
1000
0010
0100
,  // measure 8
0001
0100
0010
0000
1000
0000
0200
0000
,  // measure 9
0310
0001
0100
0000
0100
0010
1000
0000
,  // measure 10
1000
0100
0001
0100
1000
0100
0010
0000
,  // measure 11
0001
0100
0010
0000
1000
0100
0010
0000
,  // measure 12
0001
0100
1000
0100
0001
0100
0010
1000
,  // measure 13
0001
0100
2000
0000
3001
0010
1000
0000
,  // measure 14
0001
0100
0001
0100
0010
1000
0020
0000
,  // measure 15
1030
0100
1000
0000
0001
0100
0001
1000
,  // measure 16
0001
1000
0100
0010
0001
1000
1010
0000
,  // measure 17
1000
0000
0001
0100
0001
0000
1000
0000
0100
0000
0010
0001
0010
0000
0100
0000
,  // measure 18
1000
0000
0001
1000
0001
0000
0100
0000
0010
0000
1000
0100
1000
0000
0001
0000
,  // measure 19
0100
0010
1000
0100
0001
1000
0010
0001
,  // measure 20
1000
0000
0001
0100
0000
0010
0000
1000
0001
0000
1000
0000
0002
0000
0000
0000
,  // measure 21
1003
0010
0100
0001
1000
0100
0010
0001
,  // measure 22
0100
0020
0000
1030
0001
0100
0001
1000
,  // measure 23
0100
0010
0001
0100
0010
1000
1010
0010
,  // measure 24
0100
0000
0000
0000
0002
0000
0000
0000
2003
0000
3000
0000
1001
0000
0000
0001
,  // measure 25
0100
0000
0000
0100
0010
0000
0000
0010
1000
0000
0000
1000
0001
0000
1000
0000
,  // measure 26
0100
1000
1100
0000
0110
0000
0011
0000
,  // measure 27
0001
0100
0101
0000
0110
0000
1010
0000
,  // measure 28
1000
0000
0001
0000
0200
0000
0000
0000
0320
0000
0000
0000
1030
0000
0000
1000
,  // measure 29
0001
0000
0000
0001
0100
0000
0000
0100
0010
0000
0000
0010
1000
0000
0001
0000
,  // measure 30
0100
0001
0011
0000
1100
0000
1000
0001
,  // measure 31
1000
0100
1000
0000
0110
0000
0011
0001
,  // measure 32
0100
0000
1000
0000
0100
0000
0001
0000
0100
0000
0010
0100
0001
0000
0000
0001
,  // measure 33
0100
0000
0000
0100
0010
0000
0000
0010
1000
0000
0000
1000
0001
0000
0100
0000
,  // measure 34
0010
1000
1100
0000
0110
0000
0001
0100
,  // measure 35
0010
1000
1100
0000
1001
0000
0001
0100
,  // measure 36
1000
0000
0100
0000
0002
0000
0000
0000
2003
0000
0000
0000
3001
0000
0000
0010
,  // measure 37
0100
0000
0000
1000
0100
0000
0000
0010
0100
0000
0000
1000
0100
0000
0010
0000
,  // measure 38
0001
0100
0010
0000
0110
0000
1000
0100
,  // measure 39
0001
0100
2000
0000
3002
0000
1003
0100
,  // measure 40
0010
0001
0100
0010
1000
0001
1001
1000
,  // measure 41
0010
0100
0010
0100
0001
0010
0001
0010
,  // measure 42
0100
1000
0010
1000
0001
1000
0001
0010
,  // measure 43
0100
1000
0001
0100
0010
1000
0001
0100
,  // measure 44
1000
0100
0001
0100
0010
1000
0100
0001
,  // measure 45
0100
1000
0010
0001
0010
1000
0100
0010
,  // measure 46
0100
1000
0001
0100
0001
0010
0001
1000
,  // measure 47
0100
1000
0001
0100
0001
0100
0110
0010
,  // measure 48
1000
0010
1000
0100
0010
0001
0200
0000
,  // measure 49
0310
1000
0002
0000
1003
0100
2000
0000
,  // measure 50
3001
0100
0001
0010
0001
0100
0010
0000
,  // measure 51
1000
0100
1000
0000
0001
0100
0001
0000
,  // measure 52
1000
0010
0100
0001
,  // measure 53
0001
0001
0001
1000
,  // measure 54
1000
0000
1000
0000
1000
0000
0001
0100
,  // measure 55
0010
0000
1000
0100
1000
0000
1001
0000
,  // measure 56
0001
0000
0000
0000
0100
0000
0000
0000
0010
0000
1000
0010
1000
0000
0001
0000
,  // measure 57
0100
0000
0010
1000
0010
0000
1000
0000
0100
0000
0010
0001
0010
0000
0100
0000
,  // measure 58
1100
0000
0000
0000
0011
0000
0000
0000
1000
0000
0001
0100
0001
0000
1000
0000
,  // measure 59
1010
0000
0000
0000
0110
0000
0000
0000
0001
0000
1000
0010
1000
0000
0001
0000
,  // measure 60
0020
0000
0000
0000
0230
0000
0000
0000
0310
0000
0001
1000
0010
0000
0100
0000
,  // measure 61
0001
0000
1000
0100
0010
0000
0001
0000
0100
0000
0010
1000
0010
0000
0100
0000
,  // measure 62
0101
0000
0011
0000
1001
0000
1000
0100
,  // measure 63
1000
0000
0110
0000
0001
0100
0001
0010
,  // measure 64
0002
0000
0000
0000
1003
0000
0000
0000
1001
0000
0001
0100
0001
0000
1000
0000
,  // measure 65
0100
0000
0010
0001
0010
0000
0100
0000
1000
0000
0001
0100
0001
0000
1000
0000
,  // measure 66
1100
0000
0110
0000
0001
0100
0001
0010
,  // measure 67
0011
0000
0110
0000
0100
1000
0001
0100
,  // measure 68
0010
0000
1000
0000
1000
0000
0010
1000
0100
0000
0010
0000
0001
0000
1000
0010
,  // measure 69
1000
0000
0001
0000
0100
0000
0010
1000
0010
0000
0100
0000
0001
0000
1000
0000
,  // measure 70
1100
0000
0011
0000
1001
1000
0001
0100
,  // measure 71
0010
0000
1000
0000
1010
1000
0001
0100
,  // measure 72
0010
1000
0001
0001
1000
0000
0000
0000
;
