#TITLE:Miles;
#SUBTITLE:;
#ARTIST:Electronic Boutique;
#TITLETRANSLIT:;
#SUBTITLETRANSLIT:;
#ARTISTTRANSLIT:;
#CREDIT:;
#BANNER:Miles BN.png;
#BACKGROUND:Miles BG.png;
#LYRICSPATH:;
#CDTITLE:;
#MUSIC:Miles.ogg;
#OFFSET:0.440;
#SAMPLESTART:29.100;
#SAMPLELENGTH:15.000;
#SELECTABLE:YES;
#BPMS:0.000=130.000;
#STOPS:;
#BGCHANGES:1.000=Miles.avi=1.000=1=1=0,
99999=-nosongbg-=1.000=0=0=0 // don't automatically add -songbackground-
;

//---------------dance-single - ----------------
#NOTES:
     dance-single:
     :
     Hard:
     13:
     0.468,0.571,0.024,0.627,0.250:
0000
0000
0000
0000
,
0000
0000
0000
0000
,
0000
0000
0000
0000
,
0000
0000
0000
0000
,
0000
1000
0010
1000
,
0010
0000
0100
0000
0001
0000
1000
0100
,
0010
0001
0010
0000
1000
0000
0010
0000
,
0001
0100
0001
0000
1000
0000
0001
0000
,
1000
0001
1000
0001
2000
0000
0000
0000
0000
0000
0000
0000
0010
0000
0000
0000
,
0010
0000
3001
0000
0010
0000
0001
0010
,
0100
1000
0100
0000
0001
0000
0100
0000
,
2010
0000
0001
0001
,
3001
1000
0100
0010
,
0100
0000
0010
0000
0100
0000
1000
0100
,
0010
0001
0100
0000
0010
0000
0001
0000
,
0100
0002
0000
0000
1000
0000
1003
0000
,
1000
0010
1000
0010
2000
0000
0000
0000
0000
0000
0000
0000
0000
0000
0000
0000
,
0000
0000
3001
1000
0002
0000
0000
0000
0000
0000
0000
0000
0023
0000
0230
0000
,
2300
3200
0320
0000
0000
0032
0000
0000
,
2000
0000
0000
3003
,
1000
0100
1000
0100
2000
0000
0000
0000
0000
0000
0000
0000
0000
0000
0000
0000
,
0000
0000
3001
0100
0002
0000
0000
0000
0000
0000
0000
0000
0203
0000
2300
0000
,
3200
0320
0032
0000
0000
2003
0000
0000
,
0002
0000
0000
0000
,
3003
0000
0000
0000
1000
0000
0000
0010
0000
0000
1000
0000
0000
0000
0020
0000
,
0000
0000
0000
0000
1030
0000
0000
0001
0000
0000
1000
0000
0000
0000
0002
0000
,
0000
0000
0203
0000
0000
0302
0000
0000
,
0000
0000
0000
0000
0100
0000
0000
0100
0000
0000
0100
0000
0000
0000
0200
0000
,
0000
0000
0303
0000
0001
0000
0000
0001
0000
0000
0001
0000
0000
0000
0002
0000
,
0000
0000
0000
0000
1003
0000
0000
1000
0000
0000
1000
0000
0000
0000
2000
0000
,
0000
0000
3002
0000
0000
0203
0000
0000
,
0000
0000
0000
0000
0010
0000
0000
0010
0000
0000
0020
0000
0000
0000
0330
0000
,
1000
0010
1000
0010
2000
0000
0000
0000
3001
0000
0010
0000
0200
0000
0000
0000
,
0000
0000
0301
0100
0001
0000
0010
0000
0100
0000
0001
1000
0000
0000
0010
0000
,
1000
0000
0001
0000
0100
0001
0100
0001
0100
0000
0010
0000
1000
0000
0001
0000
,
0100
0000
0010
0000
0100
0000
0000
0001
0000
0000
0100
0000
0000
0000
0001
0000
,
0100
0001
0100
0001
0200
0000
0000
0000
0301
0000
1000
0000
0002
0000
0000
0000
,
0000
0000
1003
0010
1000
0000
0100
0000
0001
0000
0100
0001
0000
0000
0100
0000
,
0010
0000
1000
0000
0001
0100
0001
0100
0001
0000
0100
0000
0010
0000
1000
0000
,
0010
0000
0100
0010
0100
0000
0001
0000
0100
0000
0010
0000
0000
1000
0000
0010
,
0000
0001
1000
0001
1000
0000
1000
0000
0010
0000
0001
0000
0010
0000
1000
0000
,
0010
0001
0010
1000
0010
0001
0010
1000
,
0010
0000
0001
0010
0002
0000
1003
0001
2000
0000
3010
0001
0020
0000
0130
0001
,
0200
0001
1000
0001
,
0310
0000
0000
0000
1000
0010
1000
0000
1000
0000
0001
0000
0100
0001
0100
0000
,
0010
0000
0100
0000
0001
0000
1001
0000
0000
1000
0000
0000
1000
0001
1000
0001
,
1000
0000
0100
0000
0010
0000
0000
1000
0010
0000
0000
0010
1000
0000
0000
1000
,
0010
0000
0000
0010
0001
0000
0000
0001
1000
0000
0000
1000
0001
0000
0000
0001
,
0100
0002
1000
0100
,
1003
0001
1000
0001
2000
0000
0000
0000
0010
0000
0000
0000
0100
0000
0000
0000
,
0001
0000
3001
0100
0002
0000
0000
0000
0000
0000
0000
0000
0023
0000
0230
0000
,
2300
3200
0302
0000
0000
2003
0000
0000
,
0020
0000
0000
3030
,
0100
0001
0100
0001
0200
0000
0000
0000
0010
0000
0000
0000
0001
0000
0000
0000
,
0001
0000
0301
1000
0002
0000
0000
0000
0000
0000
0000
0000
2003
0000
3200
0000
,
0320
0032
2003
0000
0000
3002
0000
0000
,
0200
0000
0000
0303
,
0001
0100
0001
0100
0002
0000
0000
0000
1000
0000
0000
0000
0010
0000
0000
0000
,
1000
0000
1003
0010
2000
0000
0000
0000
0000
0000
0000
0000
3020
0000
0032
0000
,
0023
0230
2300
0000
0000
3002
0000
0000
,
0200
0000
0000
0303
,
0010
0001
0010
0001
0020
0000
0000
0000
1000
0000
0000
0000
0001
0000
0000
0000
,
1000
0000
1030
0001
2000
0000
0000
0000
0000
0000
0000
0000
3020
0000
0032
0000
,
0023
0230
2300
0000
0000
3002
0000
0000
,
0200
0000
0000
0303
,
1000
0001
1000
0001
1000
0000
0000
0001
0000
0000
1000
0000
0000
0000
0002
0000
,
0000
0003
2002
0000
,
0000
0000
0000
0000
,
0000
0000
3003
0000
;

//---------------dance-single - ----------------
#NOTES:
     dance-single:
     :
     Medium:
     9:
     0.329,0.353,0.040,0.349,0.036: // measure 1
0000
0000
0000
0000
,  // measure 2
0000
0000
0000
0000
,  // measure 3
0000
0000
0000
0000
,  // measure 4
0000
0000
0000
0000
,  // measure 5
0000
0000
0000
0000
,  // measure 6
0000
0000
0000
0000
0000
0000
1000
0100
,  // measure 7
0010
0001
1000
0000
0001
0000
1000
0000
,  // measure 8
0001
1000
0001
0000
0001
0000
0001
0000
,  // measure 9
1000
0001
1000
0000
0010
0000
1000
0000
,  // measure 10
0001
0000
0100
0000
0001
0000
1000
0100
,  // measure 11
0010
0001
1000
0000
0001
0000
0100
0000
,  // measure 12
0010
0100
0000
0000
0010
0000
1000
0000
,  // measure 13
0001
0100
0001
0100
,  // measure 14
0010
0000
1000
0000
0001
0000
0100
0010
,  // measure 15
0001
0010
0100
0000
0010
0000
1000
0000
,  // measure 16
0001
0100
0000
0000
0001
0000
0100
0000
,  // measure 17
0001
0010
0200
0000
0000
0000
0000
0000
,  // measure 18
0000
0001
0302
0000
0000
0000
1003
0100
,  // measure 19
0010
0001
0020
0000
0000
2030
0000
0000
,  // measure 20
0002
0000
0000
3003
,  // measure 21
0100
0010
0002
0000
0000
0000
0000
0000
,  // measure 22
0000
0100
0203
0000
0000
0000
0301
0010
,  // measure 23
0100
1000
0200
0000
0000
0302
0000
0000
,  // measure 24
2000
0000
0000
3003
,  // measure 25
0000
0000
0000
0000
1000
0000
0000
0001
0000
0000
1000
0000
0000
0000
0002
0000
,  // measure 26
0000
0000
0000
0000
1003
0000
0000
0010
0000
0000
1000
0000
0000
0000
0020
0000
,  // measure 27
0000
0000
0230
0000
0000
0302
0000
0000
,  // measure 28
0000
0000
0000
0000
0103
0000
0000
0001
0000
0000
0100
0000
0000
0000
0200
0000
,  // measure 29
0000
0000
0000
0000
0301
0000
0000
1000
0000
0000
0001
0000
0000
0000
0002
0000
,  // measure 30
0000
0000
0000
0000
1003
0000
0000
0010
0000
0000
1000
0000
0000
0000
0020
0000
,  // measure 31
0000
0000
2030
0000
0000
3002
0000
0000
,  // measure 32
0000
0000
0000
0000
0103
0000
0000
0100
0000
0000
0100
0000
0000
0000
0000
0000
,  // measure 33
0010
0100
1000
0000
0100
0010
0001
0000
,  // measure 34
1000
0010
1000
0000
0010
0001
0010
0000
,  // measure 35
0100
0000
0100
0010
0001
0000
0001
0000
,  // measure 36
1000
0001
1000
0000
0100
0000
0001
0000
,  // measure 37
0001
0010
0100
0000
0001
1000
0001
0000
,  // measure 38
0100
0010
0100
0000
0001
0100
0001
0000
,  // measure 39
1000
0010
1000
0000
0100
0010
0001
0000
,  // measure 40
1000
0001
1000
0000
0100
0001
0100
0000
,  // measure 41
0000
0000
1000
0100
0010
0000
0001
0010
,  // measure 42
0100
0000
1000
0100
0001
0000
1000
0010
,  // measure 43
1000
0001
0100
0001
,  // measure 44
1000
0010
1000
0001
,  // measure 45
0100
0000
1000
0100
0010
0000
0001
0010
,  // measure 46
0100
0000
0000
0000
0000
0000
1001
0000
0000
1000
0000
0000
1010
0000
0000
0000
,  // measure 47
0010
0100
0010
0000
0100
0001
0100
0000
,  // measure 48
0001
0000
0010
0000
0100
0000
0000
0100
0000
0000
0100
0000
0000
0000
0002
0000
,  // measure 49
0000
0003
2002
0000
0000
0000
3003
0000
,  // measure 50
1000
0100
0020
0000
0000
0000
0000
0000
,  // measure 51
0000
0001
0032
0000
0000
0000
1003
0100
,  // measure 52
0010
0001
0020
0000
0000
2030
0000
0000
,  // measure 53
0002
0000
0000
3003
,  // measure 54
0001
0010
0200
0000
0000
0000
0000
0000
,  // measure 55
0000
0010
0320
0000
0000
0000
0031
0010
,  // measure 56
0100
1000
0200
0000
0000
0302
0000
0000
,  // measure 57
2000
0000
0000
3003
,  // measure 58
1000
0100
0020
0000
0000
0000
0000
0000
,  // measure 59
0000
0001
0032
0000
0000
0000
0013
0100
,  // measure 60
1000
0100
0020
0000
0000
2030
0000
0000
,  // measure 61
0002
0000
0000
3003
,  // measure 62
0100
0010
0002
0000
0000
0000
0000
0000
,  // measure 63
0000
1000
2003
0000
0000
0000
3001
0010
,  // measure 64
0100
1000
0200
0000
0000
0302
0000
0000
,  // measure 65
2000
0000
0000
0000
,  // measure 66
3003
0000
0000
0000
0100
0000
0000
0010
0000
0000
0100
0000
0000
0000
0110
0000
,  // measure 67
0000
0000
2002
0000
,  // measure 68
0000
0000
0000
0000
,  // measure 69
0000
0000
3003
0000
;

//---------------dance-single - ----------------
#NOTES:
     dance-single:
     :
     Easy:
     5:
     0.243,0.244,0.079,0.127,0.000:
0000
0000
0000
0000
,
0000
0000
0000
0000
,
0000
0000
0000
0000
,
0000
0000
0000
0000
,
0000
1000
0000
0001
,
0000
1000
0000
0001
,
0000
1000
0000
0001
,
0000
1000
1000
1000
,
0000
0001
0000
0001
,
0000
0001
0001
0001
,
0000
1000
0000
1000
,
0000
1000
1000
1000
,
0000
0010
0000
0010
,
0000
0010
0010
0010
,
0000
0100
0000
0100
,
0000
0100
0100
0100
,
0000
1000
0010
1000
,
0001
1000
0001
1000
,
0010
0000
2000
0000
0000
0010
0000
0000
,
0020
0000
0000
0000
,
3030
0001
0100
0001
,
1000
0001
0100
0001
,
0100
0000
0002
0000
0000
0100
0000
0000
,
0200
0000
0000
0000
,
0303
1000
0001
1001
,
0000
0100
0010
0110
,
0000
0001
0100
0101
,
0000
1000
0010
1010
,
0000
0001
0100
0101
,
0000
0010
0100
0110
,
0000
1000
0010
1010
,
0000
0001
0100
0101
,
0000
0100
0010
0100
,
0001
1000
0001
0100
,
0010
0100
0001
1000
,
0001
0010
0100
0010
,
0001
1000
0001
0010
,
0100
0010
0001
1000
,
0001
0010
0100
0010
,
0001
1000
0001
0100
,
0010
0100
0001
0010
,
0100
1000
0100
0010
,
0001
0010
0100
1000
,
0100
0010
0001
0010
,
0100
1000
0100
0010
,
0001
0010
0100
1000
,
0100
0010
0001
0010
,
0100
1000
0100
0010
,
0001
2002
0000
0000
,
3003
1000
0001
1000
,
0001
0100
0001
0100
,
1000
0000
0200
0000
0000
0001
0000
0000
,
0002
0000
0000
0000
,
0303
1000
0001
1000
,
0010
1000
0100
1000
,
0001
0000
0002
0000
0000
1000
0000
0000
,
2000
0000
0000
0000
,
3003
0001
0100
0001
,
0100
1000
0100
1000
,
0001
0000
0020
0000
0000
1000
0000
0000
,
2000
0000
0000
0000
,
3030
1000
0001
1000
,
0001
1000
0010
1000
,
0010
0000
2000
0000
0000
0010
0000
0000
,
0020
0000
0000
0000
,
3030
0000
1000
0000
0001
0000
0000
1000
,
0000
0000
0220
0000
,
0000
0000
0000
0000
,
0000
0330
0000
0000
;

//---------------dance-single - Copied from----------------
#NOTES:
     dance-single:
     Copied from:
     Beginner:
     3:
     0.135,0.158,0.056,0.000,0.000:
0000
0000
0000
0000
,
0000
0000
0000
0000
,
0000
0000
0000
0000
,
0000
0000
0000
0000
,
0000
0010
0000
0000
,
0000
0010
0000
0000
,
0000
0010
0000
0000
,
0000
0010
0000
0000
,
0000
1000
0000
0000
,
1000
0000
0000
1000
,
0000
0000
1000
0000
,
0000
1000
0000
0000
,
0000
0001
0000
0000
,
0001
0000
0000
0001
,
0000
0000
0001
0000
,
0000
0001
0000
0000
,
0000
1000
0000
0000
,
0000
0001
0000
1000
,
0000
0001
0000
1000
,
0000
0001
0000
0000
,
0000
1000
0000
1000
,
0000
1000
0000
1000
,
0000
1000
0000
1000
,
0000
1000
0000
0000
,
0000
0000
1000
0000
0000
0000
0000
1001
,
0000
0000
0001
0000
0000
0000
0000
1001
,
0000
1000
0000
1000
,
0000
0000
1000
0000
0000
0000
0000
1001
,
0000
0000
0001
0000
0000
0000
0000
1001
,
0000
0000
1000
0000
0000
0000
0000
1001
,
0000
0001
0000
0001
,
0000
0000
0001
0000
0000
0000
0000
1001
,
0000
1000
0000
1000
,
0000
1000
0000
0001
,
0000
0001
0000
0001
,
0000
1000
0000
1000
,
0000
1000
0000
0001
,
0000
0001
0000
0001
,
0000
1000
0000
1000
,
0000
1000
0000
0001
,
0000
0100
0000
0100
,
0000
0100
0000
0010
,
0000
0010
0000
0010
,
0000
0100
0000
0100
,
0000
0100
0000
0010
,
0000
0010
0000
0010
,
0000
0100
0000
0100
,
0000
0100
0000
0010
,
0000
0010
0000
0010
,
0000
1000
0000
1000
,
0000
1000
0000
0001
,
0000
0001
0000
0001
,
0000
1000
0000
1000
,
0000
1000
0000
0001
,
0000
0001
0000
0001
,
0000
1000
0000
1000
,
0000
1000
0000
0001
,
0000
0001
0000
1000
,
0000
1000
0000
0010
,
0000
0010
0000
0010
,
0000
0100
0000
0100
,
0000
0100
0000
0010
,
0000
0010
0000
0010
,
0000
1000
0000
1000
,
0000
1000
0000
0001
,
0000
0100
0000
0100
,
0000
0000
1001
0000
;
