#TITLE:Midsummer Madness;
#SUBTITLE:;
#ARTIST:Hommarju;
#TITLETRANSLIT:;
#SUBTITLETRANSLIT:;
#ARTISTTRANSLIT:;
#GENRE:;
#CREDIT:;
#BANNER:Midsummer Madness.png;
#BACKGROUND:Midsummer Madness-bg.png;
#LYRICSPATH:;
#CDTITLE:;
#MUSIC:Midsummer Madness.ogg;
#OFFSET:1.197000;
#SAMPLESTART:28.823000;
#SAMPLELENGTH:14.980000;
#LASTBEATHINT:0.656667;
#SELECTABLE:YES;
#BPMS:0.000000=200.000000
;
#STOPS:246.500000=0.299995,
249.500000=0.300003
;
#BGCHANGES:;
#KEYSOUNDS:;
#ATTACKS:;

//---------------dance-single - ----------------
#NOTES:
     dance-single:
     vonafroa:
     Challenge:
     16:
     0.856625,1.034503,0.350715,0.384931,0.474749,701.000000,660.000000,41.000000,45.000000,0.000000,0.000000,0.856625,1.034503,0.350715,0.384931,0.474749,701.000000,660.000000,41.000000,45.000000,0.000000,0.000000:
0000
0000
0000
0000
,
0000
0000
0000
0000
,
0000
0000
0000
0000
,
0000
0000
0000
0000
,
0000
0000
0000
0000
,
1000
0100
0010
0001
1000
0010
0100
0001
,
0010
0001
0100
1000
0100
0001
1000
0100
,
0010
1000
0010
0001
0100
1000
0100
0001
,
0010
0100
1000
0010
0100
0010
1000
0001
,
0200
0000
0000
0000
,
0000
0000
0000
0000
,
0000
0000
0000
0000
,
0000
0000
0000
0000
,
0301
0010
0001
0000
0100
0000
0010
0000
1000
0100
1000
0000
0010
0000
0100
0000
,
0001
0010
0001
0000
0100
0000
0010
0000
1000
0000
0100
0000
0010
0000
0001
0000
,
1000
0010
1000
0000
0100
0000
0010
0000
0001
0100
0001
0000
0010
0000
0100
0000
,
1000
0010
1000
0000
0100
0000
0010
0000
0001
0000
0100
0000
0010
0000
1000
0000
,
0001
0100
0001
0000
0010
0000
0100
0000
1000
0010
1000
0000
0100
0000
0010
0000
,
0001
0100
0001
0000
0010
0000
0100
0000
1000
0000
0010
0000
0100
0000
0001
0000
,
1000
0100
1000
0000
0010
0000
0100
0000
0001
0010
0001
0000
0100
0000
0010
0000
,
1000
0001
1000
0000
0100
0000
0010
0000
0001
0000
0001
0000
1000
0000
1000
0000
,
1010
0000
0000
0011
0000
0000
0101
0000
0000
1100
0000
0000
1000
0000
0100
0000
,
1100
0000
0000
0101
0000
0000
0011
0000
0000
1010
0000
0000
1000
0000
0100
0000
,
0011
0000
0000
1010
0000
0000
1100
0000
0000
0101
0000
0000
0001
0000
0100
0000
,
1000
0100
0001
0010
0100
1000
0001
0100
,
0010
1000
0010
0000
0100
0000
0001
0000
0010
0000
0000
0010
0000
0000
0010
0000
,
0100
0000
0010
0001
0100
0000
0010
0000
0100
0000
0001
0000
1000
0000
0100
0000
,
0010
0001
0010
0000
0100
0000
1000
0000
0010
0000
0000
0010
0000
0000
0010
0000
,
0100
0000
0010
1000
0100
0000
0010
0000
0100
0000
1000
0000
0001
0000
0100
0000
,
0010
1000
0001
0000
0010
0000
0001
0000
0100
0000
0000
0100
0000
0000
0100
0000
,
0010
0000
0100
0001
0010
0000
0100
0000
0001
0000
0100
0000
1000
0000
0010
0000
,
0100
0001
1000
0000
0100
0000
0010
0000
0100
1000
0010
0000
0100
0000
0010
0000
,
0100
0001
0010
0000
0100
0000
0010
0000
0001
0000
0001
0000
1000
0000
1000
0000
,
0010
1000
0010
0000
0100
0000
0001
0000
0010
0000
0000
0010
0000
0000
0010
0000
,
0100
0000
0010
0001
0100
0000
0010
0000
0100
0000
0001
0000
1000
0000
0100
0000
,
0010
0001
0010
0000
0100
0000
1000
0000
0010
0000
0000
0010
0000
0000
0010
0000
,
0100
0000
0010
1000
0100
0000
0010
0000
0100
0000
1000
0000
0001
0000
0100
0000
,
0010
1000
0001
0000
0010
0000
0001
0000
0100
0000
0000
0100
0000
0000
0100
0000
,
0010
0000
0100
0001
0010
0000
0100
0000
0001
0000
0100
0000
1000
0000
0010
0000
,
0100
0001
1000
0000
0100
0000
0010
0000
0100
1000
0010
0000
0100
0000
0010
0000
,
2000
3100
0002
0103
2000
3010
0002
0013
,
2000
0000
0000
0000
,
0002
0000
0000
3000
,
0020
0000
0000
0003
,
0032
0013
2000
3010
0002
0103
2000
3100
,
0001
0100
0010
1000
1001
0000
0110
0000
,
1000
0010
0100
0001
1001
0000
0110
0000
,
0010
0100
1000
0100
0010
0000
1000
0001
,
0010
0100
0001
0100
1000
0010
0001
0010
,
1010
0000
0000
0011
0000
0000
0101
0000
0000
1100
0000
0000
1000
0000
0100
0000
,
1100
0000
0000
0101
0000
0000
0011
0000
0000
1010
0000
0000
1000
0000
0010
0000
,
0101
0000
0000
1100
0000
0000
1010
0000
0000
0011
0000
0000
0001
0000
0010
0000
,
0002
0103
2000
3100
0002
0013
2000
3010
,
0100
0002
0000
1000
0000
1000
0000
1000
,
0000
1000
0000
1003
0001
0010
0100
0020
,
0000
0100
0000
0100
0000
0100
0000
0130
,
2000
0000
3010
0000
0002
0000
0013
0000
2000
0000
3100
0000
1000
0000
0001
0100
,
0010
0200
0000
0001
0000
0001
0000
0001
,
0000
0001
0000
0301
1000
0100
0010
0200
,
0000
0010
0000
0010
0000
0010
0000
0310
,
0100
0000
1000
0001
0010
0000
0001
1000
0010
0000
1000
0001
0010
0000
0001
0000
,
1000
0000
0000
0000
0100
0000
0000
0000
0001
0000
0000
0000
1000
0000
0000
0000
0001
0000
0000
0000
0200
0300
0000
0000
1000
0000
0000
0000
0010
0000
0000
0000
,
0001
0000
0000
0000
1000
0000
0000
0000
0001
0000
0000
0000
0020
0030
0000
0000
1000
0000
0000
0000
1000
0000
0000
0000
0010
0000
0000
0000
0010
0000
0000
0000
,
0100
0100
0001
0001
1000
0100
0001
0100
,
1000
0010
1000
0010
0100
0001
0100
0001
0020
0000
0000
0000
0000
0000
0000
0000
,
0000
0000
0032
0000
,
0000
0000
2003
0000
,
0000
0000
3020
0000
,
0000
0000
0000
0000
0130
0001
0010
0200
,
0000
1300
0020
0100
,
0100
0130
0002
1000
,
1000
1003
0200
0010
,
0010
0000
0000
0310
0000
0000
0100
0000
0100
0000
0100
0000
,
1000
0000
0000
0000
1000
0000
0000
0000
1000
0000
0000
0000
0002
0000
0000
0000
0000
0000
0000
0000
0000
0020
0000
0000
,
0000
0000
0000
0000
0033
0000
0000
0000
0100
1000
0001
0000
0100
0000
0010
0000
,
0100
0001
1000
0000
0100
0000
0010
0000
0100
1000
0001
0000
0100
0000
0010
0000
,
1000
0000
0100
0000
0010
0000
0001
0000
0011
0000
0000
1010
0000
0000
1100
0000
,
0000
0101
0000
0000
0100
0000
0001
0000
0101
0000
0000
1100
0000
0000
1010
0000
,
0000
0011
0000
0000
0001
0000
0010
0000
1100
0000
0000
1010
0000
0000
0011
0000
,
0000
0101
0000
0000
0100
0000
0010
0000
2000
0000
3100
0000
0002
0000
0103
0000
,
2000
0000
3010
0000
0002
0000
0013
0000
0100
1000
0100
0000
0010
0000
0001
0000
,
0100
0000
0010
0100
0000
0010
0100
0000
0001
0000
0100
0001
0010
0000
0100
0000
,
0010
0000
0001
0000
1000
0000
0010
0000
0100
0001
0100
0000
0010
0000
1000
0000
,
0100
0000
0010
0100
0000
0010
0100
0000
1000
0000
0100
1000
0010
0000
0100
0000
,
0010
0000
1000
0000
0001
0000
0010
0000
0100
1000
0001
0000
0100
0000
0001
0000
,
0010
0000
0100
0010
0000
0100
0010
0000
0100
0000
0010
0001
0100
0000
0010
0000
,
0001
0000
0010
0000
1000
0000
0100
0000
0010
0001
1000
0000
0010
0000
0100
0000
,
0010
1000
0001
0000
0010
0000
0100
0000
0010
0001
0100
0000
0010
0000
0100
0000
,
0001
1000
0010
0000
1000
0001
0010
0000
0100
1000
0100
0000
0010
0000
0001
0000
,
0100
0000
0010
0100
0000
0010
0100
0000
0001
0000
0100
0001
0010
0000
0100
0000
,
0010
0001
0010
0001
1000
0010
1000
0010
0100
0001
0100
0000
0010
0000
1000
0000
,
0100
0000
0010
0100
0000
0010
0100
0000
1000
0000
0100
1000
0010
0000
0100
0000
,
0010
1000
0010
1000
0001
0010
0001
0010
0100
1000
0001
0000
0100
0000
0001
0000
,
0010
0000
0100
0010
0000
0100
0010
0000
0100
0000
0010
0001
0100
0000
0010
0000
,
0001
0010
0001
0010
1000
0100
1000
0100
0010
0001
1000
0000
0010
0000
0100
0000
,
0010
1000
0001
0000
0010
0000
0100
0000
2000
0000
3100
0000
0002
0000
0103
0000
,
2000
3010
0002
0013
2002
0000
3003
0000
;

//---------------dance-single - ----------------
#NOTES:
     dance-single:
     :
     Hard:
     14:
     0.673324,0.827602,0.342161,0.316499,0.171081,551.000000,511.000000,40.000000,37.000000,0.000000,0.000000,0.673324,0.827602,0.342161,0.316499,0.171081,551.000000,511.000000,40.000000,37.000000,0.000000,0.000000:
// measure 0
0000
0000
0000
0000
,  // measure 1
0000
0000
0000
0000
,  // measure 2
0000
0000
0000
0000
,  // measure 3
0000
0000
0000
0000
,  // measure 4
0000
0000
0000
0000
,  // measure 5
1000
0010
0001
0010
,  // measure 6
1000
0100
0001
0100
,  // measure 7
1000
0010
0100
0001
0010
1000
0010
0001
,  // measure 8
0100
0010
0001
0010
0100
0001
0010
0100
,  // measure 9
2000
0000
0000
0000
,  // measure 10
0000
0000
0000
0000
,  // measure 11
0000
0000
0000
0000
,  // measure 12
0000
0000
0000
0000
,  // measure 13
3001
0001
0100
0000
1000
1000
0100
0000
,  // measure 14
0001
0001
1000
1000
0010
0010
0100
0000
,  // measure 15
1000
1000
0100
0000
0001
0001
0100
0000
,  // measure 16
1000
1000
0001
0001
0010
0010
0100
0000
,  // measure 17
0001
0001
0010
0000
1000
1000
0010
0000
,  // measure 18
0001
0001
1000
1000
0100
0100
0010
0000
,  // measure 19
1000
1000
0010
0000
0001
0001
0010
0000
,  // measure 20
1000
1000
0001
0001
0100
0100
0010
0010
,  // measure 21
1010
0000
0000
0101
0000
0000
1010
0000
0000
0101
0000
0000
0000
0000
0000
0000
,  // measure 22
0011
0000
0000
1100
0000
0000
0011
0000
0000
1100
0000
0000
0000
0000
0000
0000
,  // measure 23
1010
0000
0000
0011
0000
0000
1010
0000
0000
0011
0000
0000
0000
0000
0000
0000
,  // measure 24
0010
0010
0001
0001
0100
0100
0010
0010
,  // measure 25
1000
0000
0100
0000
0001
0000
0100
0000
1000
0000
0000
1000
0000
0000
1000
0000
,  // measure 26
0001
1000
0100
0010
0001
1000
0010
0100
,  // measure 27
0001
0000
0100
0000
1000
0000
0100
0000
0001
0000
0000
0001
0000
0000
0001
0000
,  // measure 28
1000
0001
0100
0010
1000
0001
0010
0100
,  // measure 29
1000
0000
0010
0000
0001
0000
0010
0000
1000
0000
0000
1000
0000
0000
1000
0000
,  // measure 30
0001
1000
0010
0100
0001
1000
0100
0010
,  // measure 31
0001
0100
0001
0000
1000
0100
1000
0000
,  // measure 32
0001
0010
0001
0010
1000
0010
0001
0001
,  // measure 33
1000
0000
0010
0000
0001
0000
0010
0000
1000
0000
0000
1000
0000
0000
1000
0000
,  // measure 34
0001
1000
0010
0100
0001
1000
0100
0010
,  // measure 35
0001
0000
0010
0000
1000
0000
0010
0000
0001
0000
0000
0001
0000
0000
0001
0000
,  // measure 36
1000
0001
0010
0100
1000
0001
0100
0010
,  // measure 37
1000
0000
0100
0000
0001
0000
0100
0000
1000
0000
0000
1000
0000
0000
1000
0000
,  // measure 38
0001
1000
0100
0010
0001
1000
0010
0100
,  // measure 39
0001
0010
0001
0000
1000
0010
1000
0000
,  // measure 40
0001
0100
0001
0100
1000
0100
1000
0100
,  // measure 41
2000
0000
0000
0000
,  // measure 42
0020
0000
0000
3000
,  // measure 43
0200
0000
0000
0030
,  // measure 44
0302
0023
0230
2300
,  // measure 45
3001
0100
0110
1001
,  // measure 46
1000
0100
0110
1001
,  // measure 47
0001
0000
0010
0000
0100
0000
1000
0010
,  // measure 48
0100
0001
0010
0001
1000
0010
0100
0010
,  // measure 49
1010
0000
0000
0101
0000
0000
1010
0000
0000
0101
0000
0000
0000
0000
0000
0000
,  // measure 50
1100
0000
0000
0011
0000
0000
1100
0000
0000
0011
0000
0000
0000
0000
0000
0000
,  // measure 51
1100
0000
0000
0101
0000
0000
1100
0000
0000
0101
0000
0000
0000
0000
0000
0000
,  // measure 52
0002
2003
3020
0230
,  // measure 53
0301
0020
0000
0100
0000
0100
0000
0100
,  // measure 54
0000
0100
0000
0130
1000
1000
0001
0200
,  // measure 55
0000
0010
0000
0010
0000
0010
0000
0310
,  // measure 56
2000
3100
0020
0031
0200
0310
1000
0002
,  // measure 57
0000
1000
0000
1000
0000
1000
0000
1000
,  // measure 58
0000
1000
0000
1003
0100
0001
0100
2000
,  // measure 59
0000
0001
0000
0001
0000
0001
0000
3001
,  // measure 60
0100
0001
0010
0000
0100
1000
0010
0000
,  // measure 61
1000
0000
0000
0000
0000
0000
0000
0000
0001
0000
0000
0000
1000
0000
0000
0000
0010
0000
0000
0000
0200
0300
0000
0000
0001
0000
0000
0000
0000
0000
0000
0000
,  // measure 62
1000
0000
0000
0000
0001
0000
0000
0000
0010
0000
0000
0000
0200
0300
0000
0000
1000
0000
0000
0000
0000
0000
0000
0000
0001
0000
0000
0000
1000
0000
0000
0000
,  // measure 63
0010
0100
0000
0000
1000
0100
0001
0010
,  // measure 64
1000
0010
0001
0100
0020
0000
0000
0000
,  // measure 65
0000
0000
2030
0000
,  // measure 66
0000
0000
3002
0000
,  // measure 67
0000
0000
0023
0000
,  // measure 68
0000
0000
0230
0000
0310
0000
0001
0200
,  // measure 69
0000
1300
0200
0000
,  // measure 70
0000
0301
2000
0000
,  // measure 71
0000
3100
0200
0000
,  // measure 72
2300
0000
3020
0000
,  // measure 73
0000
0000
0000
0000
,  // measure 74
0000
0000
0030
0000
0100
0001
0010
1000
,  // measure 75
0010
0000
0001
0000
0100
0000
1000
0000
0100
0001
1000
0000
0100
0000
0010
0000
,  // measure 76
1000
0000
0010
0000
0001
0000
0100
0000
0101
0000
0000
1010
0000
0000
0101
0000
,  // measure 77
0000
1010
0000
0000
0000
0000
0000
0000
1100
0000
0000
0011
0000
0000
1100
0000
,  // measure 78
0000
0011
0000
0000
0000
0000
0000
0000
1010
0000
0000
0011
0000
0000
1010
0000
,  // measure 79
0000
0011
0000
0000
0000
0000
0000
0000
0200
0000
0000
0000
0302
0000
0000
0000
,  // measure 80
0023
0000
0230
0000
1300
0100
0001
0100
,  // measure 81
1000
0000
0010
1000
0000
0010
1000
0000
0001
0000
1000
0000
0100
0000
0010
0000
,  // measure 82
0001
1000
0010
0100
0001
0100
1000
0100
,  // measure 83
0001
0000
0100
0001
0000
0100
0001
0000
1000
0000
0001
0000
0100
0000
0010
0000
,  // measure 84
1000
0001
0010
0100
1000
0010
0001
0010
,  // measure 85
1000
0000
0010
1000
0000
0010
1000
0000
0001
0000
1000
0000
0010
0000
0100
0000
,  // measure 86
0001
1000
0100
0010
0001
0100
0001
0100
,  // measure 87
1000
0100
1000
0100
0001
0010
0001
0010
,  // measure 88
1000
0010
0001
0001
1000
0010
0001
0010
,  // measure 89
1000
0000
0100
1000
0000
0100
1000
0000
0001
0000
1000
0010
0100
0000
0100
0000
,  // measure 90
0001
1000
0100
0010
0001
0010
1000
0010
,  // measure 91
0001
0000
0100
0001
0000
0100
0001
0000
1000
0000
0001
0010
0100
0000
0100
0000
,  // measure 92
1000
0001
0100
0010
1000
0100
0001
0100
,  // measure 93
1000
0000
0010
1000
0000
0010
1000
0000
0001
0000
1000
0100
0010
0000
0010
0000
,  // measure 94
0001
1000
0010
0100
0001
0010
0001
0000
,  // measure 95
1000
0010
1000
0000
0001
0100
0001
0100
,  // measure 96
1000
0100
1000
0100
0002
0000
0003
0000
;
