#TITLE:Miaow (Sistema 3 Version);
#SUBTITLE:;
#ARTIST:The Cat '99;
#TITLETRANSLIT:;
#SUBTITLETRANSLIT:;
#ARTISTTRANSLIT:;
#GENRE:;
#CREDIT:;
#MUSIC:Miaow (Sistema 3 Version).ogg;
#BANNER:Miaow (Sistema 3 Version).png;
#BACKGROUND:Miaow (Sistema 3 Version)-bg.png;
#CDTITLE:cdtitle.png;
#SAMPLESTART:69.434;
#SAMPLELENGTH:15.000;
#SELECTABLE:YES;
#OFFSET:1.440;
#BPMS:0.000=165.927
,132.000=82.963
,156.000=165.927
,168.000=82.963
,170.000=165.927
;
#STOPS:;
#LASTBEATHINT:1.216798;
#BGCHANGES:4.000=Miaow (Sistema 3 Version).avi=1.000=0=0=1,
99999.000=-nosongbg-=1.000=0=0=0=StretchNoLoop====
;
#FGCHANGES:;

//--------------- dance-single - RaverAce ----------------
#NOTES:
     dance-single:
     RaverAce:
     Beginner:
     5:
     0.128507,0.216454,0.067466,0,0,120,111,9,0,0,0,0.128507,0.216454,0.067466,0,0,120,111,9,0,0,0:
0000
0000
0000
0000
,
0000
0000
0000
0000
,
0000
0000
0000
0000
,
0000
0000
0000
0000
,
0000
0000
0000
0000
,
0000
0000
0000
0000
,
0000
0000
0000
0000
,
0000
0000
0000
0000
,
0000
0000
0000
0000
,
0100
0000
0000
0000
,
0000
0000
0000
0000
,
0100
0000
0000
0000
,
0000
0000
0000
0000
,
0100
0000
0000
0000
,
0010
0000
0000
0000
,
0001
0000
1000
0000
,
1001
0000
0000
0000
,
1000
0000
0000
0000
,
1000
0000
0000
0000
,
1000
0000
0000
0000
,
1000
0000
0000
0000
,
0001
0000
0000
0000
,
0001
0000
0000
0000
,
0001
0000
0000
0000
,
0001
0000
0000
0000
,
1001
0000
0000
0000
,
0100
0000
0000
0000
,
0010
0000
0000
0000
,
0100
0000
0000
0000
,
1000
0000
0000
0000
,
0001
0000
0000
0000
,
1000
0000
0000
0000
,
1001
0000
0000
0000
,
0010
0000
0000
0000
,
0000
0000
0000
0000
,
0100
0000
0000
0000
,
0000
0000
0000
0000
,
1001
0000
0000
0000
,
1001
0000
0000
0000
,
0100
0000
0000
0000
,
0100
0000
0000
0000
,
0100
0000
0000
0000
,
1001
0000
1001
0000
,
0001
0000
1000
0000
,
0001
0000
0100
0000
,
0010
0000
0100
0000
,
0010
0000
1000
0000
,
0010
0000
0100
0000
,
0001
0000
1000
0000
,
0100
0000
0010
0000
,
0001
0000
1000
0000
,
1000
0000
0001
0000
,
1000
0000
0100
0000
,
0010
0000
0100
0000
,
0010
0000
0001
0000
,
0010
0000
0100
0000
,
1000
0000
0001
0000
,
0100
0000
0010
0000
,
1000
0000
1001
0000
,
0001
0000
0010
0000
,
0100
0000
1000
0000
,
0001
0000
0010
0000
,
0100
0000
1000
0000
,
0010
0000
0100
0000
,
0001
0000
1000
0000
,
0010
0000
0100
0000
,
0001
0000
1000
0000
,
1000
0000
0010
0000
,
0100
0000
0001
0000
,
1000
0000
0010
0000
,
0100
0000
0001
0000
,
0010
0000
0100
0000
,
1000
0000
0001
0000
,
0010
0000
0100
0000
,
1000
0000
0001
0000
,
0001
0000
0001
0000
,
0001
0000
1000
0000
,
1000
0000
1000
0000
,
1000
0000
0001
0000
,
0001
0000
0001
0000
,
0001
0000
1000
0000
,
0001
0000
1001
0000
,
0000
0000
1000
0000
;

//--------------- dance-single - RaverAce ----------------
#NOTES:
     dance-single:
     RaverAce:
     Easy:
     8:
     0.262369,0.438156,0.17991,0.112444,0,245,221,24,15,0,0,0.262369,0.438156,0.17991,0.112444,0,245,221,24,15,0,0:
0000
0000
0000
0000
,
0000
0000
0000
0000
,
0000
0000
0000
0000
,
0000
0000
0000
0000
,
0000
0000
0000
0000
,
0000
0000
0000
0000
,
0000
0000
0000
0000
,
0000
0000
0000
0000
,
0000
0000
0000
0000
,
1001
0000
0000
0000
,
0000
0000
0000
0000
,
1001
0000
0000
0000
,
0000
0000
0000
0000
,
1001
0000
0000
0000
,
1001
0000
0000
0000
,
0010
0000
0100
0000
,
0220
0000
0330
0000
,
1000
0000
0100
0000
,
1000
0000
0100
0000
,
0010
0000
0001
0000
,
0010
0000
0001
0000
,
0100
0000
0010
0000
,
1000
0000
0010
0000
,
0100
0000
0001
0000
,
0022
0000
0000
0033
,
1100
0000
1000
0000
,
0100
0000
0001
0000
,
0100
0000
1000
0000
,
0010
0000
0100
0000
,
0001
0000
0100
0000
,
1000
0000
0100
0000
,
0001
0000
0010
0000
,
0220
0000
0000
0330
,
1000
0100
1000
0100
,
0010
0001
0010
0001
,
0100
0001
0100
0001
,
1000
0010
1000
0010
,
0110
0100
0010
0100
,
1001
0001
1000
0001
,
1001
1000
0001
0100
,
0110
0010
1000
0010
,
0110
0100
0110
0010
,
2002
3003
1000
0001
,
1000
0000
0001
1000
,
0001
0000
0100
0010
,
0100
0000
0010
0100
,
0010
0000
1000
0010
,
1000
0000
0001
0100
,
0001
0000
1000
0100
,
1000
0000
0010
0001
,
1000
1000
0001
1000
,
0001
0000
1000
0001
,
1000
0000
0010
0100
,
0010
0000
0100
0010
,
0100
0000
0001
0100
,
0001
0000
1000
0010
,
1000
0000
0001
0010
,
0001
1000
2100
0000
,
0001
3001
0011
0010
,
0100
1000
0100
0001
,
0100
1000
0010
0100
,
0001
1000
0001
0010
,
0100
1000
0001
0100
,
1000
0100
0001
0010
,
0100
1000
0010
0100
,
0001
1000
1001
1001
,
1001
1001
1010
0010
,
0100
0001
0100
1000
,
0100
0001
0010
0100
,
1000
0001
1000
0010
,
0100
0001
1000
0100
,
0001
0100
1000
0010
,
0100
0001
0010
0100
,
1000
0001
2000
0001
,
0001
3001
1001
0001
,
0010
1000
0010
0001
,
1000
0010
0100
0010
,
1000
0010
0100
0001
,
1000
0100
0010
0100
,
1000
0001
0010
0100
,
1000
0001
0100
1000
,
0100
0001
0021
0230
,
2300
3002
0200
0000
,
0000
0000
0303
0000
;

//--------------- dance-single - RaverAce ----------------
#NOTES:
     dance-single:
     RaverAce:
     Medium:
     12:
     0.501178,1.001499,0.224888,0.562219,0.142429,468,438,30,75,0,0,0.501178,1.001499,0.224888,0.562219,0.142429,468,438,30,75,0,0:
0000
0000
0000
0000
,
0000
0000
0000
0000
,
0000
0000
0000
0000
,
0000
0000
0000
0000
,
0000
0000
0000
0000
,
0000
0000
0000
0000
,
0000
0000
0000
0000
,
0000
0000
0000
0000
,
0000
0000
0000
0000
,
1001
0000
0100
0000
,
0100
0000
0100
0000
,
1001
0000
0010
0000
,
0010
0000
0010
0000
,
1010
0000
0010
0000
,
0110
0000
0100
0000
,
0101
0000
1001
0000
,
2100
0000
0000
0000
3001
1000
0001
1000
,
0001
0000
0100
0000
0010
0000
0100
0001
,
0100
0000
0010
0000
0100
0000
0001
0010
,
0001
0000
0010
0000
0100
0000
1000
0100
,
1000
0000
0010
0000
0100
0000
1000
0010
,
1000
0010
0001
0010
,
1000
0100
0001
0100
,
1000
0000
0001
0000
0100
0000
0010
0100
,
0002
0000
0000
0000
1003
0001
1000
0001
,
0101
0000
0100
0000
0010
0100
0010
0000
,
0100
0001
1000
0000
0100
0010
0100
0000
,
1100
0000
0100
0000
0010
0100
0010
0000
,
0100
1000
0001
0000
0100
0010
0100
0000
,
0001
0100
0010
0000
1000
0010
0100
0000
,
0010
0100
0001
0000
1000
0100
0010
0000
,
0100
1000
0001
0000
1000
0010
0100
0000
,
1002
0023
0230
2300
,
3001
1000
0001
1000
0002
0000
1003
0001
2000
0000
3001
1000
0001
2000
0000
3001
,
0200
0000
0310
2000
0000
3010
0100
0001
2000
0000
3100
0020
0000
0130
1000
0001
,
0100
0010
0100
0010
0200
0000
0310
0100
0020
0000
0130
0010
0100
0020
0000
0130
,
2000
3000
0001
2000
0000
3010
0100
0001
0020
0000
0130
0020
0000
0031
1000
0010
,
0110
0100
0010
0100
0020
0000
0130
0010
0100
0010
0100
0010
0200
0000
0301
1000
,
1001
0001
1000
0001
2000
0000
3001
1000
0001
1000
0001
1000
0002
0000
1003
0001
,
1001
1100
1001
0101
,
1001
1010
1001
0011
,
1001
0001
0100
0010
1000
0100
0010
0001
,
1002
0000
0000
0000
0000
1003
0100
0010
0001
0000
0010
0000
0100
0000
0010
0000
,
0001
0000
0001
0010
1000
0000
1000
0010
,
0001
2000
0000
3001
0200
0000
1300
0200
,
0000
0301
0010
0100
0020
0000
0130
2000
,
0000
3001
1000
0001
0100
0010
1000
0010
,
0200
0000
0301
1000
0200
0000
0301
0010
,
0100
2000
0000
3001
0200
0000
1300
0200
,
0000
0301
0010
0100
2000
0000
3001
0200
,
0000
0310
1000
0001
1000
0010
0100
0010
,
1000
0000
1000
0010
0001
0000
0001
0010
,
1000
0002
0000
1003
0200
0000
0301
0200
,
0000
1300
0010
0100
0020
0000
0130
0002
,
0000
1003
0001
1000
0100
0010
0001
0010
,
0200
0000
1300
0001
0200
0000
1300
0010
,
0100
0002
0000
1003
0200
0000
0301
0200
,
0000
1300
0010
0100
0002
0000
0023
0000
,
0230
0000
1300
0000
1001
0000
0001
1000
,
0100
0000
1000
0001
0100
0010
1000
0020
,
0000
0130
0001
1000
0200
0000
0301
0200
,
0000
1300
0010
0100
0002
0000
1003
0001
,
0010
0000
0011
0000
0110
0000
0100
1000
,
0001
0000
0100
0001
1000
0100
0010
0002
,
0000
0013
1000
0010
0002
0000
1003
0020
,
0000
0130
0001
0010
0200
0000
2300
0000
,
3002
0000
0103
0000
1001
0000
1000
0001
,
0100
0000
0001
1000
0100
0010
0001
0020
,
0000
0130
1000
0001
0200
0000
1300
0200
,
0000
0301
0010
0100
2000
0000
3001
1000
,
0010
0000
1010
0000
0110
0000
0100
0001
,
1000
0000
0100
1000
0001
0100
0010
2000
,
0000
3010
0001
0010
2000
0000
3001
0020
,
0000
0130
1000
0010
2000
0000
3002
0000
,
0023
0000
0130
0000
0110
0010
0001
0000
,
0001
1000
0010
0000
0010
1000
0001
0000
,
0001
1000
0001
0000
0100
0010
1000
0000
,
1000
0001
0010
0000
0010
0001
1000
0000
,
1000
0001
1000
0000
0001
0100
0010
0000
,
1000
0100
0010
0000
0001
0010
0100
0000
,
1000
0010
0100
0000
0001
1000
0100
0000
,
1000
0001
0100
0000
2001
0000
3002
0000
,
0203
0320
2000
0000
,
0000
0000
3030
0000
;

//--------------- dance-single - RaverAce ----------------
#NOTES:
     dance-single:
     RaverAce:
     Hard:
     14:
     0.721782,1.001499,0.412294,0.47976,0.446027,674,619,55,64,0,0,0.721782,1.001499,0.412294,0.47976,0.446027,674,619,55,64,0,0:
0000
0000
0000
0000
,
0000
0000
0000
0000
,
0000
0000
0000
0000
,
0000
0000
0000
0000
,
0000
0000
0000
0000
,
0000
0000
0000
0000
,
0000
0000
0000
0000
,
0000
0000
0000
0000
,
0000
0000
0000
0000
,
1000
0001
1000
0000
0001
0000
0000
0000
1000
0000
0001
0000
0100
0000
0000
0000
,
0010
0000
1000
0000
0001
0000
1000
0200
0000
0000
0320
0000
0000
0000
0031
1000
,
0010
0100
0010
0000
0100
0000
0000
0000
0010
0000
1000
0000
0001
0000
0000
0000
,
0001
0000
0100
0000
1000
0000
0100
0002
0000
0000
2003
0000
0000
0000
3010
0100
,
0001
1000
0001
0000
1000
0000
0000
0000
0001
0000
1000
0000
0100
0000
0000
0000
,
0110
0000
0010
0000
0001
0000
1000
0200
0000
0000
0320
0000
0000
0000
0130
1000
,
0001
0100
0001
0000
1000
0000
0000
0000
1010
0000
0010
0000
0100
0000
0001
0000
,
1002
0000
0000
0000
1000
1000
1003
0001
,
1001
0000
0000
1000
0100
0000
0000
0100
1000
0000
0001
0000
0100
0000
0010
0100
,
0010
0000
0000
0010
0100
0000
0000
0100
0001
0000
1000
0000
0100
0000
0010
0001
,
1000
0000
0000
0001
0100
0000
0000
0100
0001
0000
1000
0000
0100
0000
0010
0100
,
0010
0000
0000
0010
0100
0000
0000
0100
1000
0000
0001
0000
0100
0000
0010
1000
,
0001
0000
0010
0000
0100
0000
0000
1000
0100
0000
0010
0000
0001
0000
0000
0001
,
0100
0000
0010
0000
1000
0000
0000
0010
1000
0000
0100
0000
0010
0000
0000
0010
,
0100
0000
1000
0000
0001
0000
0000
0001
1000
0000
0010
0000
0100
0000
0001
0000
,
0020
0000
0000
0000
0100
0100
0130
0010
,
0110
0000
0100
0000
1000
0000
0001
0000
0100
0010
0000
0100
0001
0000
0010
0000
,
0100
0010
0100
0000
1100
0000
0000
1000
0001
0000
0010
0100
0000
1000
0100
0000
,
0110
0000
0010
0000
0001
0000
1000
0000
0010
0100
0000
0010
1000
0000
0100
0000
,
0010
0100
0010
0000
0011
0000
0000
0001
1000
0000
0100
0010
0000
0001
1000
0000
,
1001
0000
0001
0000
0010
0000
0100
0000
1000
0001
0000
0001
0100
0000
0010
0000
,
0110
0000
0100
0000
0001
0000
1000
0000
0100
1000
0000
1000
0001
0000
0010
0000
,
0011
0000
0001
0000
0100
0000
0010
0000
1000
0010
0000
0100
0010
0000
1000
0000
,
1020
0230
0302
2003
,
3001
0010
1000
0010
0002
0000
0013
0100
2000
0000
3001
0100
1000
0200
0000
0301
,
0020
0000
0130
2000
0000
3001
0100
0010
2000
0000
3010
0200
0000
0301
0010
0100
,
1000
0010
0001
0010
2000
0000
3010
0100
0002
0000
1003
0100
0001
0200
0000
1300
,
0020
0000
0130
0002
0000
1003
0100
0010
0002
0000
0013
0200
0000
1300
0010
0100
,
1001
0001
1000
0001
2000
0000
3001
1000
0001
1000
0001
1000
0002
0000
1003
0010
,
0110
0100
0010
0100
0020
0000
0130
0010
0100
0010
0100
0010
0200
0000
0310
0100
,
0101
0001
0010
0100
2100
0000
3001
1000
,
1010
0010
0100
0001
0012
0000
0013
0100
,
0110
0010
0001
0100
0110
0010
1000
0001
,
2001
0000
0000
0000
0000
3100
0010
0001
1000
0000
0100
0000
0001
0000
0100
0000
,
1000
0100
1000
0000
0001
0000
0100
0000
0001
0100
0001
0000
0010
0000
0100
0000
,
0110
2100
0000
3001
0012
0000
0100
0203
,
0000
1300
0100
0001
0020
0000
0130
0020
,
0000
0031
1000
0010
0110
0100
0001
0010
,
0100
1000
0100
0000
0010
0000
0001
0000
0100
0001
0100
0000
0010
0000
1000
0000
,
1010
0120
0000
0130
0102
0000
0013
2000
,
0000
3010
0001
1000
0020
0000
1030
2000
,
0000
0000
3100
0000
0010
0000
0001
1000
0001
0000
0010
0000
1000
0000
0010
0000
,
0001
0010
0001
0000
1000
0000
0010
0000
1000
0010
1000
0000
0100
0000
0010
0000
,
0110
0012
0000
1003
2100
0000
0010
3020
,
0000
0031
0010
1000
0200
0000
0310
0200
,
0000
1300
0001
0100
0110
0010
1000
0100
,
0010
0001
0010
0000
0100
0000
1000
0000
0010
1000
0010
0000
0100
0000
0001
0000
,
0101
0210
0000
0310
2010
0000
3100
0002
,
0000
0103
1000
0001
0200
0000
0301
0002
,
0000
0000
0013
0000
0100
0000
1000
0001
0010
0100
0010
0000
0001
0000
1000
0000
,
0010
1000
0010
0000
0100
0000
0001
0000
0100
0001
0100
0000
0001
0000
2001
0000
,
0000
0000
3100
0000
0001
0000
0100
0000
1000
0100
1000
0000
0010
0000
0210
0000
,
0000
0000
0301
0000
0010
0000
0100
0000
1000
0001
1000
0000
0010
0000
1010
0000
,
1000
0000
0001
0000
0100
0000
0001
1000
0100
0010
0100
0000
0010
0000
0001
0000
,
0100
0001
0100
0000
0010
0000
1000
0000
0001
0010
0001
0000
1000
0000
2100
0000
,
0000
0000
3001
0000
0100
0000
1000
0000
0100
0001
0100
0000
0001
0000
0011
0000
,
0010
0000
0100
0000
1000
0000
0001
0000
1001
0000
1000
0001
0010
0000
0001
1000
,
0010
0000
1000
0001
0100
0000
0010
1000
0010
0100
0010
0000
1000
0000
0001
0000
,
0010
0001
0010
0000
0100
0000
1000
0000
0100
1000
0100
0000
1000
0000
1002
0000
,
0000
0000
0103
0000
1000
0000
0100
0000
0001
0100
0001
0000
0010
0000
0210
0000
,
0000
0000
1300
0000
0010
0000
0100
0000
0001
1000
0001
0000
0010
0000
0011
0000
,
0001
0000
1000
0000
0100
0000
1000
0001
0100
0010
0100
0000
0010
0000
1000
0000
,
0100
1000
0100
0000
0010
0000
0001
0000
1000
0010
1000
0000
0001
0000
0102
0000
,
0000
0000
1003
0000
0100
0000
0001
0000
0100
1000
0100
0000
1000
0000
1010
0000
,
0010
0100
0001
1000
1001
0001
0010
0010
,
0100
1000
0010
0000
0110
0100
0001
0100
,
1000
0100
0001
0100
0010
1000
0010
0001
,
0010
1000
0010
0100
0001
0010
1000
0010
,
0001
0010
0100
1000
0100
0001
0100
1000
,
0100
0000
0010
0000
0001
0000
1000
0000
0010
0000
1000
0000
1010
0000
0000
0010
,
0100
0000
0001
0000
0101
0000
0000
0001
1000
0000
0100
0000
1100
0000
0000
0100
,
1000
0000
0001
0000
0011
0000
0000
0010
0100
0000
1000
0000
1001
0000
0000
0001
,
0100
0000
0010
0000
0110
0000
0100
0010
2001
0000
0000
0000
3200
0000
0000
0000
,
0302
0023
0200
0000
,
0000
0000
0330
0000
;

//--------------- dance-double - RaverAce ----------------
#NOTES:
     dance-double:
     RaverAce:
     Easy:
     8:
     0,0,0,0,0:
00000000
00000000
00000000
00000000
,
00000000
00000000
00000000
00000000
,
00000000
00000000
00000000
00000000
,
00000000
00000000
00000000
00000000
,
00000000
00000000
00000000
00000000
,
00000000
00000000
00000000
00000000
,
00000000
00000000
00000000
00000000
,
00000000
00000000
00000000
00000000
,
00000000
00000000
00000000
00000000
,
00000110
00000000
00000000
00000000
,
00000000
00000000
00000000
00000000
,
00001010
00000000
00000000
00000000
,
00000000
00000000
00000000
00000000
,
01100000
00000000
00000000
00000000
,
10010000
00000000
00000000
00000000
,
00110000
00000000
00011000
00000000
,
00002200
00000000
00000000
00003300
,
00001001
00000000
00000001
00000000
,
00000100
00000000
00000010
00000000
,
00001000
00000000
00010000
00000000
,
00100000
00000000
01000000
00000000
,
10000000
00000000
00010000
00000000
,
01000000
00000000
00100000
00000000
,
20000000
00000000
00020000
30030000
,
20020000
00000000
00000000
30030000
,
11000000
00000000
01000000
00000000
,
00100000
00000000
00010000
00000000
,
00001000
00000000
00000100
00000000
,
00000010
00000000
00000001
00000000
,
00000100
00000000
00000010
00000000
,
00001000
00000000
00010000
00000000
,
00100000
00000000
01000000
00000000
,
10000000
01000000
00100000
00010000
,
00012000
00000000
00000000
00000000
,
00203000
00000000
00000000
00000000
,
02300000
00000000
00000000
00000000
,
23000000
00000000
00000000
30010000
,
01010000
00000000
00000000
00000000
,
00001100
00000000
00000000
00000000
,
00000110
00000010
00000010
00000010
,
00000110
00000100
00000100
00000100
,
00001000
00000100
00000010
00000001
,
00001002
00000000
00000103
00000010
,
00001000
00000000
00001000
00000010
,
00000100
00000000
00000001
00000010
,
00000100
00000000
00001000
00010000
,
00100000
00010000
01000000
00010000
,
01000000
00000000
00100000
10000000
,
00100000
00000000
10000000
01000000
,
00100000
00010000
00100000
01000000
,
10000000
00000000
00010000
10000000
01000000
00000000
00100000
00000000
,
00010000
00000000
00010000
00100000
,
01000000
00000000
10000000
00100000
,
01000000
00000000
00010000
00001000
,
00000010
00001000
00000100
00001000
,
00000100
00000000
00000010
00000001
,
00000010
00000000
00000001
00000100
,
00000010
00001000
00000020
00000100
,
00000100
00000130
00000110
00000010
,
00001000
00000100
00000001
00000100
,
00001000
00000100
00010000
00001000
,
00100000
00010000
01000000
00100000
,
10000000
00100000
01000000
00010000
,
10000000
01000000
00100000
00010000
,
00100000
01000000
10000000
00010000
,
01000000
00001000
00020000
00230000
,
02300000
00000000
03100000
00010000
01000000
00000000
01000000
00000000
,
00010000
00100000
10000000
00100000
,
00010000
00100000
00001000
00010000
,
00000100
00001000
00000010
00000100
,
00000001
00000100
00000010
00001000
,
00000001
00000010
00000100
00001000
,
00000100
00000010
00000001
00001000
,
00000010
00010000
00002000
00003200
,
00000320
00000031
00001001
00001000
,
00000001
00000100
00000010
00001000
,
00000010
00000100
00000001
00001000
,
00000100
00010000
00001000
00100000
,
00010000
10000000
00100000
01000000
,
00010000
01000000
10000000
01000000
,
00010000
00100000
01000000
10000000
,
01000000
00100000
00022000
00000000
,
00000000
00000000
00033000
00000000
;

//--------------- dance-double - RaverAce ----------------
#NOTES:
     dance-double:
     RaverAce:
     Medium:
     11:
     0,0,0,0,0:
00000000
00000000
00000000
00000000
,
00000000
00000000
00000000
00000000
,
00000000
00000000
00000000
00000000
,
00000000
00000000
00000000
00000000
,
00000000
00000000
00000000
00000000
,
00000000
00000000
00000000
00000000
,
00000000
00000000
00000000
00000000
,
00000000
00000000
00000000
00000000
,
00000000
00000000
00000000
00000000
,
00011000
00000000
00000000
00000000
,
00000000
00000000
00000000
00000000
,
00101000
00000000
00000000
00000000
,
00000000
00000000
00000000
00000000
,
00011000
00000000
00000000
00000000
,
00001100
00000000
00000000
00000000
,
00011000
00000000
00011000
00000000
,
00202000
00000000
00000000
00303000
,
00110000
00100000
01000000
10000000
,
00010000
01000000
00100000
10000000
,
00100000
01000000
00010000
10000000
,
01000000
00100000
00010000
00001000
,
00000100
00000010
00000001
00000100
,
00000010
00001000
00000010
00000100
,
00000001
00001000
00000100
00010000
,
00022000
00000000
00000000
00033000
,
00001100
00000100
00000010
00000001
,
00000100
00000010
00001000
00000010
,
00000100
00000001
00000010
00000100
,
00001000
00000100
00010000
00001000
,
01000000
00010000
00100000
01000000
,
10000000
00010000
01000000
00100000
,
10000000
00100000
01000000
00001000
,
00021000
00032000
00023000
00032000
,
00013000
00100000
01000000
10000000
00010000
01000000
10000000
00000000
,
10000000
01000000
00010000
00000000
00010000
01000000
10000000
00000000
,
10000000
01000000
00010000
00100000
00001000
00010000
00000100
00000000
,
00000110
00000010
00000001
00000000
00000001
00000100
00001000
00000100
,
00001001
00000001
00002000
00000000
00003001
00001000
00000001
00000000
,
00000110
00000010
00000100
00000000
00000100
00000010
00000100
00000000
,
00001100
00001000
00000100
00000010
,
00001001
00000001
00000010
00000100
,
00010000
00000000
00001000
00000000
00100000
00000000
01000000
00100000
,
20020000
00000000
30030000
00000000
10000000
00010000
10000000
00010000
,
10000000
00000000
01000000
10000000
01000000
00000000
10000000
00010000
,
10000000
00020000
00000000
01030000
00010000
00000000
00100000
00001000
,
00000000
00010000
00001000
00010000
00000200
00000000
00001300
00000200
,
00000000
00000310
00000001
00001000
00000010
00000100
00000010
00000100
,
00000010
00000000
00000100
00000001
00000100
00000000
00000001
00001000
,
00000100
00000010
00000000
00000100
00002000
00000000
00003001
00000200
,
00000000
00000310
00001000
00010000
01000000
00000000
00100000
00010000
,
00000000
00001000
00000100
00000010
00000001
00001000
00000001
00001000
,
00000001
00000000
00000100
00000001
00000100
00000000
00000001
00001000
,
00000001
00002000
00000000
00003100
00001000
00000000
00000010
00010000
,
00000000
00001000
00010000
00001000
02000000
00000000
03010000
02000000
,
00000000
03100000
10000000
00010000
00100000
01000000
00100000
01000000
,
00100000
00000000
01000000
10000000
01000000
00000000
10000000
00010000
,
01000000
00100000
00000000
01000000
00020000
00000000
10030000
02000000
,
00000000
03100000
00010000
00001000
00000100
00000000
00000010
00000001
,
00000000
00000001
00001000
00000001
00001001
00000000
00001000
00000100
,
00000010
00000000
00000010
00000100
00001000
00010000
00100000
01000000
,
00000000
10000000
00010000
01000000
00200000
00000000
10300000
00200000
,
00000000
01300000
00010000
10000000
02000000
00000000
03010000
01000000
,
10000000
00000000
11000000
01000000
10000000
00000000
01000000
00001000
,
00010000
00000000
00001000
00010000
00000100
00000000
00000010
00000001
,
00000000
00000001
00000100
00000010
00001000
00000000
00000100
00010000
,
00000000
00001000
00100000
00010000
01010000
00000000
10100000
00000000
,
11000000
00000000
00110000
00000000
10000000
00000000
00010000
01000000
,
00100000
00000000
00100000
01000000
00010000
00001000
00000010
00000100
,
00000000
00000001
00001000
00000100
00000020
00000000
00000031
00000020
,
00000000
00000130
00001000
00000001
00000200
00000000
00001300
00000100
,
00000001
00000000
00000101
00000100
00000001
00000000
00000100
00010000
,
00001000
00000000
00010000
00001000
01000000
00000000
00100000
10000000
,
00000000
10000000
01000000
00100000
00010000
00000000
01000000
00001000
,
00000000
00010000
00000010
00001000
00002000
00000000
00003002
00000000
,
00000203
00000000
00000310
00000000
00001001
00000001
00001000
00000000
,
00000100
00010000
00000100
00000000
00010000
00001000
00010000
00000000
,
00001000
00100000
00001000
00000000
00100000
01000000
00100000
00000000
,
01000000
10000000
01000000
00000000
10000000
00010000
10000000
00000000
,
00010000
01000000
00010000
00000000
01000000
00001000
01000000
00000000
,
00001000
00010000
00001000
00000000
00010000
00000100
00010000
00000000
,
00001000
00010000
00001000
00000000
00100000
00010000
01000000
00000000
,
00100000
10000000
01000000
00000000
00120000
00000000
02030000
00000000
,
03002000
00023000
00002000
00000000
,
00000000
00000000
00033000
00000000
;

//--------------- dance-double - RaverAce ----------------
#NOTES:
     dance-double:
     RaverAce:
     Hard:
     13:
     0,0,0,0,0:
00000000
00000000
00000000
00000000
,
00000000
00000000
00000000
00000000
,
00000000
00000000
00000000
00000000
,
00000000
00000000
00000000
00000000
,
00000000
00000000
00000000
00000000
,
00000000
00000000
00000000
00000000
,
00000000
00000000
00000000
00000000
,
00000000
00000000
00000000
00000000
,
00000000
00000000
00000000
00000000
,
00001001
00000001
00000100
00000000
00000010
00000100
00000010
00000000
,
00001000
00000000
00000010
00000000
00000100
00000000
00000001
00001000
00000000
00000000
00000100
00000000
00000000
00000000
00010000
00000000
,
00010100
00000100
00010000
00000000
00001000
00010000
00100000
00000000
,
01000000
00000000
10000000
00000000
00100000
00000000
01000000
00100000
00000000
00000000
10000000
00000000
00000000
00000000
00010000
00000000
,
10010000
10000000
01000000
00000000
00100000
01000000
00100000
00000000
,
00010000
00000000
00100000
00000000
01000000
00000000
10000000
00010000
00000000
00000000
01000000
00000000
00000000
00000000
00001000
00000000
,
01001000
01000000
00001000
00000000
00010000
00001000
00000010
00000000
,
00000210
00000000
00000000
00000000
00000001
00000001
00000001
00000301
,
00000101
00000100
00000010
00001000
00000100
00010000
00001000
00010000
,
00100000
01000000
10000000
00100000
01000000
00100000
10000000
00100000
,
01000000
00010000
10000000
01000000
00100000
00010000
00001000
00000100
,
00000010
00000001
00000010
00000100
00001000
00000100
00000010
00000001
,
00001000
00000010
00001010
00000000
00000010
00000100
00000110
00000000
,
00000100
00000001
00000101
00000000
00000001
00001000
00001001
00000000
,
00000100
00010000
00010100
00000000
00001000
00010000
00011000
00000000
,
00210000
00000000
00000000
00000000
00001000
00001000
00001000
00301000
,
00101000
00100000
01000000
00000000
01000000
10000000
00010000
00000000
,
10000000
00010000
01000000
00000000
10000000
01000000
00010000
00000000
,
10000000
01000000
00100000
00000000
00010000
00001000
00000100
00000000
,
00000010
00000001
00000100
00000000
00000010
00001000
00000001
00000000
,
00001000
00000100
00000010
00000000
00000010
00000100
00001000
00000000
,
00001000
00000100
00000001
00000000
00000001
00000100
00001000
00000000
,
00000010
00010000
00001000
00000000
00010000
00100000
01000000
00000000
,
21000000
30200000
02300000
03020000
,
10030000
01000000
00010000
01000000
20000000
00000000
31000000
00100000
00020000
00000000
01030000
00001000
00010000
00002000
00000000
00013000
,
00000200
00000000
00000310
00000200
00000000
00001300
00000001
00000100
00000020
00000000
00001030
00000020
00000000
00000130
00000001
00001000
,
00000001
00000100
00001000
00000100
00000002
00000000
00000103
00000010
00002000
00000000
00003100
00010000
00001000
00020000
00000000
00031000
,
02000000
00000000
03100000
02000000
00000000
03010000
10000000
01000000
00200000
00000000
00310000
00200000
00000000
01300000
10000000
00010000
,
10010000
10000000
00010000
10000000
00020000
00000000
10030000
00010000
10000000
00010000
10000000
00010000
20000000
00000000
30010000
10000000
,
01100000
00100000
01000000
00100000
02000000
00000000
03100000
01000000
00100000
01000000
00100000
01000000
00200000
00000000
01300000
00010000
,
01010000
10010000
11000000
01100000
,
00110000
00011000
00001100
00000110
,
00000011
00000001
00000100
00001000
00000100
00000001
00000010
00000100
,
00002100
00000000
00000000
00000000
00000000
00003001
00000010
00000100
00001000
00000000
00000100
00000000
00000001
00000000
00000100
00000000
,
00001000
00000000
00010000
00100000
01000000
00000000
10000000
00100000
,
01000000
00010000
00000000
00010000
00200000
00000000
10300000
00200000
,
00000000
00310000
01000000
00100000
20000000
00000000
30100000
02000000
,
00000000
03010000
10000000
01000000
00100000
00010000
00100000
10000000
,
00200000
00000000
00310000
00001000
00000200
00000000
00000310
00000001
,
00000100
00000020
00000000
00001030
00000020
00000000
00000130
00000002
,
00000000
00001003
00000100
00010000
00002000
00000000
00103000
00020000
,
00000000
00130000
01000000
10000000
00010000
01000000
10000000
01000000
,
00010000
00000000
00001000
00000010
00000100
00000000
00000001
00000010
,
00000100
00001000
00000000
00001000
00000020
00000000
00000031
00000020
,
00000000
00001030
00000100
00000010
00000002
00000000
00000013
00000200
,
00000000
00001300
00000001
00000100
00000010
00001000
00000010
00000001
,
00000020
00000000
00001030
00010000
02000000
00000000
03100000
10000000
,
01000000
00200000
00000000
00310000
00200000
00000000
01300000
20000000
,
00000000
30010000
01000000
00001000
00020000
00000000
00030010
00002000
,
00000000
00003010
00000100
00000001
00001001
00000000
00001000
00000100
,
00001100
00000000
00000100
00010000
00001000
00010000
00100000
02000000
,
00000000
13000000
00010000
01000000
20000000
00000000
31000000
00020000
,
00000000
00130000
01000000
10000000
02000000
00000000
03010000
00001000
,
00000100
00000000
00000010
00000000
00000001
00000000
00001000
00000001
00002000
00000000
00000000
00000000
00003010
00000000
00001000
00000000
,
00001010
00000000
00000010
00000100
00000110
00000010
00000100
00000002
,
00000000
00000013
00000100
00001000
00000002
00000000
00001003
00000200
,
00000000
00010300
00001000
00100000
01100000
00000000
11000000
00000000
,
10010000
00000000
01010000
00000000
10010000
00000000
00010000
00100000
,
00110000
00000000
00100000
00001000
00010000
00001000
00000100
00000020
,
00000000
00000031
00001000
00000010
00000002
00000000
00000013
00002000
,
00000000
00003100
00000010
00000001
00000020
00000000
00001030
00010000
,
00100000
00000000
01000000
00000000
10000000
00000000
00010000
10000000
00020000
00000000
00000000
00000000
01030000
00000000
00010000
00000000
,
01010000
00000000
01000000
00100000
01100000
01000000
00100000
20000000
,
00000000
31000000
00100000
00010000
20000000
00000000
30010000
00200000
,
00000000
00301000
00010000
00000100
00000020
00000000
00000032
00000000
,
00002003
00000000
00003010
00000000
00001001
00000001
00000100
00000010
,
00001000
00000100
00010000
00001000
00100000
00010000
00100000
01000000
,
10000000
00010000
01000000
00100000
10000000
00100000
01000000
00010000
,
10000000
01000000
00100000
00010000
00001000
00010000
00100000
01000000
,
10000000
00010000
01000000
00100000
10000000
00100000
10100000
00000000
,
00100000
01000000
01100000
00000000
01000000
00010000
01010000
00000000
,
00010000
00100000
00110000
00000000
00100000
00001000
00101000
00000000
,
00010000
00001000
00011000
00000000
00001200
00000000
00020300
00000000
,
00032000
00203000
00020000
00000000
,
00000000
00000000
00330000
00000000
;
