#TITLE:Metro;
#SUBTITLE:;
#ARTIST:Arkplot;
#TITLETRANSLIT:;
#SUBTITLETRANSLIT:;
#ARTISTTRANSLIT:;
#GENRE:;
#CREDIT:;
#BANNER:Metro.png;
#BACKGROUND:Metro-bg.png;
#LYRICSPATH:;
#CDTITLE:cdtitle.png;
#MUSIC:Metro.ogg;
#OFFSET:-0.010000;
#SAMPLESTART:89.302002;
#SAMPLELENGTH:11.163000;
#SELECTABLE:YES;
#BPMS:0.000000=172.000000
;
#STOPS:
;
#BGCHANGES:;
#KEYSOUNDS:;
#ATTACKS:;

//---------------dance-single - MEGAtive----------------
#NOTES:
     dance-single:
     :
     Beginner:
     6:
     0.194222,0.344385,0.064741,0.222996,0.000000,189.000000,180.000000,9.000000,31.000000,0.000000,0.000000,0.194222,0.344385,0.064741,0.222996,0.000000,189.000000,180.000000,9.000000,31.000000,0.000000,0.000000:
// measure 0
0000
0000
0000
0000
,  // measure 1
0000
0000
0000
0000
,  // measure 2
0000
0000
0000
0000
,  // measure 3
0000
0000
0000
0000
,  // measure 4
0000
0000
0000
0000
,  // measure 5
0000
0000
0000
0000
,  // measure 6
0000
0000
0000
0000
,  // measure 7
0000
0000
0000
0000
,  // measure 8
0000
0000
0000
0000
,  // measure 9
0000
0000
0000
0000
,  // measure 10
0000
0000
0000
0000
,  // measure 11
0000
0000
0000
0000
,  // measure 12
0000
0000
0000
0000
,  // measure 13
0000
0000
0000
0000
,  // measure 14
0000
0000
0000
0000
,  // measure 15
0000
0000
0000
0000
,  // measure 16
1000
0010
0000
0010
,  // measure 17
1000
0100
1000
0000
,  // measure 18
0001
0010
0000
0010
,  // measure 19
0001
0100
0001
0000
,  // measure 20
1000
0010
0000
0010
,  // measure 21
1000
0100
1000
0000
,  // measure 22
0001
0000
0000
1001
0000
0000
0110
0000
,  // measure 23
0200
0000
0000
0310
,  // measure 24
1000
0100
0000
0100
,  // measure 25
1000
0010
1000
0000
,  // measure 26
0001
0100
0000
0100
,  // measure 27
0001
0010
0001
0000
,  // measure 28
1000
0100
0000
0100
,  // measure 29
1000
0010
1000
0000
,  // measure 30
0001
0100
0000
0100
,  // measure 31
0002
0000
0000
0013
,  // measure 32
0001
1000
0001
0000
,  // measure 33
0100
0010
0100
0000
,  // measure 34
0001
1000
0001
0000
,  // measure 35
0010
0100
0010
0100
,  // measure 36
0001
1000
0001
0000
,  // measure 37
0010
0100
0010
0000
,  // measure 38
0001
1000
0001
0000
,  // measure 39
0000
2002
0000
0000
0000
0000
0000
0000
,  // measure 40
3003
0000
0000
0000
,  // measure 41
0000
0000
0000
0000
,  // measure 42
0000
0000
0000
0000
,  // measure 43
0000
0000
0000
0000
,  // measure 44
2002
0000
0000
0000
,  // measure 45
0000
0000
0000
3003
,  // measure 46
0000
0000
0000
0000
,  // measure 47
0000
0000
0000
0000
,  // measure 48
0002
0000
0000
0003
,  // measure 49
0200
0000
0000
0000
,  // measure 50
0320
0000
0000
0030
,  // measure 51
2000
0000
0000
0000
,  // measure 52
3200
0000
0000
0300
,  // measure 53
0020
0000
0000
0000
,  // measure 54
0032
0000
0000
0003
,  // measure 55
2000
0000
0000
3001
,  // measure 56
0200
0000
0000
0300
,  // measure 57
0020
0000
0000
0000
,  // measure 58
2030
0000
0000
3000
,  // measure 59
0002
0000
0000
0000
,  // measure 60
0023
0000
0000
0030
,  // measure 61
0200
0000
0000
0000
,  // measure 62
2300
0000
0000
3000
,  // measure 63
2002
0000
0000
3003
,  // measure 64
0001
0010
0001
0000
,  // measure 65
0010
0001
1000
0001
,  // measure 66
0100
0010
0100
0000
,  // measure 67
0020
0000
0130
0000
,  // measure 68
0001
0100
0001
0000
,  // measure 69
0100
0001
1000
0001
,  // measure 70
0010
0100
0010
0000
,  // measure 71
0200
0000
0000
1300
,  // measure 72
0001
0100
0001
0000
,  // measure 73
1000
0100
1000
0001
,  // measure 74
0100
0010
0100
0000
,  // measure 75
0002
0000
1003
0000
,  // measure 76
0001
0010
0001
0000
,  // measure 77
1000
0010
1000
0001
,  // measure 78
0010
0000
0000
0110
0000
0000
1001
0000
,  // measure 79
2000
0000
0000
3001
,  // measure 80
1000
0100
0000
0100
,  // measure 81
1000
0010
1000
0000
,  // measure 82
0001
0100
0000
0100
,  // measure 83
0001
0010
0001
0000
,  // measure 84
1000
0100
0000
0100
,  // measure 85
1000
0010
1000
0000
,  // measure 86
0001
0000
0000
1001
0000
0000
0110
0000
,  // measure 87
0020
0000
0000
0130
,  // measure 88
0001
0010
0000
0010
,  // measure 89
0001
0100
0001
0000
,  // measure 90
1000
0010
0000
0010
,  // measure 91
1000
0100
1000
0000
,  // measure 92
0001
0010
0000
0010
,  // measure 93
0001
0100
0001
0000
,  // measure 94
2000
0000
3020
0000
,  // measure 95
0230
0000
0000
0301
;

//---------------dance-single - MEGAtive----------------
#NOTES:
     dance-single:
     :
     Easy:
     9:
     0.410025,0.517252,0.172642,0.395638,0.000000,399.000000,375.000000,24.000000,55.000000,0.000000,0.000000,0.410025,0.517252,0.172642,0.395638,0.000000,399.000000,375.000000,24.000000,55.000000,0.000000,0.000000:
0000
0000
0000
0000
,
0000
0000
0000
0000
,
0000
0000
0000
0000
,
0000
0000
0000
0000
,
0001
0000
0001
0000
,
0001
0000
0001
0000
,
1000
0000
1000
0000
,
1000
0000
1000
0000
,
0001
0000
0001
0000
,
1000
0000
1000
0000
,
0001
0000
0001
0000
,
1000
0000
1000
0002
,
1003
0100
1000
0000
,
0001
0100
0001
0000
,
1000
0010
1000
0000
,
0001
0010
0001
0010
0100
1000
0001
0000
,
1000
0000
1010
0000
0010
0100
0001
0000
,
0010
0100
0010
0000
0001
0010
0100
0000
,
1000
0000
1100
0000
0100
1000
0001
0000
,
0100
0010
0100
0010
1000
0000
1001
0000
,
0001
0000
0101
0000
0100
0010
1000
0000
,
0100
0010
0100
0000
1000
0100
0010
0000
,
0001
0000
0010
0100
0000
1000
0001
0000
,
0200
0000
0000
0310
,
1010
0000
1000
0100
0000
0100
1000
0000
,
0100
0010
0100
0000
0010
0001
0010
0000
,
0001
0000
0100
0010
0000
0010
0100
0000
,
0010
0100
0010
0100
0001
0000
0011
0000
,
0001
0000
0001
0010
0000
0010
0001
0000
,
0010
0100
0010
0000
0100
1000
0100
0000
,
1000
0000
0010
0100
0000
0100
0010
0000
,
0200
0010
0010
0310
,
1000
0000
1010
0000
0010
1000
0010
0000
,
1000
0001
1000
0000
0100
0010
0100
0000
,
1000
0000
1100
0000
0100
0010
0100
0000
,
0010
0001
0010
0001
1000
0000
1001
0000
,
0001
0000
0101
0000
0100
0001
0100
0000
,
0001
1000
0001
0000
0010
0100
0010
0000
,
0001
0000
0011
0000
0010
0100
0010
0000
,
0000
2002
0000
0000
0000
0000
0000
0000
,
3003
0000
0000
0000
,
0000
0000
0000
0000
,
0000
0000
0000
0000
,
0000
0000
0000
0000
,
0220
0000
0000
0000
,
0000
0000
0000
0330
,
0000
0000
0000
0000
,
0000
0000
0000
0000
,
0002
0000
0000
0003
0000
0000
0200
0000
0000
0300
0000
0000
0020
0000
0000
0000
,
2030
0000
3000
0200
0000
0300
0020
0000
,
0032
0000
0000
0003
0000
0000
0200
0000
0000
0300
0000
0000
0020
0000
0000
0000
,
2030
0000
3000
0200
0000
0300
0020
0000
,
0032
0000
0000
0003
0000
0000
0020
0000
0000
0030
0000
0000
0200
0000
0000
0000
,
2300
0000
3000
0020
0000
0030
0200
0000
,
0302
0000
0000
0003
0000
0000
0020
0000
0000
0030
0000
0000
0200
0000
0000
0000
,
2300
0000
0000
3001
,
0001
0000
0100
0010
0000
0010
0100
0000
,
0002
0000
0003
0020
0000
0030
0200
0000
,
1300
0000
0010
0100
0000
0100
0010
0000
,
2000
0000
3000
0200
0000
0300
0020
0000
,
0031
0000
0010
0100
0000
0100
0010
0000
,
0002
0000
0003
0200
0000
0000
0320
0000
,
1030
0000
0100
0010
0000
0010
0100
0000
,
2002
0000
3003
1001
,
1000
0000
0100
0010
0100
1000
0002
0000
,
1003
0010
1000
0000
0001
0010
0001
0010
,
0001
0000
0010
0100
0010
0001
2000
0000
,
3002
0000
1003
1000
,
1000
0000
0010
0100
0010
1000
0002
0000
,
1003
0100
1000
0000
0001
0100
0001
0100
,
0001
0000
0100
0010
0000
0010
2000
0000
,
3002
0000
0000
1003
,
0001
0000
0010
0100
0010
0001
2000
0000
,
3001
0100
0001
0000
1000
0100
1000
0100
,
1000
0000
0100
0010
0100
1000
0002
0000
,
2003
0000
3001
0001
,
0001
0000
0100
0010
0100
0001
2000
0000
,
3001
0010
0001
0000
1000
0010
1000
0010
,
1000
0000
0010
0100
0010
1000
0002
0000
,
2003
0000
3001
0011
,
1000
0000
1010
0000
0010
0100
0001
0000
,
0010
0100
0010
0000
0001
0010
0100
0000
,
1000
0000
1100
0000
0100
1000
0001
0000
,
0100
0010
0100
0010
1000
0000
1001
0000
,
0001
0000
0101
0000
0100
0010
1000
0000
,
0100
0010
0100
0000
1000
0100
0010
0000
,
0001
0000
0010
0100
0000
1000
0001
0000
,
0200
0000
0000
0310
,
1000
0000
1100
0000
0100
0010
0001
0000
,
0100
0010
0100
0000
0001
0100
0010
0000
,
1000
0000
1010
0000
0010
1000
0001
0000
,
0010
0100
0010
0100
1000
0000
1001
0000
,
0001
0000
0011
0000
0010
0100
1000
0000
,
0010
0100
0010
0000
1000
0010
0100
0000
,
0001
0000
0100
0010
0000
1000
0001
0000
,
0020
0000
0000
0000
0000
0000
0230
0300
;

//---------------dance-single - MEGAtive----------------
#NOTES:
     dance-single:
     :
     Medium:
     13:
     0.556976,0.655185,0.187029,0.503539,0.208609,542.000000,516.000000,26.000000,70.000000,0.000000,0.000000,0.556976,0.655185,0.187029,0.503539,0.208609,542.000000,516.000000,26.000000,70.000000,0.000000,0.000000:
0000
0000
0000
0000
,
0000
0000
0000
0000
,
0000
0000
0000
0000
,
0000
0000
0000
0000
,
0001
0000
0001
0000
,
0001
0000
0001
0000
,
1000
0000
1000
0000
,
1000
0000
1000
0000
,
0001
0010
0001
0000
,
1000
0010
1000
0000
,
0001
0010
0001
0000
,
1000
0010
1000
0002
,
1003
0000
0000
0000
0100
0000
0000
0000
0010
0000
0000
0010
0000
0000
0000
0000
,
0001
0000
0000
0001
0000
0000
0001
0000
1000
0000
0000
1000
0000
0000
1000
0000
,
0001
0000
0000
0000
0100
0000
0000
0000
0010
0000
0000
0010
0000
0000
0010
0000
,
1000
0100
0010
0100
1000
0010
0100
0000
,
0001
0010
0001
0010
1000
0010
0001
0000
,
0100
0000
0000
0100
0000
0000
0100
0000
0010
0000
0000
0010
0000
0000
0010
0000
,
1000
0010
1000
0010
0001
0010
1000
0000
,
0100
0000
0000
0100
0000
0000
0100
0000
0010
0000
0000
0010
0100
0000
0000
0000
,
1000
0100
1000
0100
0001
0100
1000
0000
,
0010
0000
0000
0010
0000
0000
0010
0000
0100
0000
0000
0100
0000
0000
0100
0000
,
0101
0000
0001
1001
0000
1000
1100
0000
,
0100
0000
0000
0100
0000
0000
1000
0000
0000
1000
0000
0000
1001
0000
0000
0000
,
0001
0100
0001
0100
1000
0100
0010
0100
,
0001
0000
0001
0002
0000
0013
0010
0100
,
1000
0100
1000
0100
0001
0100
0010
0100
,
1000
0000
1000
2000
0000
3010
0020
0000
,
1030
0010
1000
0010
0001
0010
0100
0010
,
1000
0000
1000
2000
0000
3100
0100
0010
,
0001
0010
0001
0010
1000
0010
0100
0010
,
0001
0001
0100
0010
1000
0100
0010
0001
,
1000
0000
1010
0000
0010
1000
0100
0010
,
0001
0100
0010
1000
0010
0100
0001
0010
,
0100
0000
0110
0000
0010
0001
1000
0001
,
0100
0010
0100
0001
1000
0100
0020
0000
,
0031
0000
0011
0000
0010
0001
0100
0010
,
1000
0100
0010
0001
0010
0100
1000
0010
,
0100
0000
0110
0000
0010
1000
0001
1000
,
0000
0000
1100
0000
0000
1100
0000
0000
0101
0000
0000
0202
0000
0000
0000
0000
,
0303
0000
0000
0000
,
0000
0000
0000
0000
,
0000
0000
0000
0000
,
0000
0000
0000
0000
,
2002
0000
0000
0000
,
0000
0000
0000
3003
,
0000
0000
0000
0000
,
0000
0000
0000
0000
,
0002
0000
0000
0023
0000
0000
0230
0000
0000
2300
0000
0000
3002
0000
0000
0000
,
0103
0020
0000
0130
0002
0000
0013
0100
,
2000
0000
0000
3020
0000
0000
0230
0000
0000
0302
0000
0000
2003
0000
0000
0000
,
3100
0020
0000
0130
2000
0000
3010
0100
,
0002
0000
0000
0023
0000
0000
0230
0000
0000
2300
0000
0000
3002
0000
0000
0000
,
0103
0020
0000
0130
0002
0000
0013
0100
,
2000
0000
0000
3020
0000
0000
0230
0000
0000
0302
0000
0000
2003
0000
0000
0000
,
3100
0100
1000
0010
0100
0001
1000
0000
,
0002
0000
0000
0203
0000
0000
0320
0000
0000
0230
0000
0000
0302
0000
0000
0000
,
1003
0100
1000
0001
0100
0001
1000
0100
,
2000
0000
0000
3200
0000
0000
0320
0000
0000
0230
0000
0000
2300
0000
0000
0000
,
3001
0100
0001
1000
0100
1000
0001
0100
,
0002
0000
0000
0023
0000
0000
0230
0000
0000
0320
0000
0000
0032
0000
0000
0000
,
1003
0010
1000
0001
0010
0001
1000
0010
,
2000
0000
0000
3020
0000
0000
0230
0000
0000
0320
0000
0000
2030
0000
3000
0000
,
2002
0000
0000
0000
0000
3003
1001
0000
,
1000
0000
0010
0000
0100
0000
0001
0000
0010
0000
0100
0010
0200
0000
0000
0000
,
1300
0100
0010
0001
0100
0100
0010
0010
,
1000
0000
0100
0000
0010
0000
0001
0000
0100
0000
0010
0100
0020
0000
0030
0000
,
2002
0000
0000
3003
0001
0010
0100
1000
,
0001
0000
0100
0000
0010
0000
1000
0000
0100
0000
0010
0100
0020
0000
0000
0000
,
0031
0010
0100
1000
0010
0010
0100
0100
,
0001
0000
0010
0000
0100
0000
1000
0000
0010
0000
0100
0010
0200
0000
0300
0000
,
1001
0000
0000
0001
0000
0000
0001
0000
0000
1000
0000
0000
1010
0000
0000
0000
,
0010
0000
1000
0000
0001
0000
0010
0000
0100
0000
1000
0100
2000
0000
0000
0000
,
3001
0010
0100
0010
0001
0001
1000
1000
,
0100
0000
1000
0000
0001
0000
0100
0000
0010
0000
1000
0010
2000
0000
0000
0000
,
3002
0000
1003
0000
0100
0010
0001
1000
,
0010
0000
0100
0000
0001
0000
0010
0000
0100
0000
1000
0100
2000
0000
0000
0000
,
3001
0010
0100
0010
0001
0001
1000
1000
,
1010
0000
0010
0110
0000
0100
0101
0000
,
0101
0000
0000
0001
0000
0000
1000
0000
0000
0100
0000
0000
1100
0000
0000
0000
,
1000
0100
1000
0100
0001
0100
1000
0000
,
0010
0000
0000
0010
0000
0000
0010
0000
0100
0000
0000
0100
0000
0000
0100
0000
,
0001
0100
0001
0100
1000
0100
0001
0000
,
0010
0000
0000
0010
0000
0000
0010
0000
0100
0000
0000
0100
0010
0000
0000
0000
,
0001
0010
0001
0010
1000
0010
0001
0000
,
0100
0000
0000
0100
0000
0000
0100
0000
0010
0000
0000
0010
0000
0000
0010
0000
,
1010
0000
1000
1001
0000
0001
0011
0000
,
0010
0000
0010
0000
0100
1000
0100
0000
0010
0001
1000
0000
0020
0000
0000
0000
,
1030
0010
1000
0010
0001
0010
1000
0000
,
0100
0000
0000
0100
0000
0000
0100
0000
0010
0000
0000
0010
0000
0000
0010
0000
,
0001
0010
0001
0010
1000
0010
0001
0000
,
0100
0000
0000
0100
0000
0000
0100
0000
0010
0000
0000
0010
0100
0000
0000
0000
,
0001
0100
0001
0100
1000
0100
0001
0000
,
0010
0000
0000
0010
0000
0000
0010
0000
0100
0000
0000
0100
0000
0000
0100
0000
,
1000
0010
0100
0001
0010
1000
0010
0001
,
1000
0000
1000
0000
0010
0100
0010
0000
1000
0001
1000
0001
2000
0000
3000
0000
;

//---------------dance-single - MEGAtive----------------
#NOTES:
     dance-single:
     :
     Hard:
     16:
     0.745032,0.863210,0.244576,0.467572,0.607844,725.000000,691.000000,34.000000,65.000000,18.000000,0.000000,0.745032,0.863210,0.244576,0.467572,0.607844,725.000000,691.000000,34.000000,65.000000,18.000000,0.000000:
0000
0000
0000
0000
,
0000
0000
0000
0000
,
0000
0000
0000
0000
,
0000
0000
0000
0000
,
1000
0000
1000
0000
,
1000
0000
1000
0000
,
0001
0000
0001
0000
,
0001
0000
0001
0000
,
1000
0000
0000
0000
0100
0000
0000
0000
0010
0000
0000
0010
0000
0000
0000
0000
,
0001
0000
0000
0001
0000
0000
0001
0000
1000
0000
0000
1000
0000
0000
1000
0000
,
0001
0000
0000
0000
0100
0000
0000
0000
0010
0000
0000
0010
0000
0000
0000
0000
,
1000
0000
0000
1000
0000
0000
1000
0000
0001
0000
0000
0000
0002
0000
0000
0000
,
1003
0000
0000
0000
0100
0000
0000
0000
0010
0000
0000
0010
0000
0000
0100
0000
,
1000
0000
0000
1000
0000
0000
1000
0000
0001
0000
0000
0001
0000
0000
0001
0000
,
1000
0000
0000
0000
0010
0000
0000
0000
0100
0000
0000
0100
0000
0000
0010
1000
,
0010
0000
1000
0001
1000
0000
0001
0010
0001
0010
0100
1000
0001
0000
0000
0000
,
1000
0010
1000
0001
0010
01M0
01M0
0010
,
1000
0000
0100
0010
0000
0100
0010
0000
0001
1000
0000
0001
1000
0000
0010
0000
,
0100
0001
0010
0100
1000
M010
M010
0001
,
0100
0000
0010
1000
0000
0010
1000
0000
0001
0010
0000
0001
0020
0000
0000
0000
,
0031
0010
0001
1000
0010
01M0
01M0
0010
,
0001
0000
0100
0010
0000
0100
0010
0000
1000
0001
0000
1000
0001
0000
0010
0000
,
0110
0000
0000
0000
0011
0000
0011
0000
0000
0001
1000
0000
1010
0000
0000
0000
,
0010
0000
1000
0001
0000
0001
0010
0000
0010
0100
0000
0100
2000
0000
0000
0000
,
3001
0000
0010
0001
1000
0000
0010
0000
0100
0000
0010
1000
0001
0000
0010
0000
,
0100
1000
0000
0001
0010
0000
0100
1000
0000
0001
0010
0000
0100
0000
0010
0000
,
0001
0000
0100
0001
1000
0000
0100
0000
0010
0000
0100
1000
0001
0000
0100
0000
,
0010
1000
0000
0001
0100
0000
0010
1000
0000
0001
0100
0000
0020
0000
0000
0000
,
1030
0000
0010
1000
0001
0000
0010
0000
0100
0000
0010
0001
1000
0000
0010
0000
,
0100
0001
0000
1000
0010
0000
0100
0001
0000
1000
0010
0000
0100
0000
0010
0000
,
1000
0000
0100
1000
0001
0000
0100
0000
0010
0000
0100
0001
1000
0000
0100
0000
,
0010
0000
0010
0000
0100
1000
0001
0000
0100
0010
0100
0010
2000
0000
0000
0000
,
3001
0010
0001
1000
0100
0001
0100
0010
,
0100
1000
0000
0001
0010
0000
0100
1000
0001
0010
0000
0100
1000
0000
0001
0000
,
1000
0010
1000
0001
0100
1000
0100
0010
,
0100
0001
0000
1000
0010
0000
0100
0001
1000
0010
0000
0100
0001
0000
1000
0000
,
0001
0010
0001
1000
0100
0001
0100
0010
,
0100
1000
0000
0001
0010
0000
0100
1000
0001
0010
0000
0100
1000
0000
0001
0000
,
1000
0010
1000
0001
0100
1000
0100
0010
,
0000
0000
1010
0000
0000
1001
0000
0000
0011
0000
0000
0220
0000
0000
0000
0000
,
0330
0100
0010
0000
0100
0010
0000
0100
,
0000
0010
0000
0000
0100
0010
0000
0100
,
0000
1000
0001
0000
1000
0001
0000
1000
,
0000
0001
0000
0000
2000
0000
0000
3000
,
2002
0000
0000
0000
,
0000
0000
0000
3003
,
0000
0000
0000
0000
,
0000
0000
0000
0000
,
1200
0000
0000
2300
0000
0000
3020
0000
0000
0230
0000
0000
0320
0000
0000
0000
,
1030
0010
0100
0001
0010
0100
1000
0010
,
0200
0000
0000
0302
0000
0000
0023
0000
0000
0230
0000
0000
0320
0000
0000
0000
,
0031
0010
0100
1000
0010
0100
0001
0010
,
0200
0000
0000
2300
0000
0000
3020
0000
0000
0230
0000
0000
0320
0000
0000
0000
,
1030
0010
0100
0001
0010
0100
1000
0010
,
0200
0000
0000
0302
0000
0000
0023
0000
0000
0230
0000
0000
0320
0000
0000
0000
,
0031
0000
0010
0000
0100
1000
0000
0001
0010
0000
0100
1000
0020
0000
0000
0000
,
1030
0000
0000
0010
0100
0000
0002
0000
0000
0013
0100
0000
2000
0000
0000
0000
,
3001
0010
0100
1000
0010
0100
0001
0010
,
0001
0000
0000
0010
0100
0000
2000
0000
0000
3010
0100
0000
0002
0000
0000
0000
,
1003
0010
0100
0001
0010
0100
1000
0010
,
1000
0000
0000
0010
0100
0000
0002
0000
0000
0013
0100
0000
2000
0000
0000
0000
,
3001
0010
0100
1000
0010
0100
0001
0010
,
0001
0000
0000
0010
0100
0000
2000
0000
0000
3010
0100
0000
0001
0000
0000
0000
,
0101
0000
0000
1001
0000
0000
1100
0000
0000
0110
0000
0000
1001
0000
0000
0000
,
0001
0000
0100
0010
0100
0000
0001
0000
0010
0100
1000
0000
2200
0000
3300
0000
,
0100
0000
1000
0001
0100
0000
0010
0000
0100
0010
1000
0010
1000
0001
1000
0001
,
0010
0000
0100
1000
0100
0000
0010
0000
0001
1000
0010
0000
2020
0000
3030
0000
,
2002
0000
0000
0000
0000
0000
3003
0000
1001
0000
0000
0001
0100
0000
0010
0000
,
1000
0000
0100
0010
0100
0000
1000
0000
0010
0100
0001
0000
0202
0000
0303
0000
,
0100
0000
0001
1000
0100
0000
0010
0000
0100
0010
0001
0010
0001
1000
0001
1000
,
0010
0000
0100
0001
0100
0000
0010
0000
1000
0001
0010
0000
0022
0000
0033
0000
,
1001
0000
0001
0100
0000
0100
0010
0000
0010
1000
0000
1000
0001
0000
0000
0000
,
0001
0000
0010
0100
0010
0000
0001
0000
0100
0010
1000
0000
2020
0000
3030
0000
,
0010
0000
1000
0001
0010
0000
0100
0000
0010
0100
1000
0100
1000
0001
1000
0001
,
0100
0000
0010
1000
0010
0000
0100
0000
0001
1000
0100
0000
2200
0000
3300
0000
,
2002
0000
3003
0000
2002
0000
3003
0000
1001
0000
0000
0001
0010
0000
0100
0000
,
1000
0000
0010
0100
0010
0000
1000
0000
0100
0010
0001
0000
0022
0000
0033
0000
,
0010
0000
0001
1000
0010
0000
0100
0000
0010
0100
0001
0100
0001
1000
0001
1000
,
0100
0000
0010
0001
0010
0000
0100
0000
1000
0001
0100
0000
0202
0000
0303
0000
,
1001
0000
0001
0010
0000
0010
0100
0000
0100
1000
0000
1000
0002
0000
0000
0000
,
1003
0100
1000
0001
0100
0M10
0M10
0100
,
1000
0000
0010
0100
0000
0010
0100
0000
0001
1000
0000
0001
1000
0000
0100
0000
,
0010
0001
0100
0010
1000
M100
M100
0001
,
0010
0000
0100
1000
0000
0100
1000
0000
0001
0100
0000
0001
0200
0000
0000
0000
,
0301
0100
0001
1000
0100
0M10
0M10
0100
,
0001
0000
0010
0100
0000
0010
0100
0000
1000
0001
0000
1000
0001
0000
0100
0000
,
0110
0000
0000
0000
0101
0000
0101
0000
0000
0001
1000
0000
1100
0000
0000
0000
,
0100
0000
1000
0000
0001
0100
0010
0000
1000
0100
0010
0001
2000
0000
0000
0000
,
3001
0010
0001
1000
0010
01M0
01M0
0010
,
0001
0000
0100
0010
0000
0100
0010
0000
1000
0001
0000
1000
0001
0000
0010
0000
,
0100
1000
0010
0100
0001
001M
001M
1000
,
0100
0000
0010
0001
0000
0010
0001
0000
1000
0010
0000
1000
0020
0000
0000
0000
,
1030
0010
1000
0001
0010
01M0
01M0
0010
,
1000
0000
0100
0010
0000
0100
0010
0000
0001
1000
0000
0001
1000
0000
0010
0000
,
0100
0001
0010
1000
0010
0001
0100
1000
,
0100
0000
0010
0000
1000
0001
0010
0000
0100
1000
0100
1000
0002
0000
0000
0000
,
0003
0000
0000
0000
;

//---------------dance-single - MEGAtive----------------
#NOTES:
     dance-single:
     :
     Challenge:
     18:
     0.874514,0.998716,0.359671,0.302123,0.935144,851.000000,801.000000,50.000000,42.000000,0.000000,0.000000,0.874514,0.998716,0.359671,0.302123,0.935144,851.000000,801.000000,50.000000,42.000000,0.000000,0.000000:
0000
0000
0000
0000
,
0000
0000
0000
0000
,
0000
0000
0000
0000
,
0000
0000
0000
0000
,
0001
0000
0001
0000
,
0001
0000
0001
0000
,
1000
0000
1000
0000
,
1000
0000
1000
0000
,
0001
0000
0000
0000
0100
0000
0000
0000
0010
0000
0000
0010
0000
0000
1000
0000
,
0001
0000
0000
0001
0000
0000
0001
0000
1000
0000
0000
1000
0000
0000
1000
0000
,
0001
0000
0000
0000
0010
0000
0000
0000
0100
0000
0000
0100
0000
0000
1000
0000
,
0001
0000
0000
0001
0000
0000
0001
0000
1000
0000
0000
0000
2000
0000
0000
0000
,
3001
0000
0000
0000
0100
0000
0000
0000
0010
1000
0000
0010
0000
0000
0100
0000
,
0001
0000
0000
0001
0000
0000
0001
0000
1000
0000
0000
1000
0000
0000
1000
0010
,
1000
0000
0000
0000
0100
0000
0000
0000
0010
0001
0000
0010
0001
0000
0100
0010
,
1000
0001
0010
0001
1000
0010
0100
0001
0010
0100
0010
0001
1000
0000
0000
0000
,
0001
0000
0010
0100
0010
0000
0001
0000
0100
0010
0100
0001
1000
0000
0100
0000
,
0010
0000
0001
0010
0000
1000
0010
0000
0001
0010
0000
1000
0010
0000
0001
0010
,
0001
0000
0100
0010
0100
0000
0001
0000
0010
0100
0010
0001
1000
0000
0010
0000
,
0100
0000
1000
0100
0000
0001
0100
0000
1000
0100
0000
0001
0100
0000
0010
0000
,
1000
0000
0100
0010
0100
0000
1000
0000
0010
0100
0010
1000
0001
0000
0010
0000
,
0100
0000
1000
0100
0000
0001
0100
0000
1000
0100
0000
0001
0100
0000
1000
0100
,
1000
0000
0000
0000
0101
0000
2002
3003
0000
1000
0100
0000
0220
0000
0330
0000
,
0110
0000
0010
0001
0000
0001
1000
0000
1000
0010
0000
0010
0200
0000
0000
0000
,
0301
0000
1000
0100
1000
0010
0100
0000
0001
0100
0001
1000
0100
0010
0100
1000
,
0001
0010
0000
1000
0010
0000
0001
0010
0000
1000
0010
0000
0001
0010
0100
1000
,
0001
0000
1000
0010
1000
0100
0010
0000
0001
0010
0001
1000
0010
0100
0010
1000
,
0001
0100
0000
1000
0100
0000
0001
0100
0000
1000
0100
0000
0002
0000
1000
0000
,
1003
0000
0001
0010
0001
0100
0010
0000
1000
0010
1000
0001
0010
0100
0010
0001
,
1000
0100
0000
0001
0100
0000
1000
0100
0000
0001
0100
0000
1000
0100
0010
0001
,
1000
0000
0001
0100
0001
0010
0100
0000
1000
0100
1000
0001
0100
0010
0100
0001
,
0010
0000
0010
0000
0100
0010
0100
1000
0001
1000
0010
0100
0002
0000
0000
0000
,
1003
0000
0010
0100
0001
0000
0010
0100
1000
0000
0010
0100
0010
1000
0001
0000
,
0010
1000
0000
0010
0001
0000
0010
1000
0000
0010
0001
0000
0010
1000
0000
0010
,
0001
0000
0100
0010
1000
0000
0100
0010
0001
0000
0100
0010
0100
0001
1000
0000
,
0100
0001
0000
0100
1000
0000
0100
0001
0000
0100
1000
0000
2100
0000
0000
0000
,
3001
0000
0010
0100
1000
0000
0010
0100
0001
0000
0010
0100
0010
0001
1000
0000
,
0010
0001
0000
0010
1000
0000
0010
0001
0000
0010
1000
0000
0010
0001
0000
0010
,
1000
0000
0100
0010
0001
0000
0100
0010
1000
0000
0100
0010
0100
1000
0001
0000
,
0000
0000
0101
0000
0000
1100
0000
0000
0101
0000
0000
2002
0000
0000
0000
0000
,
3003
0001
0001
0000
0001
0001
0000
0001
,
0000
0001
0000
0000
0001
0001
0000
0001
,
0000
1000
1000
0000
1000
1000
0000
1000
,
0000
1000
0000
0000
2000
0000
0000
3000
,
2002
0000
0000
0000
,
0000
0000
0000
3003
,
0000
0000
0000
0000
,
0000
0000
0000
0000
,
0101
0000
0000
0001
0100
0000
0020
0000
0000
1030
0100
0000
0020
0000
0030
0000
,
0001
0010
1000
0001
0100
1000
0001
0010
,
0100
0000
1000
0010
1000
0000
0001
0000
0010
0100
0010
0000
0002
0000
0003
0000
,
1000
0010
0001
1000
0100
0001
1000
0010
,
0100
0000
0000
0001
0010
0000
0200
0000
0000
1300
0010
0000
0200
0000
0300
0000
,
0001
0100
1000
0001
0010
1000
0001
0100
,
0010
0000
1000
0100
1000
0000
0001
0000
0100
0010
0100
0000
0002
0000
0003
0000
,
1000
0000
1000
0000
0100
0001
0000
0100
1000
0000
0100
0010
0200
0000
0000
0000
,
1300
0000
0010
0100
0000
1000
0100
0000
0010
0100
0000
0001
1000
0000
0000
0000
,
0001
0010
1000
0001
0100
1000
0001
1000
,
0010
0000
0100
0010
0000
0001
0010
0000
0100
0010
0000
1000
0001
0000
0000
0000
,
1000
0100
0001
1000
0010
0001
1000
0010
,
1000
0000
0010
0100
0000
1000
0100
0000
0010
0100
0000
0001
1000
0000
0000
0000
,
0001
0010
1000
0001
0100
1000
0001
1000
,
0010
0000
0100
0010
0000
0001
0010
0000
0100
0010
0000
1000
0001
0000
0000
0000
,
1010
0000
0000
0011
0000
0000
1010
0000
0000
0011
0000
1000
0001
0000
0000
0000
,
0011
0000
0010
0001
0100
0000
0110
0000
0010
1000
0100
0000
0120
0000
0030
0000
,
1100
0000
1000
0001
0100
0000
0010
0100
0001
0010
0001
1000
0100
0010
0100
1000
,
0001
0000
1000
0010
0100
0000
0110
0000
0010
1000
0100
0000
0210
0000
0300
0000
,
0022
0000
0000
0000
0000
0000
0033
0000
0011
0000
0001
1000
0010
0000
0100
0000
,
0101
0000
0001
0010
0100
0000
0110
0000
0010
0001
0100
0000
0120
0000
0000
0030
,
1010
0000
1000
0001
0010
0000
0100
0010
0001
0100
0001
1000
0010
0100
0010
1000
,
0001
0000
1000
0100
0010
0000
0110
0000
0100
1000
0010
0000
0120
0000
0030
0000
,
0101
0000
0001
0100
0000
1000
0100
0000
0001
0100
0000
1000
0100
0000
0001
0000
,
0011
0000
0010
0001
0100
0000
0110
0000
0010
1000
0100
0000
0120
0000
0030
0000
,
1100
0000
1000
0001
0100
0000
0010
0100
0001
0010
0001
1000
0100
0010
0100
1000
,
0001
0000
1000
0010
0100
0000
0110
0000
0010
1000
0100
0000
0210
0000
0300
0000
,
0022
0000
0000
0033
0022
0000
0000
0033
0011
0000
0001
1000
0010
0000
0100
0000
,
0101
0000
0001
0010
0100
0000
0110
0000
0010
0001
0100
0000
0120
0000
0000
0030
,
1010
0000
1000
0001
0010
0000
0100
0010
0001
0100
0001
1000
0010
0100
0010
1000
,
0001
0000
1000
0100
0010
0000
0110
0000
0100
1000
0010
0000
0120
0000
0030
0000
,
0101
0000
0001
0100
0000
1000
0100
0000
0001
0100
0000
1000
0200
0000
0000
0000
,
0301
0000
0010
0100
0010
0000
0001
0000
0100
0010
0100
0001
1000
0000
0100
0000
,
0010
0000
0001
0010
0000
1000
0010
0000
0001
0010
0000
1000
0010
0000
0001
0010
,
0001
0000
0100
0010
0100
0000
0001
0000
0010
0100
0010
0001
1000
0000
0010
0000
,
0100
0000
1000
0100
0000
0001
0100
0000
1000
0100
0000
0001
0100
0000
0010
0000
,
1000
0000
0100
0010
0100
0000
1000
0000
0010
0100
0010
1000
0001
0000
0010
0000
,
0100
0000
1000
0100
0000
0001
0100
0000
1000
0100
0000
0001
0100
0000
1000
0100
,
1000
0000
0000
0000
1100
0000
2002
3003
0000
0001
0100
0000
0220
0000
0330
0000
,
0210
0000
0010
0000
0310
0100
0010
1000
0001
1000
0100
0010
0002
0000
0000
0000
,
1003
0000
0100
0010
0100
0000
1000
0000
0010
0100
0010
1000
0001
0000
0010
0000
,
0100
0000
1000
0100
0000
0001
0100
0000
1000
0100
0000
0001
0100
0000
1000
0100
,
1000
0000
0010
0100
0010
0000
1000
0000
0100
0010
0100
1000
0001
0000
0100
0000
,
0010
0000
0001
0010
0000
1000
0010
0000
0001
0010
0000
1000
0010
0000
0100
0000
,
0001
0000
0010
0100
0010
0000
0001
0000
0100
0010
0100
0001
1000
0000
0100
0000
,
0010
0000
0001
0010
0000
1000
0010
0000
0001
0010
0000
1000
0010
0000
0001
0010
,
0001
0001
0100
0100
1000
1000
0100
0100
,
0001
0000
0010
0000
0100
1000
0100
1000
0001
0100
0010
0100
0100
0000
0000
0000
;
