#VERSION:0.83;
#TITLE:March Of The Pigs;
#SUBTITLE:;
#ARTIST:Nine Inch Nails;
#TITLETRANSLIT:;
#SUBTITLETRANSLIT:;
#ARTISTTRANSLIT:;
#GENRE:;
#CREDIT:;
#MUSIC:March Of The Pigs.ogg;
#BANNER:March Of The Pigs.png;
#BACKGROUND:March Of The Pigs-bg.png;
#CDTITLE:;
#SAMPLESTART:26.255;
#SAMPLELENGTH:12.938;
#SELECTABLE:YES;
#OFFSET:-0.380;
#BPMS:0.000=134.492
,172.000=133.492
,176.000=134.492
,180.000=133.492
,182.000=132.492
,188.000=130.492
,190.000=129.492
,196.000=126.492
,196.500=122.492
,197.000=112.492
,197.500=102.000
,200.000=135.000
,200.500=116.000
,201.000=93.000
,201.500=86.000
,202.000=60.000
,203.000=65.000
,204.000=7.000
;
#STOPS:;
#TIMESIGNATURES:0.000=7=8,
10.500=8=8,
14.500=7=8,
25.000=8=8,
29.000=7=8,
39.500=8=8,
43.500=7=8,
54.000=8=8,
58.000=7=8,
68.500=8=8,
72.500=7=8,
83.000=8=8,
87.000=7=8,
97.500=8=8,
101.500=7=8,
112.000=8=8,
116.000=4=4
;
#DISPLAYBPM:134.492;
#BGCHANGES:;
#FGCHANGES:;

//--------------- dance-single - ----------------
#NOTEDATA:;
#STEPSTYPE:dance-single;
#DESCRIPTION:;
#DIFFICULTY:Beginner;
#METER:8;
#RADARVALUES:0,0,0,0,0;
#NOTES:
M000
0000
0000
0000
0000
0000
M000
M000
,
0000
0000
0000
0000
0000
M000
M000
0000
,
0000
0000
0000
0000
M000
M000
0000
0000
,
0000
M000
0000
M000
0000
M000
M000
0000
M000
0000
M000
0000
0000
0000
0000
0000
,
0000
0000
0000
M000
M000
0000
0000
0000
,
0000
0000
M000
M000
0000
0000
0000
0000
,
0000
0000
M000
0000
M000
0000
0000
0000
0000
0000
0000
M000
0000
M000
0000
M000
,
M000
M000
1M00
0000
0000
0000
0100
0000
,
000M
0M01
0000
0000
0000
0100
0000
M000
,
1M00
0000
0000
0000
0010
0000
000M
00M1
,
0000
0000
0000
0000
0000
00M0
0010
00M0
0000
M000
10M0
0000
000M
0000
M001
0000
,
0000
0000
0000
0010
0000
M000
10M0
0000
,
0000
0000
0010
0000
000M
00M1
0000
0000
,
0000
0000
0100
0000
0000
0000
M000
0000
1M00
0000
0000
0000
0000
0000
0000
0M00
,
0100
0M00
0000
000M
0M01
0000
M000
0000
100M
0000
0000
0000
0000
0000
0000
0000
,
2200
3300
000M
M001
0000
0000
0000
0202
,
0303
M000
100M
0000
0000
0000
2020
3030
,
000M
0000
M001
0000
0000
0000
0100
0000
0000
00M0
0010
00M0
0000
M000
10M0
0000
,
000M
M001
0000
0000
0000
0022
0033
M000
,
100M
0000
0000
0000
2020
3030
000M
M001
,
0000
0000
0000
0202
0303
M000
100M
0000
,
0010
0000
0000
0M00
0100
0M00
0000
000M
0M01
0000
M000
0000
100M
0000
0000
0000
,
0000
0000
0100
0000
000M
0M01
0000
0000
,
0000
0100
0000
00M0
0M10
0000
0000
0000
,
0001
0000
0000
0000
00M0
0000
001M
0000
0000
0000
0000
0000
0000
0M00
0100
0M00
,
0000
M000
1M00
0000
000M
0000
M001
0000
0000
0000
0000
0000
0000
0000
0100
0000
,
0000
M000
1M00
0000
0000
0000
0100
0000
,
00M0
0M10
0000
0000
0000
1000
0000
0M00
,
M100
0000
0000
0000
0000
0000
0000
00M0
0010
00M0
0000
000M
00M1
0000
000M
0000
,
1000
1000
1000
1000
,
0010
0010
0010
0010
,
0100
0100
0100
0100
,
0001
0001
0001
0001
,
1000
1000
1000
1000
,
0100
0100
0100
0100
,
0010
0010
0010
0010
,
0001
0001
0001
0001
,
0100
0100
0100
0100
,
0001
0001
0001
0001
,
0010
0010
0010
0010
,
0100
0100
0100
0100
,
1000
1000
1000
1000
,
0010
0010
0010
0010
,
1000
0000
0000
0100
0000
0000
0000
0000
,
0001
0000
0000
0000
,
0100
0000
0000
1000
0000
0000
0000
0000
,
0001
0000
0000
0000
,
0100
0000
0000
0010
0000
0000
0000
0000
,
1000
0000
0000
0000
,
0100
0000
0000
0010
0000
0000
0000
0000
,
0001
0100
0010
1000
0100
0000
0010
0000
,
0001
0000
0000
0000
;

//--------------- dance-single - ----------------
#NOTEDATA:;
#STEPSTYPE:dance-single;
#DESCRIPTION:;
#DIFFICULTY:Easy;
#METER:9;
#RADARVALUES:0,0,0,0,0;
#NOTES:
M000
0000
0000
0000
0000
0000
M000
M000
,
0000
0000
0000
0000
0000
M000
M000
0000
,
0000
0000
0000
0000
M000
M000
0000
0000
,
0000
M000
0000
M000
0000
M000
M000
0000
M000
0000
M000
0000
0000
0000
0000
0000
,
0000
0000
0000
M000
M000
0000
0000
0000
,
0000
0000
M000
M000
0000
0000
0000
0000
,
0000
0000
M000
0000
M000
0000
0000
0000
0000
0000
0000
M000
0000
M000
0000
M000
,
M000
M000
1M00
0000
0100
0000
0010
0000
,
M100
1M00
0000
0010
0000
0100
0000
M010
,
10M0
0000
0100
0000
0010
0000
M001
100M
,
0000
0000
0010
0000
0100
000M
0001
00M0
0010
0M00
01M0
0000
001M
0000
00M1
0000
,
0000
0100
0000
0010
0000
010M
0M01
0000
,
0010
0000
0100
0000
001M
00M1
0000
0100
,
0000
0000
0010
0000
0000
0000
100M
0000
M001
0000
0000
0000
0010
0000
0100
M000
,
1000
00M0
0010
0M00
01M0
0000
M010
0000
1M00
0000
0000
0000
0100
0000
0000
0000
,
0022
0033
M000
10M0
0000
0010
0000
0202
,
0303
M000
1M00
0000
0100
0000
0202
0303
,
M000
0000
10M0
0000
0000
0000
0010
0000
0000
00M1
0000
00M0
0010
M000
10M0
0000
,
M000
0M01
0000
0100
0000
2020
3030
000M
,
00M1
0000
0010
0000
2200
3300
000M
0M01
,
0000
0100
0000
2200
3300
000M
00M1
0000
,
0010
0000
0000
10M0
0000
00M0
0010
000M
00M1
0000
000M
0000
10M0
0000
0000
0000
,
0010
0000
0100
0000
M000
1M00
0000
0100
,
0000
0001
0000
M000
10M0
0000
0010
0000
,
0001
0000
0000
0000
00M0
0000
0M10
0000
0000
0000
0100
0000
0000
000M
0001
M000
,
1000
000M
M001
0000
100M
0000
M001
0000
0000
0000
0010
0000
0000
0000
0100
0000
,
0000
000M
0M01
0000
0100
0000
1000
0000
,
000M
00M1
0000
0010
0000
1000
0000
00M0
,
0M10
0000
0000
0000
0100
0000
0000
M000
1000
000M
0001
M000
100M
0000
M001
0000
,
1000
1000
1000
1000
,
0100
0100
0100
0100
,
0010
0010
0010
0010
,
0001
0001
0001
0001
,
1000
1000
1000
1000
,
0010
0010
0010
0010
,
0100
0100
0100
0100
,
0001
0001
0001
0001
,
0010
0010
0010
0010
,
0001
0001
0001
0001
,
0100
0100
0100
0100
,
0010
0010
0010
0010
,
1000
1000
1000
1000
,
0100
0100
0100
0100
,
1000
0000
0010
0001
0000
0010
1000
0000
,
0001
0000
0000
0000
0000
0000
0000
1000
,
0001
0000
0100
1000
0000
0100
0001
0000
,
1000
0000
0000
0000
,
0001
0000
0000
0100
0000
0000
0000
0000
,
0010
0000
0000
0000
,
1000
0000
0100
0010
0000
0000
0000
0000
,
0001
0010
0100
1000
0010
0000
0100
0000
,
0001
0000
0000
0000
;

//--------------- dance-single - ----------------
#NOTEDATA:;
#STEPSTYPE:dance-single;
#DESCRIPTION:;
#DIFFICULTY:Medium;
#METER:11;
#RADARVALUES:0,0,0,0,0;
#NOTES:
M000
0000
0000
0000
0000
0000
M000
M000
,
0000
0000
0000
0000
0000
M000
M000
0000
,
0000
0000
0000
0000
M000
M000
0000
0000
,
0000
M000
0000
M000
0000
M000
M000
0000
M000
0000
M000
0000
0000
0000
0000
0000
,
0000
0000
0000
M000
M000
0000
0000
0000
,
0000
0000
M000
M000
0000
0000
0000
0000
,
0000
0000
M000
0000
M000
0000
0000
0000
0000
0000
0000
M000
0000
M000
0000
M000
,
M000
0000
M000
0000
1M00
0000
0000
0000
0100
0000
0000
0010
0000
0000
0000
0000
,
M001
0000
100M
0000
0000
0000
0010
0000
0000
0100
0000
0000
0000
0000
M001
0000
,
100M
0000
0000
0000
0100
0000
0000
0010
0000
0000
0000
0000
M001
0000
100M
0000
,
0000
0000
0010
0000
0000
01M0
0000
00M0
0010
M000
10M0
0000
M000
0000
M001
0000
,
0000
0000
0100
0000
0000
0010
0000
0000
0000
0000
100M
0000
M001
0000
0000
0000
,
0010
0000
0000
0100
0000
0000
0000
0000
100M
0000
M001
0000
0000
0000
0100
0000
,
0000
0010
0000
0000
0000
0000
100M
0000
M001
0000
0000
0000
0010
0000
0000
01M0
,
0000
00M0
0010
000M
00M1
0000
000M
0000
1M00
0000
0000
0000
0100
0000
0000
0010
,
2000
0000
3010
0000
000M
0000
00M1
0000
0000
0000
0100
0000
0000
0010
0002
0000
,
0013
0000
M000
0000
10M0
0000
0000
0000
0010
0000
0000
0100
2000
0000
3100
0000
,
000M
0000
0M01
0000
0000
0000
0010
0000
0000
01M0
0000
000M
0001
0M00
M100
0000
,
100M
0000
M001
0000
0000
0000
0100
0000
0000
1000
0200
0000
0310
0000
M000
0000
,
10M0
0000
0000
0000
0100
0000
0000
0001
0200
0000
0310
0000
000M
0000
00M1
0000
,
0000
0000
0010
0000
0000
1000
0020
0000
0130
0000
M000
0000
1M00
0000
0000
0000
,
0010
0000
0000
00M1
0000
00M0
0010
0M00
010M
0000
M001
0000
100M
0000
0000
0000
,
0100
0000
1000
0010
0000
0010
0001
0000
M000
0000
100M
0000
0000
0000
0010
0000
,
1000
0100
0000
0100
0001
0000
M000
0000
100M
0000
0000
0000
0100
0000
0001
0001
,
0000
0100
0010
0000
M000
0000
10M0
0000
0000
0000
0010
0000
0001
00M1
0000
0M10
,
0100
00M0
0M00
0000
100M
0000
M001
0000
0000
0000
0010
0000
0001
0100
0000
0100
,
1000
0000
000M
0000
M001
0000
0000
0000
0100
0000
0001
0010
0000
0010
1000
0000
,
000M
0000
M001
0000
0000
0000
0010
0000
1000
1000
0000
0010
0100
0000
000M
0000
,
0M01
0000
0000
0000
0100
0000
1000
1M00
0000
01M0
0010
0M00
00M0
0000
M001
0000
,
1000
L000
1000
L000
1000
L000
1000
L000
,
0010
00L0
0010
00L0
0010
00L0
0010
00L0
,
0100
0L00
0100
0L00
0100
0L00
0100
0L00
,
0001
000L
0001
000L
0001
000L
0001
000L
,
1000
L000
1000
L000
1000
L000
1000
L000
,
0100
0L00
0100
0L00
0100
0L00
0100
0L00
,
0010
00L0
0010
00L0
0010
00L0
0010
00L0
,
0001
000L
0001
000L
0001
000L
0001
000L
,
0100
0L00
0100
0L00
0100
0L00
0100
0L00
,
0001
000L
0001
000L
0001
000L
0001
000L
,
0010
00L0
0010
00L0
0010
00L0
0010
00L0
,
0100
0L00
0100
0L00
0100
0L00
0100
0L00
,
1000
L000
1000
L000
1000
L000
1000
L000
,
0010
00L0
0010
00L0
0010
00L0
0010
00L0
,
1000
0000
0100
0001
0000
0100
1000
0000
,
0001
0000
0000
0000
0000
0000
0000
1000
,
0001
0000
0010
1000
0000
0010
0001
0000
,
1000
0000
0000
0000
,
0001
0000
0000
0010
0000
0000
0000
0000
,
0100
0000
0000
0000
,
1000
0000
0010
0100
0000
0000
0000
0000
,
0001
0100
0010
1000
0100
0000
0010
0000
,
0001
0000
0000
0000
;

//--------------- dance-single - ----------------
#NOTEDATA:;
#STEPSTYPE:dance-single;
#DESCRIPTION:;
#DIFFICULTY:Hard;
#METER:14;
#RADARVALUES:0,0,0,0,0;
#NOTES:
M000
0000
0000
0000
0000
0000
M000
M000
,
0000
0000
0000
0000
0000
M000
M000
0000
,
0000
0000
0000
0000
M000
M000
0000
0000
,
0000
M000
0000
M000
0000
M000
M000
0000
M000
0000
M000
0000
0000
0000
0000
0000
,
0000
0000
0000
M000
M000
0000
0000
0000
,
0000
0000
M000
M000
0000
0000
0000
0000
,
0000
0000
M000
0000
M000
0000
0000
0000
0000
0000
0000
M000
0000
M000
0000
M000
,
M000
0000
M000
0000
10M0
0000
0000
0000
0010
0000
0000
0100
0000
1000
0000
0000
,
010M
0000
0M01
0000
0000
0000
0010
0000
0000
0100
0000
0001
0000
0000
M100
0000
,
1M00
0000
0000
0000
0010
0000
0000
0001
0000
0010
0000
0000
100M
0000
M001
0000
,
0000
0000
0010
0000
0000
00M1
0000
000M
0100
00M0
0M10
0000
100M
0000
M001
0000
,
0000
0000
0100
0000
0000
0010
0000
0001
0000
0000
M010
0000
10M0
0000
0000
0000
,
0100
0000
0000
0010
0000
1000
0000
0000
001M
0000
00M1
0000
0000
0000
0100
0000
,
0000
1000
0000
0100
0000
0000
M001
0000
100M
0000
0000
0000
0100
0000
0000
1M00
,
0000
M000
0010
0M00
01M0
0000
M001
0000
100M
0000
0100
0000
0011
0000
0000
0000
,
0110
0LL0
2002
3003
000M
0000
0M01
0000
0100
0000
1010
0000
0000
0000
1001
L00L
,
0220
0330
M000
0000
10M0
0000
0010
0000
0101
0000
0000
0000
0110
0LL0
2002
3003
,
000M
0000
00M1
0000
0010
0000
1100
0000
0000
M001
0000
1M00
0100
00M0
001M
0000
,
M001
0000
100M
0000
0010
0000
0101
0000
0000
0000
0110
0LL0
2002
3003
000M
0000
,
00M1
0000
0010
0000
1100
0000
0000
0000
1001
L00L
0220
0330
M000
0000
1M00
0000
,
0100
0000
0011
0000
0000
0000
0110
0LL0
2002
3003
000M
0000
0M01
0000
0100
0000
,
1010
0000
0000
M001
0000
10M0
0010
0M00
010M
0000
M001
0000
100M
0000
0100
0000
,
0001
0100
1000
L000
M001
100M
0010
0001
,
0010
1000
L000
M001
100M
0100
0001
0010
,
1000
0000
L000
0000
M001
0000
100M
0000
0010
0000
0001
0000
0100
M000
1000
00M0
,
L000
00M0
0M10
0000
010M
0000
0M01
0000
0010
0000
1000
0000
0010
0000
0001
0000
,
000L
100M
M001
0100
1000
0100
0001
000L
,
100M
M001
0010
1000
0100
0001
000L
100M
,
M001
0000
0100
0000
1000
0000
0010
000M
0001
0M00
000L
0M00
01M0
0000
M010
0000
,
1000
L010
1000
L010
1000
L010
1000
L010
,
0100
0L01
0100
0L01
0100
0L01
0100
0L01
,
0010
10L0
0010
10L0
0010
10L0
0010
10L0
,
0001
010L
0001
010L
0001
010L
0001
010L
,
1000
L100
1000
L100
1000
L100
1000
L100
,
0010
00L1
0010
00L1
0010
00L1
0010
00L1
,
0100
1L00
0100
1L00
0100
1L00
0100
1L00
,
0001
001L
0001
001L
0001
001L
0001
001L
,
1000
L010
1000
L010
1000
L010
1000
L010
,
0100
0L01
0100
0L01
0100
0L01
0100
0L01
,
1000
L100
1000
L100
1000
L100
1000
L100
,
0010
00L1
0010
00L1
0010
00L1
0010
00L1
,
0100
1L00
0100
1L00
0100
1L00
0100
1L00
,
0001
010L
0001
010L
0001
010L
0001
010L
,
1000
0100
0001
0100
0000
1000
0010
0100
,
0101
0000
0000
0000
0000
0000
0000
1000
,
0001
0100
1000
0100
0000
0001
0010
0100
,
1100
0000
0000
0000
,
0001
0000
0000
0100
0000
0000
0000
0000
,
1010
0000
0000
0000
,
0100
0010
0001
1000
0000
0000
0000
0000
,
0001
0010
0100
1000
0010
0000
0100
0000
,
0001
0000
0000
0000
;

//--------------- dance-single - ----------------
#NOTEDATA:;
#STEPSTYPE:dance-single;
#DESCRIPTION:;
#DIFFICULTY:Challenge;
#METER:18;
#RADARVALUES:0,0,0,0,0;
#NOTES:
M000
0000
0000
0000
0000
0000
M000
M000
,
0000
0000
0000
0000
0000
M000
M000
0000
,
0000
0000
0000
0000
M000
M000
0000
0000
,
0000
M000
0000
M000
0000
M000
M000
0000
M000
0000
M000
0000
0000
0000
0000
0000
,
0000
0000
0000
M000
M000
0000
0000
0000
,
0000
0000
M000
M000
0000
0000
0000
0000
,
0000
0000
M000
0000
M000
0000
0000
0000
0000
0000
0000
M000
0000
M000
0000
M000
,
M000
0000
M000
0000
1M00
0000
0100
0000
1000
0000
0010
0100
0000
0001
0010
0000
,
00M1
0000
10M0
0000
0010
0000
1000
0000
0100
0010
0000
0001
0100
0000
0M01
0000
,
1M00
0000
0100
0000
0010
0000
0100
1000
0000
0001
0100
0000
0M01
0000
10M0
0000
,
0010
0000
0100
0000
0000
001M
0000
10M0
0001
0M10
M100
1000
0M10
0100
0M01
0000
,
0100
0000
0001
0000
0010
0100
0000
1000
0010
0000
10M0
0000
00M1
0000
0010
0000
,
0001
0000
0100
0010
0000
1000
0100
0000
1M00
0000
0M01
0000
0100
0000
0010
0000
,
0100
0001
0000
1000
0100
0000
1M00
0000
00M1
0000
0010
0000
0100
0000
0000
M010
,
0000
00M1
1000
0M10
010M
0001
0M10
0100
11M0
0000
0010
0000
0101
0000
0000
0110
,
0LL0
0000
2002
0000
30M3
0000
M011
0000
1000
0000
0101
0000
0000
1001
L00L
0000
,
0220
0000
M330
0000
1M10
0000
0100
0000
0011
0000
0000
0110
0LL0
0000
2002
0000
,
30M3
0000
200M
0000
0000
0000
3200
0000
0000
032M
0000
0M31
0100
M010
100M
0001
,
M100
0000
01M1
0000
0010
0000
1100
0000
0000
0110
0LL0
0000
2002
0000
30M3
0000
,
101M
0000
0001
0000
1100
0000
0000
1001
L00L
0000
0220
0000
M330
0000
11M0
0000
,
0010
0000
0101
0000
0000
0110
0LL0
0000
2002
0000
3M03
0000
M002
0000
0000
0000
,
0203
0000
0000
M320
0000
1M30
0100
001M
M001
1000
010M
0000
110M
0000
0001
0000
,
0100
0000
0010
0001
0000
0010
1000
0000
M001
0000
101M
0000
0001
0000
0010
0000
,
0100
0001
0000
0100
1000
0000
M001
0000
011M
0000
0001
0000
0100
0000
1000
0100
,
0000
0001
0010
0000
01M0
0000
1M01
0000
0010
0000
0100
0000
0011
0M00
0110
M000
,
1100
000M
1M01
0000
011M
0000
M011
0000
1000
0000
0010
0000
0100
1000
0000
0100
,
0001
0000
100M
0000
M101
0000
1000
0000
0100
0000
0010
1000
0000
0010
0001
0000
,
100M
0000
M110
0000
1000
0000
0010
0000
0001
0010
0000
1000
0100
0000
0M10
0000
,
10M1
0000
0100
0000
0010
0000
1100
00M0
0110
000M
0011
M000
10M1
0000
M110
0000
,
10M0
L0M0
10M0
L0M0
10M0
L0M0
10M0
L0M0
10M0
L0M0
10M0
L0M0
10M0
L0M0
10M0
L0M0
,
01M0
0LM0
01M0
0LM0
01M0
0LM0
01M0
0LM0
01M0
0LM0
01M0
0LM0
01M0
0LM0
01M0
0L00
,
0010
00L0
0010
00L0
0010
00L0
0010
00L0
0010
00L0
0010
00L0
0010
00L0
0010
00L0
,
0001
000L
0001
000L
0001
000L
0001
000L
0001
000L
0001
000L
0001
000L
0001
000L
,
1M00
LM00
1M00
LM00
1M00
LM00
1M00
LM00
1M00
LM00
1M00
LM00
1M00
LM00
1M00
LM00
,
0M10
0ML0
0M10
0ML0
0M10
0ML0
0M10
0ML0
0M10
0ML0
0M10
0ML0
0M10
0ML0
0M10
00L0
,
0100
0L00
0100
0L00
0100
0L00
0100
0L00
0100
0L00
0100
0L00
0100
0L00
0100
0L00
,
0001
000L
0001
000L
0001
000L
0001
000L
0001
000L
0001
000L
0001
000L
0001
000L
,
M010
M0L0
M010
M0L0
M010
M0L0
M010
M0L0
M010
M0L0
M010
M0L0
M010
M0L0
M010
M0L0
,
M001
M00L
M001
M00L
M001
M00L
M001
M00L
M001
M00L
M001
M00L
M001
M00L
M001
000L
,
0100
0L00
0100
0L00
0100
0L00
0100
0L00
0100
0L00
0100
0L00
0100
0L00
0100
0L00
,
0010
00L0
0010
00L0
0010
00L0
0010
00L0
0010
00L0
0010
00L0
0010
00L0
0010
00L0
,
100M
L00M
100M
L00M
100M
L00M
100M
L00M
100M
L00M
100M
L00M
100M
L00M
100M
L00M
,
010M
0L0M
010M
0L0M
010M
0L0M
010M
0L0M
010M
0L0M
010M
0L0M
010M
0L0M
010M
0L00
,
1000
0010
0001
0010
0000
1000
0100
0010
,
0011
0000
0000
0000
0000
0000
0000
1000
,
0001
0010
1000
0010
0000
0001
0100
0010
,
1010
0000
0000
0000
,
0001
0000
0000
0010
0000
0000
0000
0000
,
1100
0000
0000
0000
,
0010
0100
0001
1000
0000
0000
0000
0000
,
0001
0100
0010
1000
0100
0000
0010
0000
,
0001
0000
0000
0000
;
