#TITLE:魔法のかくれんぼ;
#SUBTITLE:;
#ARTIST:Snail's House;
#TITLETRANSLIT:Mahou no kakurenbo;
#SUBTITLETRANSLIT:;
#ARTISTTRANSLIT:;
#GENRE:FANTASY TOYPOP;
#CREDIT:;
#BANNER:Maho no kakurenbo.png;
#BACKGROUND:Maho no kakurenbo-bg.png;
#LYRICSPATH:;
#CDTITLE:;
#MUSIC:Maho no kakurenbo.ogg;
#OFFSET:-0.058000;
#SAMPLESTART:34.101944;
#SAMPLELENGTH:16.179775;
#SELECTABLE:YES;
#BPMS:0.000000=178.000000
,239.000000=188.000000
,265.000000=198.000000
,289.000000=208.000000
,313.000000=198.000000
,316.000000=188.000000
,319.000000=178.000000
;
#STOPS:239.000000=2.334000,
331.000000=1.685000
;
#BGCHANGES:0.000=Maho no kakurenbo.avi=1.000=1=0=0=StretchNoLoop==CrossFade==,
99999=-nosongbg-=1.000=0=0=0 // don't automatically add -songbackground-
;
#KEYSOUNDS:;
#ATTACKS:;

//---------------dance-single - ----------------
#NOTES:
     dance-single:
     :
     Hard:
     13:
     0.439611,0.703495,0.139876,0.954450,0.082280,374.000000,357.000000,17.000000,116.000000,0.000000,0.000000,0.439611,0.703495,0.139876,0.954450,0.082280,374.000000,357.000000,17.000000,116.000000,0.000000,0.000000:
// measure 0
0000
0000
0000
0000
,  // measure 1
0000
0000
0000
0000
,  // measure 2
0000
0000
0000
0000
,  // measure 3
0000
0000
0000
0000
0000
0000
0000
0000
0000
0000
0000
0000
0001
1000
0001
1000
,  // measure 4
0001
0001
0001
0000
0000
0000
0000
0000
,  // measure 5
0000
0000
0000
0000
0000
0000
0000
0000
0000
0000
0000
0000
0001
1000
0000
0000
,  // measure 6
0000
0001
0002
0000
,  // measure 7
0003
0000
1000
0000
0002
0000
0000
0003
,  // measure 8
0100
0000
0020
0000
0000
0030
1000
0000
,  // measure 9
0002
0000
0000
0003
0100
0000
0020
0000
,  // measure 10
0000
0030
1000
0000
0002
0000
0000
0003
,  // measure 11
0010
0000
0200
0000
0000
0300
0010
0000
,  // measure 12
1002
0000
0000
0003
2000
0000
0200
0000
,  // measure 13
3000
0300
0010
0000
0100
0000
1000
0000
,  // measure 14
0011
0000
0000
0000
1000
0001
0100
0000
,  // measure 15
0001
1000
1100
0100
,  // measure 16
0010
0001
1000
0010
1000
0010
1000
0010
,  // measure 17
0100
0001
0010
0100
0010
0001
1000
0000
,  // measure 18
0001
0100
0001
1000
,  // measure 19
0010
0000
1000
0100
0001
0200
0000
0000
,  // measure 20
1300
0010
0001
0020
0000
0000
0130
0001
,  // measure 21
1000
0000
0001
0000
0100
0000
0010
0000
4000
0004
0000
0000
0000
0000
0000
0000
,  // measure 22
0000
0000
0000
3003
0000
0000
0011
0000
0000
0000
0010
0000
0001
0000
0000
0000
0001
0000
0100
0000
0000
0000
0100
0000
,  // measure 23
0010
0000
0000
0000
0010
0000
1000
0000
0000
0000
1000
0000
0001
0000
0000
1000
0000
0000
0001
0000
0000
0000
0000
0000
,  // measure 24
0010
0100
1000
1000
,  // measure 25
0001
0200
0010
0302
,  // measure 26
0023
0100
0032
0203
,  // measure 27
2300
3200
0302
1000
,  // measure 28
0203
0320
0032
0023
,  // measure 29
2030
0000
0001
0000
3100
0010
0002
0000
,  // measure 30
0023
0032
0203
0010
,  // measure 31
0310
2000
0100
3100
,  // measure 32
0002
0100
0103
0002
,  // measure 33
2003
3002
2003
0100
,  // measure 34
3100
1000
0100
1000
,  // measure 35
0010
0100
0001
1000
,  // measure 36
0100
0001
0100
1000
,  // measure 37
0010
2000
0010
3001
,  // measure 38
0002
1000
0013
2000
,  // measure 39
0100
3001
0002
1000
,  // measure 40
0103
0200
0010
0301
,  // measure 41
0020
1000
0130
1002
,  // measure 42
0100
0103
0200
0302
,  // measure 43
0023
0030
0210
0000
2300
0000
0010
0000
,  // measure 44
0002
0000
3003
0102
,  // measure 45
0023
0100
0002
0000
,  // measure 46
0033
2100
0010
3002
,  // measure 47
0200
0003
0320
2030
,  // measure 48
0100
3100
0010
0001
,  // measure 49
0001
1000
0010
0001
,  // measure 50
0010
0000
1000
0000
0001
0010
0100
0000
,  // measure 51
0010
0001
1000
0100
,  // measure 52
0010
0100
1000
0001
1000
0001
1000
0001
,  // measure 53
2000
3200
0320
0032
0023
0230
2300
0000
,  // measure 54
0000
3020
0000
0230
0002
0000
0000
0000
,  // measure 55
0303
0000
0001
0010
1000
0020
0000
0000
,  // measure 56
0031
0100
1000
0200
0000
0000
0310
1000
,  // measure 57
0001
0000
0010
0000
0100
0000
1000
0000
0400
0040
0000
0000
0000
0000
0000
0000
,  // measure 58
0000
0000
0000
0000
,  // measure 59
0000
0000
0000
0330
,  // measure 60
0000
0000
1000
0100
0020
0000
0032
0000
,  // measure 61
0103
0010
2000
0000
3002
0000
0013
0100
,  // measure 62
2000
0000
3020
0000
0130
0001
2000
0000
,  // measure 63
3200
0000
0310
0100
2000
0000
3002
0000
,  // measure 64
0103
0001
0020
0000
0230
0000
0310
0001
,  // measure 65
0200
0000
0302
0000
1003
0100
0020
0000
,  // measure 66
0230
0000
1300
0010
0200
0000
0302
0000
,  // measure 67
0013
0100
2000
0000
3200
0000
0310
0100
,  // measure 68
2000
0000
3002
0000
0103
0001
0020
0000
,  // measure 69
0230
0000
0310
0001
2000
0000
3002
0000
,  // measure 70
0103
0001
0020
0000
0230
0000
0310
0001
,  // measure 71
0100
0000
0010
0000
1000
0000
0001
0000
0010
0000
0100
0000
1000
0001
1000
0001
,  // measure 72
1000
0001
1000
0001
1000
0000
0000
0000
1020
0000
0000
0000
0230
0000
0000
0000
,  // measure 73
0310
0102
0023
0130
,  // measure 74
2100
3002
0103
0102
,  // measure 75
0023
0130
1200
0320
,  // measure 76
0031
0201
0320
1030
,  // measure 77
1002
0023
0130
2100
,  // measure 78
3002
0000
1003
0010
0001
0020
0000
0000
,  // measure 79
1030
0100
0001
0200
0000
0000
1300
0100
,  // measure 80
0010
0000
0001
0000
1000
0000
0001
0000
0040
0400
0000
0000
0000
0000
0000
0000
,  // measure 81
0000
0000
0000
0000
,  // measure 82
0000
0000
0000
0330
,  // measure 83
1000
0000
0001
1000
0000
1000
0001
0000
0001
0010
0000
0010
,  // measure 84
0001
0000
0000
0000
0001
0000
1000
0000
0000
0001
0000
0000
1000
0000
0000
0000
0000
0000
0100
0000
0000
0000
0000
0000
,  // measure 85
0000
0022
0033
0000
;

//---------------dance-single - ----------------
#NOTES:
     dance-single:
     :
     Medium:
     8:
     0.303261,0.457272,0.057596,0.411401,0.000000,258.000000,251.000000,7.000000,50.000000,0.000000,0.000000,0.303261,0.457272,0.057596,0.411401,0.000000,258.000000,251.000000,7.000000,50.000000,0.000000,0.000000:
0000
0000
0000
0000
,
0000
0000
0000
0000
,
0000
0000
0000
0000
,
0000
0000
0000
2000
,
0000
3000
0000
0000
,
0000
0000
0000
0001
,
0000
0000
0000
0000
,
0000
0000
0100
0000
0020
0000
0000
0030
,
1000
0000
0200
0000
0000
0300
0010
0000
,
0002
0000
0000
0003
1000
0000
0020
0000
,
0000
0030
0100
0000
0002
0000
0000
0003
,
0010
0000
0200
0000
0000
0300
0000
2002
,
0000
0000
0000
3003
0200
0000
0000
0000
,
0000
0300
1001
0000
1000
0000
0010
0000
,
1000
0000
0000
0000
0100
0010
0001
0000
,
0010
0100
0010
0001
,
1000
0000
0001
0100
0001
0000
0010
0000
,
0100
1000
0100
0000
0010
0000
0001
0000
,
1000
0010
0100
0001
,
0010
0000
0100
0010
0001
2000
0000
0000
,
3001
0010
0100
0020
0000
0000
0130
1000
,
0010
0100
0001
0020
0200
0000
0000
0000
,
0000
0330
0000
0000
,
0000
0000
0000
0000
,
0000
0000
0000
0000
,
0000
2000
0000
3010
,
0200
0000
0310
1000
,
0100
0001
0200
0000
,
0310
0002
1003
0010
,
2000
0000
0000
0000
3010
0100
0001
0000
,
1000
0100
0020
0000
,
0000
0000
0230
0000
0000
1300
0000
0000
,
0020
0000
0130
0002
,
0000
0103
0000
0000
0020
0000
0000
0000
,
0130
0001
0010
1000
,
0010
0001
1000
0010
,
0001
0010
1000
0001
,
0100
0020
0000
0000
,
2000
0000
0030
0200
,
0000
3000
0020
0000
,
0300
0002
0000
0030
,
0020
0000
0003
0200
,
0000
0030
1300
0100
,
0010
1002
0000
0000
,
2000
0000
3003
2001
,
0000
0000
0002
0000
,
3003
0120
0000
0000
,
0230
0000
0010
0020
,
0000
0000
0330
0000
,
0000
1000
0010
1000
,
0100
0000
0000
0000
0010
0100
1000
0000
,
0100
1000
0010
0100
,
0001
0000
1000
0010
1000
0000
0010
0000
,
0100
0001
0010
0100
1000
0100
0020
0000
,
0000
0230
0000
1000
2000
0000
0000
0000
,
3300
0000
1000
0100
0010
0002
0000
0000
,
1003
0100
0010
0200
0000
0000
1300
0010
,
0100
0001
1000
0020
0200
0000
0000
0000
,
0000
0000
0000
0000
,
0000
0000
0000
0330
,
0000
1000
0001
0001
,
1000
0010
0010
1000
,
0100
0100
1000
0001
,
0001
1000
0010
0010
,
1000
0001
0001
1000
,
0100
0100
1000
0100
,
0100
0010
0001
0001
,
0010
0100
0100
0010
,
0001
0001
0010
0100
,
0100
1000
0100
0100
,
1000
0010
0010
1000
,
0001
0001
1000
0100
,
0100
1000
0010
0010
,
0100
0001
0001
0010
,
0100
0100
1000
0001
,
0001
0100
0010
0010
,
1000
0100
0100
1000
,
0010
0010
0100
0001
,
0001
0000
1000
0100
0010
0002
0000
0000
,
1003
0100
0010
0200
0000
0000
0310
0001
,
0100
0010
1000
0020
0200
0000
0000
0000
,
0000
0000
0000
0000
,
0000
0000
0000
0330
,
1000
0100
0001
0100
,
1000
0010
0101
1001
,
0000
0020
0030
0000
;

//---------------dance-single - ----------------
#NOTES:
     dance-single:
     :
     Easy:
     6:
     0.206876,0.316573,0.049368,0.246840,0.000000,176.000000,170.000000,6.000000,30.000000,0.000000,0.000000,0.206876,0.316573,0.049368,0.246840,0.000000,176.000000,170.000000,6.000000,30.000000,0.000000,0.000000:
0000
0000
0000
0000
,
0000
0000
0000
0000
,
0000
0000
0000
0000
,
0000
0000
0000
0000
,
0000
0000
0000
0000
,
0000
0000
0000
0000
,
0000
0000
0000
0000
,
0000
0000
2000
3000
,
0000
0002
0003
0000
,
2000
3000
0000
0002
,
0003
0000
0200
0300
,
0000
0020
0030
0000
,
0200
0300
0020
0000
,
0000
1030
0010
1000
,
0100
0000
0010
0100
,
1000
0100
0010
0100
,
1000
0001
0001
0001
,
1000
0001
0001
0100
,
0000
0000
0001
0000
,
0000
0011
0000
0000
,
1100
0000
0000
0101
,
0000
0000
2002
0000
,
0000
3003
0000
0000
,
0000
0000
0000
0000
,
0000
0000
0000
0000
,
0000
0001
0000
1000
,
0010
0000
1000
0100
,
0010
0100
1000
0000
,
0100
1000
0010
0100
,
0001
0000
0010
0001
,
1000
0010
1000
0000
,
0000
0001
0000
1000
,
0001
0000
0010
0001
,
0000
0100
0000
0000
0010
0000
0000
0000
,
0100
0010
1000
0010
,
0100
0001
0010
0100
,
0000
0000
0000
0000
,
0000
0020
0000
0000
,
0032
0000
0003
2000
,
0000
0000
3020
0000
,
0030
0200
0000
0000
,
0302
0000
0003
2000
,
0000
0000
3001
0010
,
0100
2000
0000
0000
,
0200
0000
3300
0020
,
0000
0000
0002
0000
,
0033
0002
0000
0000
,
0200
0000
0303
0020
,
0000
0000
0030
0000
,
0000
1000
0001
0010
,
0100
0000
0010
0100
,
1000
0100
0010
0100
,
1000
0010
0010
0010
,
0100
0010
1000
0001
,
0000
1000
0000
0000
0200
0000
0000
0000
,
0300
0000
1000
0000
0000
1000
0000
0000
,
0001
0000
0000
0001
0000
0000
0100
0000
,
0000
0010
0000
0000
2002
0000
0000
0000
,
0000
0000
0000
0000
,
0000
0000
0000
3003
,
0000
0000
1000
1000
,
0000
0001
0001
0000
,
1000
1000
0000
0001
,
0001
0000
1000
1000
,
0000
0001
0001
0000
,
1000
1000
0000
0001
,
0001
0100
0010
0010
,
0000
0100
0100
0000
,
0010
0010
0000
0100
,
0100
0000
0010
0010
,
0000
0100
0100
0000
,
0010
0010
0000
0100
,
0100
0000
0001
1000
,
0000
0001
1000
0000
,
0001
1000
0000
0001
,
1000
0000
1000
0001
,
0000
1000
0001
0000
,
1000
0001
0000
1000
,
0001
0100
0000
0000
,
0010
0000
0000
1000
,
0000
0000
2002
0000
,
0000
0000
0000
0000
,
0000
0000
0000
3003
,
1000
0100
0010
0001
,
0001
0010
0100
1000
,
0000
0020
0030
0000
;

//---------------dance-single - ----------------
#NOTES:
     dance-single:
     :
     Beginner:
     4:
     0.094034,0.175360,0.016456,0.106964,0.000000,80.000000,78.000000,2.000000,13.000000,0.000000,0.000000,0.094034,0.175360,0.016456,0.106964,0.000000,80.000000,78.000000,2.000000,13.000000,0.000000,0.000000:
0000
0000
0000
0000
,
0000
0000
0000
0000
,
0000
0000
0000
0000
,
0000
0000
0000
0000
,
0000
0000
0000
0000
,
0000
0000
0000
0000
,
0000
0000
0000
0000
,
0000
0000
1000
0000
,
0000
0001
0000
0000
,
1000
0000
0000
0001
,
0000
0000
1000
0000
,
0000
0001
0000
0000
,
0200
0300
0010
0000
,
0000
1001
0000
0000
,
0000
0000
0000
1000
,
0000
0000
0000
0000
,
0000
0010
0000
0000
,
0100
0000
0000
0001
,
0000
0000
0000
0000
,
0000
1000
0000
0000
,
0001
0000
0000
0100
,
0000
0000
0020
0000
,
0000
0030
0000
0000
,
0000
0000
0000
0000
,
0000
0000
0000
0000
,
0000
1000
0000
0000
,
0001
0000
0000
0010
,
0000
0000
0100
0000
,
0000
0010
0000
0000
,
0001
0000
0000
1000
,
0000
0000
0010
0000
,
0000
1000
0000
0000
,
0100
0000
0000
1000
,
0000
0000
0010
0000
,
0000
0100
0000
0000
,
0000
0000
0000
0000
,
0000
0000
0000
0000
,
0000
0002
0000
0000
,
0000
0000
0003
2000
,
0000
0000
0000
0000
,
3000
0020
0000
0000
,
0000
0000
0030
0200
,
0000
0000
0000
0000
,
0300
0020
0000
0000
,
0000
0000
0030
2000
,
0000
0000
0000
0000
,
3000
0002
0000
0000
,
0000
0000
0003
0020
,
0000
0000
0030
0000
,
0000
0100
0000
0000
,
0000
0000
0000
0010
,
0000
0000
0000
0000
,
0000
0001
0000
0000
,
0200
0000
0000
0000
,
0000
0000
0300
0000
,
0000
0010
0000
0000
,
1000
0000
0000
0001
,
0000
0000
0020
0000
,
0000
0000
0000
0000
,
0000
0000
0000
0030
,
0000
0000
0100
0000
,
0000
1000
0000
0000
,
0010
0000
0000
0100
,
0000
0000
0001
0000
,
0000
0010
0000
0000
,
0001
0000
0000
1000
,
0000
0000
0010
0000
,
0000
1000
0000
0000
,
0100
0000
0000
1000
,
0000
0000
0010
0000
,
0000
0100
0000
0000
,
0001
0000
0000
1000
,
0000
0001
0000
0000
,
1000
0000
0000
0010
,
0000
0000
1000
0000
,
0000
0100
0000
0000
,
0010
0000
0000
0001
,
0000
0000
0100
0000
,
0000
0010
0000
0000
,
1000
0000
0000
0001
,
0000
0000
0020
0000
,
0000
0000
0000
0000
,
0000
0000
0000
0030
,
0100
0000
0000
0010
,
0000
0000
0001
0000
,
0000
1001
0000
0000
;
