#TITLE:MY SUMMER LOVE;
#SUBTITLE:;
#ARTIST:mitsu-O! with GEILA;
#TITLETRANSLIT:;
#SUBTITLETRANSLIT:;
#ARTISTTRANSLIT:;
#GENRE:;
#CREDIT:;
#BANNER:MY SUMMER LOVE.png;
#BACKGROUND:MY SUMMER LOVE-bg.png;
#LYRICSPATH:;
#CDTITLE:;
#MUSIC:MY SUMMER LOVE.ogg;
#OFFSET:0.001000;
#SAMPLESTART:31.177797;
#SAMPLELENGTH:15.002298;
#SELECTABLE:YES;
#BPMS:0.000000=100.068001
,100.000000=50.034000
,108.000000=100.068001
;
#STOPS:
;
#BGCHANGES:;
#KEYSOUNDS:;
#ATTACKS:;

//---------------dance-single - ----------------
#NOTES:
     dance-single:
     :
     Challenge:
     13:
     0.494886,0.933210,0.235224,0.395603,0.465101,324.000000,302.000000,22.000000,37.000000,0.000000,0.000000,0.494886,0.933210,0.235224,0.395603,0.465101,324.000000,302.000000,22.000000,37.000000,0.000000,0.000000:
// measure 0
0000
0000
0000
0000
,  // measure 1
0000
0000
0000
0000
,  // measure 2
0000
0000
0000
0000
,  // measure 3
2000
0000
3002
0203
,  // measure 4
0310
0000
0100
0001
1000
0000
0100
0000
1000
0001
0100
0000
0010
0000
0000
0000
,  // measure 5
0000
0100
0001
1000
0200
0000
1300
0020
,  // measure 6
0000
0000
0100
0000
0130
0000
0001
0000
0010
0000
0100
0010
0100
0000
1000
0000
,  // measure 7
0000
0100
1000
0001
0200
0000
0301
0010
,  // measure 8
0200
0000
0000
0000
1000
0000
1300
0000
0010
0000
0100
0010
0100
0000
0001
0000
,  // measure 9
0000
0100
0001
1000
0200
1000
1300
0020
,  // measure 10
0000
0000
0100
0000
0130
0000
0001
0000
0010
0000
0100
0010
0100
0000
1000
0000
,  // measure 11
0000
0100
1000
0001
0200
0000
0301
0020
,  // measure 12
0000
0000
0000
0000
0000
0000
0030
0000
0000
0000
0000
0000
0000
0000
0000
0000
0000
0000
0100
0000
0000
0000
0000
0000
0020
0000
0000
0000
0000
0000
0031
0000
1000
0000
0001
0000
1000
0000
0000
0100
0000
0000
0010
0000
0000
0000
0000
0000
,  // measure 13
0001
0000
1000
0000
0010
0000
0100
0001
0000
0001
0100
0000
0010
0000
1000
0100
,  // measure 14
0000
0100
1000
0000
0001
0000
0010
0000
0012
0000
0103
0000
2010
0000
3100
0000
,  // measure 15
1000
0000
0001
0000
0010
0000
0100
1000
0000
1000
0100
0000
0010
0000
0001
0100
,  // measure 16
0000
0100
0001
0000
1000
0000
0010
0000
2010
0000
3100
0000
0012
0000
0103
0000
,  // measure 17
0001
0000
1000
0000
0010
0000
0100
0001
0000
0001
0100
0000
0010
0000
1000
0100
,  // measure 18
0000
0100
1000
0000
0001
0000
0010
0000
0012
0000
0103
0000
2010
0000
3100
0000
,  // measure 19
1000
0000
0001
0000
0010
0000
0100
1000
0000
1000
0100
0000
0010
0000
0001
0100
,  // measure 20
0000
0100
0001
0000
1000
0000
0010
0000
2010
0000
3100
0000
0012
0000
0103
0000
,  // measure 21
1010
0000
0100
0000
0010
0000
1000
0000
0100
0000
0010
0000
0100
1000
0000
0002
,  // measure 22
0000
0203
0000
2300
0000
0000
3100
0000
0001
0000
0010
0000
0100
1000
0001
0100
,  // measure 23
0020
0000
0130
0001
0000
0000
0020
0000
0000
0031
0100
0000
0010
1000
0100
2000
,  // measure 24
0000
3010
0100
0001
0010
0001
0010
0002
0000
0103
0010
1000
0010
1000
0100
0000
,  // measure 25
1000
0001
1000
0001
1000
0000
1001
0000
0010
0100
0010
0100
0010
0000
0110
0000
0001
1000
0001
1000
0001
0000
0010
0100
0000
0100
0010
0000
1001
0000
0000
0000
,  // measure 26
0010
0000
0000
0000
0000
0000
1000
0000
0000
0000
0000
0000
0010
0000
0000
0000
0000
0000
1000
0000
0000
0000
0000
0000
0010
0000
0000
0000
0000
0000
0000
0000
0000
0000
0000
0000
0100
0000
0000
0000
0000
0000
0001
0000
0000
0000
0000
0000
0000
0000
0000
0000
0000
0000
0001
0000
0000
0000
0000
0000
0010
0000
0000
0000
0000
0000
0100
0000
0000
0000
0000
0000
0110
0000
0000
0000
0000
0000
0000
0000
0000
0000
0000
0000
0000
0000
0000
0000
0000
0000
0000
0000
0000
0000
0000
0000
0100
0000
0000
0000
0000
0000
1000
0000
0000
0000
0000
0000
0100
0000
0000
0000
0000
0000
1000
0000
0000
0000
0000
0000
0100
0000
0000
0000
0000
0000
0000
0000
0000
0000
0000
0000
0100
0000
0000
0000
0000
0000
0010
0000
0000
0000
0000
0000
0001
0000
0000
0000
0000
0000
0000
0000
0100
0000
0000
0000
0000
0000
0000
0000
0010
0000
0000
0000
0000
0000
0000
0000
1000
0000
0000
0000
0000
0000
0000
0000
0000
0000
0000
0000
0000
0000
0000
0000
0000
0000
0000
0000
0000
0000
0000
0000
,  // measure 27
0001
0000
1000
0000
0010
0000
0100
0001
0000
0001
0100
0000
0010
0000
1000
0100
,  // measure 28
0000
0100
1000
0000
0001
0000
0010
0000
0012
0000
0103
0000
2010
0000
3100
0000
,  // measure 29
1000
0000
0001
0000
0010
0000
0100
1000
0000
1000
0100
0000
0010
0000
0001
0100
,  // measure 30
0000
0100
0001
0000
1000
0000
0010
0000
2010
0000
3100
0000
0012
0000
0103
0000
,  // measure 31
0001
0000
1000
0000
0010
0000
0100
0001
0000
0001
0100
0000
0010
0000
1000
0100
,  // measure 32
0000
0100
1000
0000
0001
0000
0010
0000
0012
0000
0103
0000
2010
0000
3100
0000
,  // measure 33
1000
0000
0001
0000
0010
0000
0100
1000
0000
1000
0100
0000
0010
0000
0001
0100
,  // measure 34
0000
0100
0001
0000
1000
0000
0010
0000
2010
0000
3100
0000
0012
0000
0103
0000
,  // measure 35
0220
0330
0000
1000
1000
0001
0000
0000
;
