#VERSION:0.83;
#TITLE:MONONOKE;
#SUBTITLE:;
#ARTIST:seatrus;
#TITLETRANSLIT:;
#SUBTITLETRANSLIT:;
#ARTISTTRANSLIT:;
#GENRE:;
#CREDIT:;
#MUSIC:MONONOKE.ogg;
#BANNER:MONONOKE-bn.png;
#BACKGROUND:MONONOKE-bg.png;
#CDTITLE:;
#SAMPLESTART:35.569;
#SAMPLELENGTH:15.000;
#SELECTABLE:YES;
#OFFSET:0.088;
#BPMS:0.000=175.000;
#STOPS:;
#BGCHANGES:;
#FGCHANGES:;

//--------------- dance-single - ----------------
#NOTEDATA:;
#STEPSTYPE:dance-single;
#DESCRIPTION:;
#DIFFICULTY:Medium;
#METER:12;
#RADARVALUES:0,0,0,0,0;
#CREDIT:Talkion;
#NOTES:
0000
0000
0000
0000
,
0000
0000
0000
0000
,
1002
0000
0000
0010
0000
0000
1003
0010
,
0200
0000
0000
0301
2000
0000
0000
0000
,
3200
0000
0000
0010
0000
0000
0010
0000
,
2300
0000
0000
0001
0000
0000
0001
0000
,
3020
0000
0000
0100
0000
0000
0100
0000
,
2030
0000
0000
3001
0020
0000
0000
0000
,
0230
0000
0000
1000
0000
0000
1000
0000
,
0320
0000
0000
0000
0031
1000
0100
1000
,
0001
0000
0010
0000
1000
0000
0010
0100
,
1000
0001
0100
0010
,
0001
0010
0100
0001
,
1000
0100
0010
0001
,
1000
0010
1000
0000
0001
0010
0001
0000
,
1000
0010
0100
0000
0001
0010
0100
0000
,
1000
0010
0100
0001
1000
0100
0010
0001
,
2000
0000
0000
0000
3010
0010
0100
0000
,
2001
0000
0000
0000
3100
0000
0000
0000
1000
0000
0000
0100
0000
0000
0001
0000
,
0000
0100
0000
0000
0020
0000
0000
0000
0031
0000
0001
0000
1000
0000
0000
0000
,
0002
0000
0100
0000
0000
1000
0000
0000
0100
0000
0000
1003
0000
0000
0000
0000
,
0001
0000
0000
0010
0000
0010
0000
0000
1000
0000
0000
0000
0110
0000
0000
0000
,
2001
0000
0100
0100
0000
0000
0001
0001
,
0000
0000
3100
0100
0020
0000
0031
0000
,
1000
0010
0000
0001
0100
0000
1000
0100
,
0000
0001
0010
0000
2010
0000
0000
0000
,
3002
0000
0000
0000
0013
0000
0000
0000
0001
0000
0000
0010
0000
0000
1000
0000
,
0000
0010
0000
0000
0200
0000
0000
0000
1300
0000
1000
0000
0001
0000
0000
0000
,
2000
0000
3010
0001
0000
0010
1000
0000
,
0010
0001
0000
0010
1000
0000
0001
0000
,
0020
0000
0130
0100
1000
0000
0100
0100
,
0010
0000
0001
0000
1000
0100
2000
0000
,
3001
0100
0000
1000
0010
0000
0001
0010
,
0000
1000
0100
0000
0102
0000
0000
0000
,
2003
0000
3000
0100
0001
0100
0000
0001
,
0010
0001
0000
0010
1000
0010
1000
0000
,
1002
0000
0003
0100
1000
0100
0000
1000
,
0010
1000
0000
0010
0001
0010
0001
0000
,
2001
0000
3000
0010
0001
0010
0000
0001
,
0100
0001
0000
0100
1000
0100
1000
0000
,
1002
0000
0003
0010
1000
0010
0000
1000
,
0100
1000
0000
0100
0001
0100
0001
0000
,
0210
0000
0300
0001
0010
1000
0000
1000
,
0100
0001
0000
0001
0010
0100
1000
0000
,
0210
0000
0300
1000
0010
0001
0000
0001
,
0100
1000
0000
1000
0010
0100
0001
0000
,
0210
0000
0300
0001
0010
1000
0000
1000
,
0100
0001
0000
0001
0010
0100
1000
0000
,
0001
0100
0000
1000
0010
0000
0001
0010
,
0000
1000
0100
0000
0102
0000
0000
0000
,
2003
0000
0000
0100
0000
0000
0100
0000
,
3002
0000
0000
0100
0000
2003
0000
0000
,
3200
0000
0000
0010
0000
0000
0010
0000
,
2300
0000
0000
3010
0200
0000
0000
0000
,
0302
0000
0000
0100
0000
0000
0100
0000
,
2003
0000
0000
0100
0000
3002
0000
0000
,
0203
0000
0000
0010
0000
0000
0010
0000
,
0302
0000
0000
0013
0200
0000
0000
0000
,
1300
0100
0001
0100
,
0010
0001
1000
0010
,
0001
0010
0100
0001
,
1000
0100
0010
0001
,
1000
0010
1000
0000
0001
0010
0001
0000
,
1000
0010
0100
0000
0001
0010
0100
0000
,
1000
0010
0100
0001
1000
0100
0010
0001
,
2000
0000
0000
0000
3010
0010
0100
0000
,
0201
0000
1300
0000
0201
0000
1300
1000
,
0200
0301
1002
0013
,
0100
1000
0100
2000
0000
3001
0100
0001
,
0100
0000
0000
0000
0110
0000
0000
0000
0001
0000
0000
0010
0000
0000
1000
0000
,
0020
0000
0130
1000
1000
0001
1000
1000
,
0020
0000
0130
0001
1000
0001
0010
0000
,
0001
0010
0010
1000
0100
0100
0001
0100
,
0100
1000
0010
0010
0001
0000
1000
0000
,
1020
0000
0031
0000
1020
0000
0031
0001
,
0020
1030
2001
3100
,
0001
0000
0100
0100
1000
0000
0100
0100
,
0001
0000
0100
0100
1000
0000
0001
0001
,
0100
0020
0000
1030
0001
0010
0001
1000
,
0001
0010
0001
1000
0100
0010
0001
0000
,
1000
0100
0100
0001
0010
0010
1000
0010
,
0010
0001
0100
0100
2000
0000
0000
0000
,
3002
0000
0000
0000
,
0200
0000
0003
0000
,
0020
0000
0300
0000
,
2000
0000
0030
0000
,
3000
0000
0000
0000
;

//--------------- dance-single - ----------------
#NOTEDATA:;
#STEPSTYPE:dance-single;
#DESCRIPTION:;
#DIFFICULTY:Hard;
#METER:15;
#RADARVALUES:0,0,0,0,0;
#CREDIT:Talkion;
#NOTES:
0000
0000
0000
0000
,
0000
0000
0000
0000
,
1002
0000
0000
0000
0000
0000
0010
0000
0000
0000
0000
0000
1003
0000
0001
0100
,
0020
0000
0000
1030
0002
0000
0013
0010
,
0200
0000
0000
1000
0000
0000
0310
0010
,
0002
0000
0000
1000
0000
0103
0100
0010
,
2000
0000
0000
0010
0000
0000
3001
0001
,
0020
0000
0000
0130
2000
0000
3001
0001
,
0200
0000
0000
0010
0000
0000
0301
0001
,
2000
0000
0000
3100
0010
0001
1000
0100
,
0110
0000
0000
0000
1000
0000
0000
0000
0001
0000
0000
0001
0100
0000
0010
0100
,
0001
0000
1000
0000
0100
0000
0000
0000
0010
0000
0000
0010
0100
0000
0010
0001
,
1000
0000
0000
0000
0001
0000
0000
0000
0100
0000
0000
0100
0010
0000
0100
0000
,
0001
0000
0000
0001
1000
0000
0100
0000
0010
0000
0000
0010
0001
0000
1000
0001
,
0100
0010
1000
0010
0100
0010
1000
0001
,
0010
0100
1000
0100
0010
0100
1000
0001
,
0101
0000
0100
0000
0010
0100
0001
0000
1001
0000
1000
0000
0100
0010
0001
0000
,
1002
0000
0103
0010
0100
0010
1000
0000
,
2001
0000
0000
0000
3100
0000
0010
0000
0002
0000
0000
1000
0000
0000
0103
0000
,
0000
0000
0010
0000
0010
0000
1000
0000
0001
0010
0000
0001
0020
0000
0000
0000
,
0230
0000
1000
0000
0000
0010
0000
0000
1000
0000
0000
0010
0000
0000
1300
0000
,
0001
0000
0100
0010
0000
1000
0000
0000
0001
0000
0001
0000
0010
0000
0000
0000
,
0021
0000
0130
0021
0000
0130
0100
2000
,
0000
3001
0001
0100
0010
1000
1001
0000
,
0021
0130
1000
2001
3010
0100
0201
0310
,
1000
0000
2001
0000
3100
0000
0100
0010
0002
0000
0000
0000
0000
0000
0000
0000
,
1003
0000
0010
0000
0100
0000
0001
0000
2000
0000
0000
0010
0000
0000
3001
0000
,
0010
0000
0100
0000
0100
0000
1000
0000
0001
0100
0000
0001
0200
0000
0000
0000
,
0310
1000
0001
0010
1000
0001
0100
1000
,
0001
0010
1000
0001
0100
1000
0001
0100
,
0010
0000
1000
0000
0001
0010
0001
0000
1000
0000
0010
0000
1000
0010
1000
0000
,
0001
0000
0010
0100
0010
0000
0001
0000
1000
0000
1000
0000
0010
0000
0000
0000
,
1020
0130
0001
1002
0013
0100
1200
0310
,
0001
0000
1002
0000
0103
0000
0100
0010
2000
0000
0000
0000
0000
0000
0000
0000
,
3002
0000
0003
1000
0110
1000
0000
0100
,
0011
0100
0000
1000
0110
1000
0002
0000
,
0023
0000
0000
0000
0030
0000
0001
0010
0100
0000
1001
0000
0000
0000
1000
0010
,
0100
1001
0000
0001
0110
0001
2000
0000
,
3020
0000
0030
1000
0110
1000
0000
0100
,
0011
0100
0000
1000
0110
1000
0002
0000
,
0203
0000
0000
0000
0300
0000
0001
0100
0010
0000
1001
0000
0000
0000
1000
0100
,
0010
0000
1001
0000
0000
0000
0001
0100
0010
0000
0010
0000
0010
0000
0000
0000
,
2001
0000
3100
0010
0010
1000
0001
0010
,
0010
1000
0001
0010
0010
1000
0002
0000
,
2003
0000
0000
0000
3010
0000
1000
0001
0100
0000
0100
0000
1000
0000
0001
0000
,
0010
0100
0000
0100
0001
0000
1000
0000
0100
0000
0100
0000
0001
0000
0000
0000
,
1002
0000
0103
0010
0010
0001
1000
0010
,
0010
0001
1000
0010
0010
0001
1000
0000
,
1002
0013
0100
1200
0310
0001
1002
0103
,
0010
0000
1020
0000
0130
0000
0100
0001
2000
0000
0000
0000
0000
0000
0000
0000
,
3200
0000
0000
0010
0000
0000
1300
1000
,
0002
0000
0000
0100
0000
2003
0000
0000
,
3020
0000
0000
0100
0000
0000
1030
1000
,
0002
0000
0000
0013
0100
1000
0100
1000
,
0002
0000
0000
1000
0000
0000
0103
0100
,
0020
0000
0000
1000
0000
0230
0000
0000
,
0302
0000
0000
1000
0000
0000
0013
0010
,
0200
0000
0000
1300
0001
0010
0100
1000
,
1001
0000
0000
0000
0001
0000
0000
0000
0100
0000
0000
0100
0010
0000
1000
0000
,
0001
0000
0010
0000
0100
0000
0000
0000
1000
0000
0000
1000
0001
0000
0100
0010
,
1000
0000
0000
0000
0001
0000
0000
0000
0010
0000
0000
0010
0100
0000
0010
0000
,
0001
0000
0000
0001
1000
0000
0010
0000
0100
0000
0000
0100
0001
0000
1000
0001
,
0010
0100
1000
0100
0010
0100
1000
0001
,
0100
0010
1000
0010
0100
0010
1000
0001
,
0011
0000
0010
0000
0100
0010
0001
0000
1001
0000
1000
0000
0010
0100
0001
0000
,
1000
0100
0001
1000
0010
0001
1001
0000
,
1000
0010
0011
0000
1000
0010
0011
0011
,
1000
0000
0010
0000
0011
0000
1000
0000
0100
0010
0000
0100
0020
0000
0000
0000
,
0031
1000
0100
0002
0000
0103
0010
0001
,
1000
0000
0010
0100
0010
0000
1000
0000
0002
0000
0000
0010
0000
0000
1003
0000
,
0010
0000
0100
0010
0100
0000
0001
0000
1000
0100
1000
0000
0001
0010
0100
0010
,
0001
0000
1000
0010
0100
0000
0001
0000
1000
0100
0000
0100
0010
0000
0000
0000
,
1002
0103
0010
2001
3100
0010
0120
0031
,
1000
0000
0120
0000
1030
0000
0001
0010
0100
0000
1000
0000
0001
0010
0200
0000
,
1000
0300
0101
0000
1000
0100
0101
0101
,
1000
0000
0100
0000
0101
0000
1000
0000
0010
0100
0000
0010
0200
0000
0000
0000
,
0301
0000
0000
0000
1000
0000
0100
0010
0001
0000
1000
0000
0100
0000
0100
0001
,
0000
0000
1000
0000
0010
0000
0010
0001
0000
0000
1000
0000
0001
0000
0001
0000
,
0010
0000
0200
0000
0000
0000
1300
0001
1000
0000
0001
0100
0001
0000
1000
0000
,
0100
0000
0010
0001
0010
0001
1000
0000
0001
0100
0000
0100
0010
0000
0000
0000
,
2001
3100
0010
1002
0103
0010
0120
1030
,
0001
0000
0120
0000
0031
0000
1000
0010
0200
0000
0000
0000
0000
0000
0000
0000
,
0301
1000
0100
0010
0001
1000
0100
0010
,
0001
1000
0010
0100
0001
1000
0010
0100
,
0001
1000
0010
1000
0100
0010
0001
1000
,
0010
0100
0001
1000
0010
0100
0001
2000
,
0000
0000
0000
0000
,
0000
0000
3000
0000
;

//--------------- dance-single - ----------------
#NOTEDATA:;
#STEPSTYPE:dance-single;
#DESCRIPTION:;
#DIFFICULTY:Challenge;
#METER:17;
#RADARVALUES:0,0,0,0,0;
#CREDIT:Talkion;
#NOTES:
0000
0000
0000
0000
,
0000
0000
0000
0000
,
2001
0000
0000
0000
0000
0000
0100
0000
0000
0000
0000
0000
3001
0000
0010
0100
,
2000
0000
0000
0000
0000
0000
3001
0000
0200
0000
0000
0000
0310
0000
0010
1000
,
0002
0000
0000
0000
0000
0000
0010
0000
0000
0000
0000
0000
1003
0100
1000
0100
,
2000
0000
0000
0000
0000
0000
3001
0000
0000
0000
0100
0010
1000
0010
0100
0010
,
2000
0000
0000
0000
0000
0000
0010
0000
0000
0000
0000
0000
3001
0000
0100
0010
,
2000
0000
0000
0000
0000
0000
3001
0000
0020
0000
0000
0000
0130
0000
0100
1000
,
0002
0000
0000
0000
0000
0000
0100
0000
0000
0000
0000
0000
1003
0010
1000
0010
,
2000
0000
0000
0000
0000
0000
3001
0000
1000
0100
0010
0001
1000
0010
0100
0001
,
1000
0000
0000
0000
0001
0000
0000
0000
0010
0000
0000
0010
0100
0000
1000
0001
,
0010
0000
0010
0000
0001
0000
0000
0000
1000
0000
0000
1000
0010
0000
0100
0010
,
1000
0000
0000
0000
0001
0000
0000
0000
0010
0000
0000
0010
0100
0000
1000
0000
,
0001
0000
0000
0001
0100
0000
0010
0000
1000
0000
0000
1000
0001
0000
0010
0100
,
1000
0001
0010
0001
1000
0010
0100
0001
,
0010
0100
1000
0001
0100
0010
0100
0001
,
0010
0100
1000
0001
0010
0100
0010
0001
1000
0010
1000
0001
0100
0010
0100
0001
,
0010
0000
0100
1000
0001
1000
0100
1000
0001
1000
0100
1000
0010
0000
0000
0000
,
1002
0000
0000
0000
0103
0000
0010
0100
0020
0000
0000
1000
0000
0000
0130
0000
,
0001
0100
0000
0001
0100
0000
0010
0000
1000
1000
0001
0010
0200
0000
0000
0000
,
1300
0000
0001
0000
0100
0010
0000
1000
0010
0000
0100
0010
1000
0000
0001
1000
,
0100
0000
0010
0100
0010
0100
0000
0010
0001
0000
1000
0001
0100
0000
0010
0000
,
1000
2000
0010
0001
0000
0010
0001
0100
,
0000
0000
0010
0000
0001
0000
0100
0000
3100
0000
0010
0001
2000
0000
0000
0000
,
3100
0000
1000
0100
0010
0000
MMMM
0000
1000
0001
0010
0000
MMMM
0000
1000
0010
,
0100
0000
MMMM
0000
1000
0001
0100
0010
1000
0001
0010
0100
1000
0001
0100
0010
,
1000
0000
0001
0000
0010
0000
0100
0010
0200
0000
0000
1000
0000
0000
0310
0000
,
0001
0010
0000
0001
0010
0000
0100
0000
1000
1000
0001
0100
0020
0000
0000
0000
,
1030
0000
0001
0000
0010
0200
1000
0000
0310
0000
0001
2000
0100
0000
3001
0000
,
0100
0020
1000
0000
0130
0000
0001
2000
0010
0000
3001
0000
0010
0000
0010
0000
,
0100
0000
1000
0000
0001
0100
0001
0100
0010
0000
1000
0000
0001
0100
0001
0100
,
0010
0000
1000
0001
0010
0001
1000
0000
0100
0000
0100
0010
0002
0000
0000
0000
,
1003
0000
0001
0100
0010
0000
MMMM
0000
0001
1000
0010
0000
MMMM
0000
0001
0010
,
0100
0000
MMMM
0000
0001
1000
0100
0010
0001
1000
0010
0100
0001
1000
0010
1000
,
0100
0000
0100
0000
1000
0000
0001
0010
0100
0000
0001
0000
MMMM
0000
1000
0010
,
0100
0000
1000
0000
MMMM
0000
0001
0010
0100
0000
0001
0000
0201
0000
0000
0000
,
0310
0000
0010
0000
0001
0000
1000
0100
0010
0000
1000
0000
MMMM
0000
0001
0100
,
0010
0000
0001
0000
MMMM
0000
1000
0100
0010
0000
1000
0000
1020
0000
0000
0000
,
0031
0000
0001
0000
1000
0000
0010
1000
0100
0000
0001
0000
MMMM
0000
0010
0001
,
0100
0000
1000
0000
MMMM
0000
0010
1000
0100
0000
0001
0000
0201
0000
0000
0000
,
1300
0000
1000
0000
0001
0000
0100
0001
0010
0000
1000
0000
MMMM
0000
0100
1000
,
0010
0000
0001
0000
MMMM
0000
0100
0010
1000
0001
0010
0001
0100
0000
0000
0000
,
0110
0000
0010
0000
1000
0000
0001
0010
0100
0010
1000
0000
MMMM
0000
0001
0100
,
0010
0100
1000
0000
MMMM
0000
0001
1000
0100
0010
1000
0000
1020
0000
0000
0000
,
0130
0000
0010
0000
0001
0000
1000
0010
0100
0010
0001
0000
MMMM
0000
1000
0100
,
0010
0100
0001
0000
MMMM
0000
1000
0001
0100
0010
0001
0000
0021
0000
0000
0000
,
0130
0000
0001
0000
1000
0000
0010
1000
0001
0010
1000
0000
MMMM
0000
0100
1000
,
0001
0100
1000
0000
MMMM
0000
0010
1000
0001
0010
1000
0000
1020
0000
0000
0000
,
0031
0000
0010
0001
0100
0000
MMMM
0000
1000
0001
0010
0000
MMMM
0000
0100
0001
,
0010
0000
MMMM
0000
1000
0001
0100
0010
1000
0001
0010
0100
1000
0001
0100
0010
,
2000
0000
0000
0000
0000
0000
0010
0000
0000
0000
0000
0000
3001
0100
0001
0100
,
0002
0000
0000
0000
0000
0000
1003
0000
0000
0000
0100
0000
0100
0000
0010
0001
,
2000
0000
0000
0000
0000
0000
0100
0000
0000
0000
0000
0000
3001
0010
0001
0010
,
0002
0000
0000
0000
0000
0000
1003
0000
0010
0000
0100
0001
1000
0001
0100
0001
,
2000
0000
0000
0000
0000
0000
0100
0000
0000
0000
0000
0000
3001
0010
0001
0010
,
0002
0000
0000
0000
0000
0000
1003
0000
0000
0000
0010
0000
0010
0000
0100
0001
,
2000
0000
0000
0000
0000
0000
0010
0000
0000
0000
0000
0000
3001
0100
0001
0100
,
0002
0000
0000
0000
0000
0000
1003
0000
0100
0000
0010
0001
1000
0001
0010
0001
,
0100
0000
0000
0000
0001
0000
0000
0000
1000
0000
0000
1000
0100
0000
0010
0000
,
0001
0000
0001
0000
1000
0000
0000
0000
0001
0000
0000
0001
0100
0000
0010
0100
,
0001
0000
0000
0000
1000
0000
0000
0000
0100
0000
0000
0100
0010
0000
0001
0000
,
1000
0000
0000
1000
0010
0000
0100
0000
0001
0000
0000
0001
1000
0000
0100
0010
,
0001
1000
0100
1000
0001
0100
0010
1000
,
0100
0010
0001
1000
0010
0100
0010
1000
,
0100
0010
0001
1000
0100
0010
0100
1000
0010
0100
0001
1000
0010
0100
0010
2000
,
0100
0000
3001
0010
0001
0010
0001
0000
1000
0010
0100
0000
1001
0000
0000
0000
,
0101
0000
0001
0100
1000
0000
MMMM
0000
0101
0000
0001
0100
0010
0000
0010
0000
,
1000
0000
0001
0010
1000
0000
MMMM
0000
1000
0010
0000
0010
0200
0000
0310
0000
,
0001
0000
1000
0000
0010
0000
0200
0000
0000
0000
0301
1000
0010
1000
0001
1000
,
0010
0000
0100
0002
1000
0000
0013
0000
0010
0000
0100
2000
0001
0000
3010
0000
,
0100
0001
0100
0002
1000
0000
0013
0100
0010
0100
1000
0000
0001
0001
1000
0010
,
0100
0000
0010
0200
0001
0000
0310
1000
0001
1000
0100
0010
0001
0000
0000
0000
,
1001
0000
1000
0010
0001
0000
MMMM
0000
0001
0010
1000
0000
MMMM
0000
1000
0100
,
0001
0000
MMMM
0000
0001
0100
0010
0100
1000
0000
0001
0000
0100
0010
1000
0000
,
1020
0000
0000
0000
0031
0000
MMMM
0000
1010
0000
1000
0010
0100
0000
0100
0000
,
0001
0000
1000
0100
0001
0000
MMMM
0000
0001
0100
0000
0100
0020
0000
0130
0000
,
2000
0000
0000
0000
3001
0100
0001
0100
0010
0000
1000
0000
0001
0000
0010
0200
,
1000
0000
0310
0000
0001
0000
0100
0020
1000
0000
0130
0000
0001
0000
0001
0000
,
1000
0000
0100
0000
0010
0000
0001
0010
0001
0000
1000
0001
0100
0001
1000
0100
,
0010
0000
0001
1000
0100
1000
0001
0100
0010
0000
0010
0000
1000
0000
0000
0000
,
1001
0000
0001
0010
1000
0000
MMMM
0000
1000
0010
0001
0000
MMMM
0000
0001
0100
,
1000
0000
MMMM
0000
1000
0100
0010
0100
0001
1000
0100
0010
0001
1000
0010
0100
,
0001
1000
0100
0010
0001
1000
0100
0010
,
0001
1000
0010
0100
0001
1000
0010
0100
,
0001
1000
0010
1000
0100
0010
0001
1000
,
0010
0100
0001
1000
0010
0100
0001
2000
,
0000
0000
0000
0000
,
0000
0000
3000
0000
;
