#TITLE:MEGAERA;
#SUBTITLE:;
#ARTIST:fallen shepherd x cotowari ft. nayuta;
#TITLETRANSLIT:;
#SUBTITLETRANSLIT:;
#ARTISTTRANSLIT:;
#GENRE:BULGARIAN CORE;
#CREDIT:;
#MUSIC:MEGAERA.ogg;
#BANNER:MEGAERA.png;
#BACKGROUND:MEGAERA-bg.png;
#CDTITLE:;
#SAMPLESTART:47.177;
#SAMPLELENGTH:15.000;
#SELECTABLE:YES;
#OFFSET:2.320;
#BPMS:0.000=206.000;
#STOPS:;
#BGCHANGES:4.000=MEGAERA.avi=1.000=0=0=1,
420.250=MEGAERA-bg.png=1.000=0=0=1,
99999.000=-nosongbg-=1.000=0=0=0=StretchNoLoop====
;
#FGCHANGES:;

//--------------- dance-single - forcednature ----------------
#NOTES:
     dance-single:
     forcednature:
     Beginner:
     9:
     0,0,0,0,0:
0000
0000
0000
0000
,
0000
0000
0000
0000
,
0000
0000
0000
0000
,
0000
0000
0000
0000
,
0000
0000
0000
0000
,
0000
0000
0000
0000
,
0000
0000
0000
0000
,
1000
1000
0001
0001
,
0100
0100
0010
0010
,
2002
0000
0000
0000
,
0000
0000
0000
3003
0000
0000
0000
0000
,
1000
1000
1000
0100
,
0010
0001
0100
0010
,
0000
1001
0001
0100
,
0010
1000
0001
0000
,
1001
0000
0100
0100
,
0010
0010
0100
0010
,
0002
0000
1003
1000
,
0010
0100
0010
0100
,
1001
0000
0000
0000
,
0002
0000
0000
0000
,
0023
0000
0000
0000
,
0230
0000
0000
0000
,
2300
0000
0000
0000
,
3020
0000
0000
0000
,
0230
0000
0000
0000
,
0302
0000
2003
0000
,
3100
0000
0000
0000
,
0010
0000
0010
0000
,
0010
0000
0000
0000
,
0001
0000
0001
0000
,
0001
0000
0000
0000
,
1000
0000
0000
0000
,
0020
0000
0000
0000
,
0030
0000
0000
0000
,
0100
0000
0000
0000
,
0001
0000
0000
0000
,
1000
0000
0000
0000
,
0100
0000
0000
0000
,
0010
0000
0000
0010
0000
0000
0010
0000
,
0000
0010
0000
0000
0010
0000
0000
0000
,
2002
0000
0000
0000
,
3003
0000
0100
0010
,
1001
0000
0001
0100
,
0001
1000
0100
0010
,
0100
0000
1000
0001
,
0100
0010
1000
0001
,
1001
0000
0100
0010
,
1001
0000
0010
0100
,
0110
0000
1001
0000
,
0001
0100
0001
1000
,
0100
0000
0100
0010
0000
0000
0000
0000
,
0100
0000
0100
1000
0000
0000
0000
0000
,
0100
0000
0100
0010
0000
0000
0000
0000
,
0100
0000
0100
0001
0000
0000
0000
0000
,
0200
0300
2000
3002
,
0203
0300
0020
0030
,
2002
0000
3003
0000
,
1001
0001
0001
0001
,
0001
0001
0001
0001
,
1000
1000
1000
1000
,
1000
1000
1000
1000
,
0100
0010
0100
0000
,
0010
0100
0010
0000
,
0001
0100
0010
1000
,
0010
0100
0001
0000
,
0110
0100
0100
0100
,
0100
0100
0100
0100
,
0010
0010
0010
0010
,
0010
0010
0010
0010
,
1000
0000
0000
1000
0000
0000
1001
0000
,
0001
0000
0000
0001
0000
0000
1001
0000
,
0100
0000
0000
0100
0000
0000
0110
0000
,
0010
0000
0000
0010
0000
0000
0110
0000
,
1000
0000
0000
1001
0000
0000
1001
0000
,
0001
0000
0000
1001
0000
0000
1001
0000
,
0100
0000
0000
0110
0000
0000
0110
0000
,
0010
0000
0000
0110
0000
0000
0110
0000
,
2002
0000
0000
0000
,
0000
0000
3003
0000
,
0200
0000
0300
0000
,
0020
0000
0030
0000
,
2002
0000
0000
0000
,
0000
0000
0000
3003
,
0001
0100
0010
1000
,
0001
1000
0100
1000
,
0001
0100
0010
1000
,
0001
0010
0100
0100
,
0010
0001
1000
0010
,
1000
0001
0100
0001
,
1000
0100
0010
0001
,
0100
0010
1000
0000
,
1001
0000
0001
0100
,
0010
1000
0100
1000
,
0010
0000
0100
0001
,
0020
0100
0130
0000
,
1001
0000
0001
0100
,
0001
1000
0010
1000
,
1001
0000
1000
0100
,
1000
0001
0010
0001
,
0100
0000
0000
0110
0000
0000
0001
0000
,
0000
1001
0000
0000
0110
0000
0000
0100
,
0000
0000
1001
0000
0000
0010
0000
0000
,
1000
0001
1000
0001
1000
0001
1000
0001
,
0200
0000
0000
0000
,
0300
0000
0000
0000
;

//--------------- dance-single - forcednature ----------------
#NOTES:
     dance-single:
     forcednature:
     Easy:
     12:
     0,0,0,0,0:
0000
0000
0000
0000
,
0000
0000
0000
0000
,
0000
0000
0000
0000
,
0000
0000
0000
0000
,
0000
0000
0000
0000
,
0000
0000
0000
0000
,
0000
0000
0000
0000
,
1001
0100
1001
0010
,
1000
0100
1000
0100
0000
0000
0010
0001
0010
0001
0000
0000
,
0200
0000
0001
0000
0001
0000
0000
0010
,
0000
0010
0000
0020
0000
0000
0330
0000
,
1000
0001
1000
0001
1000
0000
0100
0000
,
0010
0000
0001
0000
0100
0000
0010
1000
,
0000
0000
0000
1001
0000
0000
0001
0000
0000
1000
0010
1000
,
0010
0000
0000
0100
0000
0000
0001
0010
0001
0010
0000
0000
,
1001
0000
0001
0100
,
0010
0010
1000
0001
,
1000
0000
0000
0001
1000
0001
1000
0000
0000
0100
0010
0100
,
0010
0010
0010
0100
,
1001
0000
0000
0000
,
2000
0000
0000
0000
,
3020
0000
0000
0000
,
0230
0000
0000
0000
,
0302
0000
0000
0000
,
0023
0000
0000
0000
,
0230
0000
0000
0000
,
2300
0000
3001
0100
,
0010
0000
1000
1000
,
0001
1000
0100
0010
,
0001
0000
0100
0001
,
1000
0010
1000
0100
,
0010
0000
0000
0010
0000
0000
0000
0000
,
0100
0000
0000
0100
0000
0000
1000
0000
,
0001
0000
2002
0000
,
3003
0000
0000
1000
,
0010
0000
0000
0010
0000
0000
0000
0000
,
1000
0000
0000
1000
0000
0000
0000
0000
,
0001
0000
0000
0001
0000
0000
0000
0000
,
0010
0000
0000
0010
0000
0000
0100
0000
,
0200
0000
0000
1000
0000
0000
0010
0000
,
0000
0001
0000
0000
0310
0000
0001
0000
,
0100
0010
1000
0001
,
0010
0000
0010
0000
0100
0000
1000
0001
,
1000
1010
1000
1100
,
1000
0000
1000
0100
0010
0000
0100
0010
,
0001
0101
0001
0011
,
0001
0000
1000
0000
0010
0000
0000
0000
0100
0000
0000
0010
0000
0010
0000
0000
,
1000
0000
0001
0100
0001
0000
0110
0000
,
0001
0000
1000
0100
1000
0000
0110
0000
,
1000
0000
0100
0000
0010
0000
0001
0100
,
0001
0000
0000
0001
0000
0000
0001
0000
0000
0001
0000
0000
0000
0000
0000
0000
,
1000
0100
1000
0200
0000
0000
0300
0000
,
0001
0010
0001
0020
0000
0000
0030
0000
,
1000
0010
1000
0020
0000
0000
0030
0000
,
0001
0100
0001
0200
0000
0000
0300
0000
,
0001
0000
1000
0100
,
0020
0000
0130
0000
,
2002
0000
3003
0000
,
0110
0000
0001
0000
1000
0100
1000
0000
,
0001
0100
0001
0000
1000
0100
1000
0000
,
0010
0000
0100
0000
0001
0010
0001
0000
,
1000
0010
1000
0000
0001
0010
0001
0000
,
0100
0101
0100
0110
,
0100
1100
0100
0110
,
0001
1000
0100
0010
,
0100
1000
0000
0100
0001
0000
0100
0000
,
0110
0000
0010
0000
1000
0010
1000
0000
,
0001
0010
0001
0000
1000
0010
1000
0000
,
0001
0000
1000
0000
0001
0010
0001
0000
,
1000
0010
1000
0000
0001
0010
0001
0000
,
1000
1000
0100
1000
1000
0100
0010
0000
,
0001
0001
0100
0001
0001
0100
0010
0000
,
1000
1000
0100
0001
0001
0100
0010
0000
,
0001
0001
0100
1000
1000
0100
0010
0000
,
1000
0001
1000
0100
0010
0001
1000
0000
,
0001
0001
0001
0100
0010
1000
0001
0000
,
0010
0100
0010
0001
0100
0010
0100
0000
,
0001
1000
0100
1000
0010
0010
0010
0010
,
0100
0000
0000
0000
,
0000
0000
0000
0000
,
0002
0000
0000
0000
,
2003
0000
0000
3200
,
0020
0000
0000
0000
,
0000
0000
0000
0330
,
0001
0100
0010
1000
0001
0000
0001
0000
,
1000
0100
0010
0001
1000
0000
1000
0010
,
1000
0001
0100
0010
1000
0000
1000
0000
,
0001
0100
0010
1000
0100
0010
0100
0000
,
1000
0001
1000
0010
0100
0000
0100
0000
,
0001
0010
0001
0100
0010
0000
0010
0000
,
1000
0001
1000
0100
0010
0001
0100
0000
,
0010
0010
0010
0100
,
2002
0000
3003
0000
0001
0100
0001
0100
,
0020
0000
0030
0000
1000
0100
1000
0100
,
0020
0130
1000
0001
,
0200
0010
0310
0000
,
0100
0001
0100
0001
0100
0001
0100
0000
,
0010
1000
0010
1000
0010
1000
0010
0000
,
1000
0100
1000
0100
1000
0100
1000
0000
,
0001
0010
0001
0010
0001
0010
0001
0000
,
0100
0100
0100
0001
0000
1000
0100
0100
,
0100
1000
0000
0001
0100
0100
0100
0010
,
0010
0010
1000
1000
1000
0001
0001
0001
,
0010
0100
0010
0100
0010
0100
0010
0000
,
2002
0000
0000
0000
,
3003
0000
0000
0000
;

//--------------- dance-single - forcednature ----------------
#NOTES:
     dance-single:
     forcednature:
     Medium:
     15:
     0,0,0,0,0:
0000
0000
0000
0000
,
0000
0000
0000
0000
,
0000
0000
0000
0000
,
0000
0000
0000
0000
,
0000
0000
0000
0000
,
0000
0000
0000
0000
,
0000
0000
0000
0000
,
0101
0101
1010
1010
,
0001
0100
0001
0100
0000
0000
0001
0010
0001
1000
0100
1000
,
0020
0000
0100
0000
0100
0000
0000
0100
,
0000
0100
0000
0200
0000
0000
0330
0000
,
0001
1000
0001
1000
0100
0000
0110
0000
,
1000
0000
1001
0000
0001
0000
0100
0010
,
0000
0000
0000
0000
0000
0000
1001
0000
0000
0000
0000
0000
1000
0000
0000
0001
0000
0000
0100
0000
0001
0000
0100
0000
,
0001
0000
0000
0010
0000
0000
0100
1000
0100
1000
0000
0000
,
1002
2003
3020
0230
,
0302
0203
0320
2030
,
3100
0000
0000
0010
0001
0010
0001
0000
0000
1000
0010
1000
,
0010
0010
0010
0100
,
2001
0000
0000
0000
,
3200
0000
0000
0000
,
0320
0000
0000
0000
,
0032
0000
0000
0000
,
0203
0000
0000
0000
,
0320
0000
0000
0000
,
2030
0000
0000
0000
,
3002
0000
0000
0000
0013
0000
0000
0100
,
2000
0000
0000
3000
,
0000
0000
0001
0100
0001
0000
1000
0010
,
2000
0000
0000
3002
0000
0000
0003
0000
,
0000
0000
1000
0100
1000
0000
0001
0010
,
0002
0000
0000
0203
0000
0000
0300
0000
,
0020
0000
0000
2030
0000
0000
3200
0000
,
0320
0000
0032
0000
,
0003
0000
0000
0100
,
0001
0000
0000
0101
0000
0000
0001
0000
,
1000
0000
0000
1100
0000
0000
1000
0000
,
0010
0000
0000
0110
0000
0000
0100
0000
,
0010
0000
0000
1001
0000
0000
0001
0000
,
1000
0100
0000
1000
0001
0000
0001
0100
,
0000
0001
1000
0000
1000
0100
0010
0001
,
0200
0010
0010
0010
,
0310
0000
1000
0000
0001
0010
0100
1000
,
0001
0101
1000
1010
,
0001
0000
0100
0010
1000
0000
0001
0010
,
0100
1100
0010
0011
,
0001
0000
1000
0000
0100
0000
1000
0000
0001
0000
0000
0100
0000
0010
0000
0000
,
0110
0000
1000
0001
0010
0000
0100
0000
,
1001
0000
1000
0001
0100
0000
0010
0000
,
1010
0100
0011
0100
,
1000
0000
0000
0001
0000
0000
0100
0000
0000
0010
0000
0000
1000
0000
0001
0000
,
0100
0001
0100
0102
0000
0000
1003
0000
,
0100
1000
0100
2100
0000
0000
3010
0000
,
0100
0001
1000
1002
0000
0000
0013
0000
,
0100
1000
0001
2001
0000
0000
3010
0000
,
0200
0300
0002
2003
,
3200
0300
0020
0030
,
2002
0000
3003
0000
,
1000
0100
1000
0001
1000
0010
1000
0001
,
1000
0100
1000
0001
1000
0010
1000
0000
,
0001
0100
0001
1000
0001
0010
0001
1000
,
0001
0100
0001
1000
0001
0010
0001
0000
,
0101
0000
1010
0000
1000
0100
0001
0000
,
1100
0000
0011
0000
0001
0100
1000
0000
,
0100
0010
0100
0010
1000
0001
1000
0001
,
0010
0100
1000
0001
0100
0010
1000
0000
,
0100
0001
0100
0010
0100
1000
0100
0010
,
0100
0001
0100
0010
0100
1000
0100
0000
,
0010
0001
0010
0100
0010
1000
0010
0100
,
0010
0001
0010
0100
0010
1000
0010
0000
,
0001
0100
0001
0000
0100
0000
0001
0100
0001
0000
0000
0000
0101
0000
0000
0000
,
1000
0100
1000
0000
0100
0000
1000
0100
1000
0000
0000
0000
1100
0000
0000
0000
,
0001
0010
0001
0000
0010
0000
0001
0010
0001
0000
0000
0000
0011
0000
0000
0000
,
1000
0010
1000
0000
0010
0000
1000
0010
1000
0000
0000
0000
1010
0000
0000
0000
,
0001
0100
1000
0100
0010
0100
0001
0000
,
1000
0100
0001
0100
0010
0001
1000
0000
,
0001
0100
0010
1000
0100
0010
0001
0000
,
0100
0000
0010
0000
1000
0000
0001
0000
1000
0001
1000
0000
0001
1000
0001
0000
,
0000
0000
0100
0000
0001
1000
0100
0000
,
0010
0001
1000
0000
0010
0000
0100
0000
,
0202
0000
0000
0303
,
2200
0000
3300
0100
,
2002
0000
0000
0000
,
0000
0000
0000
3003
,
0001
0100
0010
1000
0001
1000
0100
0010
,
0001
0000
0100
0000
0010
0000
1000
0000
0001
0000
0010
0000
0001
0000
0000
1000
,
0010
0000
0100
0000
0001
0000
1000
0000
0100
0000
1000
0000
0001
0000
0000
0100
,
0001
0000
1000
0000
0100
0000
0010
0000
0001
0100
0001
0000
1000
0010
1000
0000
,
0100
0000
0010
0000
0100
0000
1000
0000
0010
0000
0100
0000
0001
1000
0001
0000
,
0010
0000
0001
0000
1000
0000
0010
0000
1000
0100
1000
0000
0001
0010
0001
0000
,
0100
0001
0100
0010
0100
1000
0100
0010
,
1000
0001
1000
0000
0001
1000
0001
0000
0010
0000
0000
0000
0100
0000
0000
0000
,
1002
0000
1000
0000
0013
0100
1000
0001
,
0200
0000
0010
0000
0310
1000
0001
0010
,
0002
0000
1003
0100
1000
0001
0100
0010
,
2000
0100
0100
3010
,
1000
0100
0010
0100
0001
0100
1000
0001
,
0100
0000
0010
0000
0100
0000
1000
0000
0100
0000
0001
0000
1000
0000
0000
0001
,
0100
0000
0010
0000
1000
0000
0001
0000
1000
0000
0100
0000
0010
0000
0001
1000
,
0001
0000
0100
0000
0010
0000
1000
0000
0001
0010
0001
0000
1000
0010
1000
0000
,
0001
0100
0001
0000
0100
0000
0101
0000
0000
0000
0000
0000
1000
0100
1000
0000
,
0100
0000
1100
0000
0000
0000
0000
0000
0001
1000
0001
0000
0100
0000
0010
1000
,
0010
0000
0100
0000
0001
0010
0001
0000
1000
0000
0100
0010
0100
0000
1000
0000
,
0001
1000
0001
0000
1000
0001
1000
0000
0001
1000
0001
0000
1000
0001
1000
0000
,
0200
0000
0000
0000
,
0300
0000
0000
0000
;

//--------------- dance-single - forcednature ----------------
#NOTES:
     dance-single:
     forcednature:
     Hard:
     17:
     0,0,0,0,0:
0000
0000
0000
0000
,
0000
0000
0000
0000
,
0000
0000
0000
0000
,
0000
0000
0000
0000
,
0000
0000
0000
0000
,
0000
0000
0000
0000
,
0000
0000
0000
0000
,
1000
0000
0001
0100
0000
0001
0100
0000
0001
0100
0000
0010
,
1000
0001
1000
0100
0000
0010
0001
1000
0001
0100
0010
1000
,
0001
0010
0100
0000
1000
0010
0000
0100
,
0000
0110
0000
2002
0000
0000
3003
0000
,
0001
0100
1000
0100
0001
0000
0011
0000
,
1100
0000
0110
0000
1001
0000
0100
0100
,
0000
0000
0000
0000
0000
0000
0110
0000
0000
0000
0000
0000
1000
0000
0000
0001
0000
0000
1000
0000
0100
0000
0010
0000
,
0001
0000
0000
0101
0000
0000
0001
1000
0010
0100
0000
0000
,
1001
0000
0000
1000
0100
1000
0020
0000
0000
0130
0000
0100
,
1000
0000
1000
0100
0000
0100
0001
0000
0001
0010
0100
1000
,
0200
0000
0000
1300
0100
0001
0200
0000
0000
0310
0001
0100
,
0010
1001
1100
0101
,
1002
0000
0010
1000
,
0203
1000
0010
0001
,
0320
1000
0001
0100
,
2030
3020
0230
0302
,
0023
0100
1000
0001
,
0230
0001
1000
0010
,
2300
0010
0001
0100
,
3020
0000
0230
0000
0302
0000
0013
0100
,
2000
0000
3010
1000
,
0001
0000
0010
0100
1000
0000
0010
0100
,
0002
0000
0000
2000
0000
0000
3003
0000
,
0000
0000
1000
0100
0010
0000
0001
1000
,
0020
0000
0000
0200
0000
0000
0330
0000
,
0002
0000
1000
2000
0003
0000
3200
0000
,
0320
0000
0032
0100
,
0013
0000
0001
0000
1000
0000
0010
1000
,
0001
0100
0001
1000
0100
0010
0100
0000
,
1000
0001
0100
1000
0100
0010
1000
0000
,
0001
1000
0100
0001
0100
0010
0001
0000
,
1000
0010
0100
0001
0010
0100
1000
0001
,
0100
0100
0000
0001
0001
0000
1000
1000
,
0000
0100
0100
0000
0010
0001
0010
0001
,
2000
0000
0000
0000
0010
0000
0000
0000
0010
0000
0000
0000
3010
0000
1000
0001
,
1000
0000
0000
0000
1001
0000
0000
0000
1000
0000
0001
0100
0001
0100
0010
1000
,
0001
0011
1100
0011
,
1100
0000
0000
0000
1000
0000
0001
0000
0100
0000
0010
0000
1000
0000
0001
0100
,
0001
0000
0000
0000
1010
0000
0000
0000
0101
0000
0000
0000
0001
0000
1000
0100
,
1000
0000
0001
0000
0100
0000
0010
1000
0010
1000
0000
0100
0000
0010
0000
0001
,
1000
0000
0001
0100
1000
0000
0110
0000
,
1001
0000
1000
0100
0001
0000
0100
0010
,
0001
0000
0101
0000
1010
0000
0001
1000
,
0001
0000
0000
0100
0001
0000
1000
0000
0000
0100
1000
0001
1000
0000
0001
0010
,
0001
0100
0010
2000
0000
3100
0010
1000
,
0010
0001
1000
0020
0000
0130
1000
0100
,
0001
0000
1000
0010
1000
0000
0002
0000
0000
0000
0013
0000
0100
0000
1000
0000
,
0001
0000
0100
0001
0100
0001
1000
0010
1000
0000
0100
0000
0010
0000
0001
0000
,
0200
0300
0020
2030
,
3001
0010
0100
1000
0020
0000
0030
0000
,
2002
3003
0200
0300
,
1001
0000
0001
0100
0010
1000
0001
1000
,
0100
1000
0100
0000
0010
0000
0001
0000
0100
0000
0000
0010
1000
0000
0001
0000
,
0010
0000
0100
1000
0100
0001
0100
0010
,
0001
1000
0001
0000
0100
0000
0010
0000
1000
0000
0000
0100
0010
0000
0100
0000
,
1000
0001
0100
0010
1000
0100
0001
0100
,
1000
0100
0010
1000
0010
0001
1000
0100
,
1000
0020
0130
0020
0031
0020
0130
0020
,
1030
0000
0001
0010
0001
0010
0100
0000
1000
0010
1000
0010
0100
0000
0001
1000
,
0001
0000
1000
0100
0001
0100
0010
0001
,
0100
0010
0100
1000
0100
0001
0010
0100
,
1000
0000
0010
0001
0010
1000
0100
0010
,
1000
0010
0001
1000
0001
0100
1000
0100
,
0010
1000
0010
1000
0010
0000
0100
0001
0100
0001
0100
0000
0010
0000
1000
0000
,
0001
0010
0001
0010
0001
0000
1000
0100
1000
0100
1000
0000
0010
0000
0100
0000
,
0001
1000
0001
1000
0001
0000
0100
0010
0100
0010
0100
0000
0001
0000
1000
0000
,
0100
0010
0100
0010
0100
0000
1000
0001
1000
0001
1000
0000
0010
0000
0100
0000
,
0001
0010
0100
0001
0100
0010
1000
0010
,
0001
1000
0001
1000
0001
0000
0100
0000
0010
0000
1000
0000
0100
0010
0001
0000
,
0100
0000
0010
1000
0100
0000
0010
0000
0100
0000
1000
0000
0010
0000
0001
0000
,
0010
0000
0100
0001
1000
0000
0010
0000
1000
0001
1000
0001
1000
0001
1000
0001
,
1000
0000
0100
0000
0001
0100
0010
0000
,
0001
1000
0010
0000
0100
0000
0001
0000
,
0202
0000
0000
0303
,
2200
0000
3300
0010
,
2002
0000
0000
0000
,
0000
0000
0000
3003
,
0001
0100
1000
0100
0010
1000
0001
0010
,
0100
0000
0001
0000
0100
0000
1000
0000
0010
0000
1000
0000
0001
0000
1000
0100
,
0010
0000
0001
0000
0010
0000
1000
0000
0010
0000
0100
0000
1000
0000
0001
1000
,
0010
0000
0100
0000
0001
0000
1000
0100
0010
0001
0010
0001
1000
0100
1000
0100
,
0010
0000
0001
0000
0100
0000
0001
0000
1000
0000
0010
0000
1000
0100
1000
0100
,
1000
0000
0001
0000
0010
0000
0001
0100
0010
1000
0010
1000
0001
0100
0001
0100
,
0010
0000
1000
0000
0100
0000
0001
0000
0100
0000
0010
0000
0001
0000
1000
0001
,
1000
0001
1000
0001
1000
0001
1000
0001
1000
0000
0000
0000
0110
0000
0000
0000
,
1001
0000
1100
0000
0001
0010
0100
1000
,
0001
0000
0101
0000
1000
0010
1000
0001
,
0010
0000
0100
0001
0100
1000
0001
0100
,
0020
0001
0100
1030
,
0010
0100
0001
1000
0100
0001
0100
0010
,
1000
0000
0010
0000
0001
0000
1000
0000
0010
0000
0100
0000
0001
0000
1000
0100
,
0010
0000
0001
0000
1000
0000
0010
0000
0100
0000
1000
0000
0100
0000
0001
1000
,
0010
0000
0100
0000
0001
0000
1000
0100
0010
0001
0010
0100
1000
0000
0001
1000
,
0001
0100
0001
0100
0001
0100
0010
0000
0000
0000
0010
0000
1000
0100
1000
0100
,
1000
0100
0010
0000
0000
0000
0010
0000
0001
0100
0010
1000
0001
0000
1000
0100
,
0010
0001
1000
0000
0010
1000
0001
1000
0100
0000
0010
0001
1000
0001
0100
0000
,
0001
1000
0001
1000
0001
1000
0001
1000
0001
1000
0001
1000
0001
1000
0001
1000
,
0200
0000
0000
0000
,
0300
0000
0000
0000
;

//--------------- dance-double - forcednature ----------------
#NOTES:
     dance-double:
     forcednature:
     Easy:
     13:
     0,0,0,0,0:
00000000
00000000
00000000
00000000
,
00000000
00000000
00000000
00000000
,
00000000
00000000
00000000
00000000
,
00000000
00000000
00000000
00000000
,
00000000
00000000
00000000
00000000
,
00000000
00000000
00000000
00000000
,
00000000
00000000
00000000
00000000
,
00001000
00000100
00000001
00000010
,
00001000
00010000
00001000
00010000
00000000
00000000
01000000
10000000
01000000
10000000
01000000
10000000
,
00200000
00000000
00000000
00000000
,
00000000
00000000
00000000
02000000
00000000
00000000
03300000
00000000
,
00010000
10000000
00010000
10000000
00010000
00000000
00100000
00000000
,
00001000
00000000
00000010
00000000
00000001
00000000
00001000
00000010
,
00000000
00000000
00000000
00000000
00000000
00000000
00001001
00000000
00000000
00000000
00000000
00000000
00000001
00000000
00000000
00000100
00000000
00000000
00000010
00000000
00001000
00000000
00000010
00000000
,
00001000
00000000
00000000
00000100
00000000
00000000
00010000
00001000
00010000
00001000
00000000
00000000
,
00011000
00000000
01000000
00010000
,
10000000
00100000
10000000
01000000
,
00010000
00000000
00000000
00001000
00010000
00001000
00010000
00000000
00000000
00001000
00010000
00000100
,
00001000
00001000
00001000
00000010
,
00001001
00000000
00000000
00000000
,
00002000
00000000
00000000
00000000
,
00003200
00000000
00000000
00000000
,
00020300
00000000
00000000
00000000
,
00032000
00000000
00000000
00000000
,
02003000
00000000
00000000
00000000
,
03200000
00000000
00000000
00000000
,
20300000
00000000
32000000
00000000
,
03100000
00000000
00000000
00000000
,
00000000
00001000
00010000
00000100
,
00001000
00000000
00000000
00000001
00000000
00000000
00000000
00000000
,
00000000
00000001
00000100
00000010
,
00010000
00000000
00000000
00001000
00000000
00000000
00000000
00000000
,
00100000
00000000
00000000
00010000
00000000
00000000
01000000
00000000
,
00100000
00000000
20020000
00000000
,
30030000
00000000
00000000
00010000
,
01000000
00000000
00000000
00001000
00000000
00000000
00000000
00000000
,
00010000
00000000
00000000
00000100
00000000
00000000
00000000
00000000
,
00001000
00000000
00000000
00000001
00000000
00000000
00000000
00000000
,
00000100
00000000
00000000
00000010
00000000
00000000
00000000
00000000
,
00000100
00000000
00000000
00001000
00000000
00000000
00010000
00000000
,
00000000
01000000
00000000
00000000
00100000
00000000
00002000
00000000
,
00020000
00000000
00000000
00033000
,
00001000
00000000
00001000
00000000
00010000
01000000
10000000
00010000
,
01000000
01010000
01000000
01010000
,
01000000
00000000
00001000
00010000
00000100
00000000
00001000
00000001
,
00000100
00000101
00000100
00000101
,
00000010
00000000
00001000
00000000
00000001
00000000
00000000
00000000
00000010
00000000
00000000
00000100
00000000
00000100
00000000
00000000
,
00001001
00000000
00001000
00000010
00010000
00000000
00001000
00000000
,
00011000
00000000
00001000
00100000
00010000
00000000
01000000
00000000
,
01010000
01000000
11000000
01000000
,
00100000
00000000
00000000
00100000
00000000
00000000
00100000
00000000
00000000
00100000
00000000
00000000
00000000
00000000
00000000
00000000
,
10000000
00010000
10000000
00020000
00000000
00000000
00030000
00000000
,
00100000
00001000
00100000
00002000
00000000
00000000
00003000
00000000
,
00010000
00000010
00010000
00000020
00000000
00000000
00000030
00000000
,
00001000
00000001
00001000
00000002
00000000
00000000
00000003
00000000
,
00000100
00000000
00001000
00010000
,
02000000
00000000
03100000
00000000
,
20020000
00000000
30030000
00000000
,
10010000
00000000
10000000
01000000
,
00010000
00001000
00000100
00000001
,
00000010
00000000
00000001
00000100
,
00001000
00010000
01000000
10000000
,
00100000
10000000
00100000
00000000
01000000
00010000
01000000
00000000
,
00001000
00010000
00000100
00001000
,
00000001
00000010
00000001
00000000
00001000
00000100
00001000
00000000
,
00000010
00010000
00001000
00100000
,
10010000
00000000
10000000
01000000
,
00010000
00001000
00000010
00000001
,
00000100
00000000
00000001
00000100
,
00001000
00010000
00100000
10000000
,
01000000
01000000
10000000
01000000
01000000
10000000
00010000
00000000
,
01000000
01000000
00010000
01000000
01000000
00010000
00100000
00000000
,
00001000
00001000
00010000
00001000
00001000
00010000
00000100
00000000
,
00001000
00001000
00000001
00001000
00001000
00000001
00000010
00000000
,
00000100
00001000
00000100
00010000
00001000
01000000
00010000
00000000
,
10000000
10000000
10000000
00100000
10000000
01000000
00100000
00000000
,
01000000
10000000
00010000
01000000
00001000
00010000
00000100
00000000
,
00001000
00000001
00000100
00000010
00001000
00000100
00000010
00000000
,
00001002
00000203
00002300
00023000
,
02030000
23000000
30200000
00320000
,
00032000
00000000
00000000
00000000
,
00003020
00000000
00000000
00000230
,
00020300
00000000
00000000
00000000
,
00000000
00000000
00000000
00030000
,
01000000
10000000
01000000
00000000
01000000
10000000
01000000
00000000
,
00100000
00001000
00100000
00000000
00100000
00001000
00100000
00000000
,
00000100
00010000
00000100
00000000
00000100
00010000
00000100
00000000
,
00001000
00000001
00001000
00000000
00001000
00001000
00001000
00001000
,
00000010
00001000
00000010
00000000
00000010
00001000
00000010
00000000
,
00010000
00001000
00010000
00000000
00001000
00001000
00001000
00001000
,
00100000
00010000
00100000
00000000
00100000
00010000
00100000
00000000
,
01000000
01000000
01000000
01000000
01000000
00000000
00100000
00000000
,
10010000
00000000
00010000
01000000
,
00001000
00010000
00000100
00001000
,
00000001
00000100
00001000
00010000
,
02000000
00000000
00000000
03000000
,
10000000
00010000
10000000
00010000
10000000
00010000
10000000
00000000
,
01000000
00010000
01000000
00010000
01000000
00010000
01000000
00000000
,
00010000
00001000
00010000
00001000
00010000
00001000
00010000
00000000
,
00001000
00000100
00001000
00000100
00001000
00000100
00001000
00000000
,
00000100
00000100
00000100
00000001
00000000
00001000
00000010
00000010
,
00000010
00010000
00000000
00001000
00100000
00100000
00100000
01000000
,
01000000
01000000
10000000
10000000
10000000
00010000
00010000
00010000
,
01000000
00001000
00010000
00000100
00001000
00000010
00010000
00001000
,
00200000
00000000
00000000
00000000
,
00300000
00000000
00000000
00000000
;

//--------------- dance-double - forcednature ----------------
#NOTES:
     dance-double:
     forcednature:
     Medium:
     15:
     0,0,0,0,0:
00000000
00000000
00000000
00000000
,
00000000
00000000
00000000
00000000
,
00000000
00000000
00000000
00000000
,
00000000
00000000
00000000
00000000
,
00000000
00000000
00000000
00000000
,
00000000
00000000
00000000
00000000
,
00000000
00000000
00000000
00000000
,
00011000
01001000
01010000
10010000
,
10000000
01000000
00100000
00010000
00000000
00000000
01000000
00001000
01000000
00001000
01000000
00001000
,
00020000
00000000
00000100
00000000
00000100
00000000
00000000
00000100
,
00000000
00000100
00000000
00000200
00000000
00000000
00030300
00000000
,
00010000
00000100
00001000
00000010
00000100
00000000
00000101
00000000
,
00000101
00000000
00001001
00000000
00001001
00000000
00001000
00000100
,
00000000
00000000
00000000
00000000
00000000
00000000
00011000
00000000
00000000
00000000
00000000
00000000
01000000
00000000
00000000
00010000
00000000
00000000
10000000
00000000
01000000
00000000
00100000
00000000
,
00010000
00000000
00000000
01000000
00000000
00000000
00001000
00010000
00001000
00100000
00000000
00000000
,
00012000
00003020
00000032
00002003
,
00003020
00020030
00032000
00203000
,
00301000
00000000
00000000
00010000
00000100
00001000
00000100
00000000
00000000
00000010
00000001
00001000
,
00000001
00000101
00001100
00011000
,
00201000
00000000
00000000
00000000
,
02300000
00000000
00000000
00000000
,
23000000
00000000
00000000
00000000
,
30020000
00000000
00000000
00000000
,
02030000
00000000
00000000
00000000
,
03002000
00000000
00000000
00000000
,
00003200
00000000
00000000
00000000
,
00000302
00000000
00000000
00000000
00002003
00000000
00000000
00003100
,
00000020
00000000
00000000
00000030
,
00000000
00000000
00000100
00010000
00001000
00000000
01000000
00010000
,
10000000
00000000
00000000
20020000
00000000
00000000
30030000
00000000
,
00000000
00000000
00010000
00100000
00001000
00000000
00010000
00000010
,
00001000
00000000
00000000
00002002
00000000
00000000
00003003
00000000
,
00001000
00000000
00000100
00020000
00000000
00000000
00031000
00000000
,
02002000
03003000
20020000
00000000
,
30030000
00000000
00000000
10000000
,
01000000
10000000
00010000
02000000
00000000
00000000
03000000
00000000
,
00001000
00010000
00000100
00000020
00000000
00000000
00000030
00000000
,
00000001
00001000
00000010
00020000
00000000
00000000
00030000
00000000
,
00000100
00010000
00001000
02000000
00000000
00000000
03000000
00000000
,
00100000
10000000
00000000
10000000
01000000
00000000
01000000
00010000
,
00000000
00010000
00001000
00000000
00001000
00000010
00000001
00001000
,
00000002
00000000
00000000
00000000
00000100
00000000
00000000
00000000
00000100
00000000
00000000
00000000
00000013
00000000
00000000
00000001
,
00001000
00000000
00001001
00000000
00001000
00000100
00010000
00001000
,
01000000
10100000
10010000
00110000
,
10010000
00000000
10000000
01000000
00100000
00000000
01000000
00100000
,
00001000
00011000
00010100
00001010
,
00001001
00000000
00000000
00000000
00000001
00000000
00000100
00000000
00000010
00000000
00000000
00001000
00000000
00000001
00000000
00000000
,
00001001
00000000
00001000
00000100
00010000
00000000
00001000
00000000
,
01001000
00000000
01000000
00010000
00100000
00000000
01000000
00000000
,
11000000
00100000
01010000
00100000
,
00001000
00000000
00000000
00010000
00000000
00000000
00000100
00000000
00000000
00000010
00000000
00000000
00000001
00000000
00001000
00000000
,
00000001
00000100
00000001
00000200
00000000
00000000
00001300
00000000
,
00010000
01000000
00010000
02000000
00000000
00000000
13000000
00000000
,
00100000
00010000
00100000
00020000
00000000
00000000
00031000
00000000
,
00000010
00000100
00000010
00000200
00000000
00000000
00001300
00000000
,
00000002
00000003
00000200
00002300
,
00023000
00030000
02000000
03000000
,
20020000
00000000
30030000
00000000
,
00011000
00000000
00001000
01000000
00001000
00010000
00001000
00000010
,
00001000
00010000
00001000
01000000
00001000
00010000
00001000
00000010
,
00001000
00000000
00010000
00100000
00010000
00001000
00010000
00000100
,
00010000
00001000
00010000
00100000
00010000
00001000
00010000
00000000
,
01000000
10000000
00010000
00000000
01000000
00001000
00010000
00000000
,
00000100
00001000
00000001
00000000
00000100
00000010
00001000
00000000
,
00000100
00000010
00000100
00000010
00000001
00001000
00000001
00001000
,
00000010
00010000
00000000
00001000
00100000
00000000
00001000
00010000
,
00001000
00000000
00010000
01000000
00010000
00001000
00010000
00100000
,
00010000
00001000
00010000
01000000
00010000
00001000
00010000
00100000
,
00010000
00000000
00001000
00000100
00001000
00010000
00001000
00000010
,
00001000
00010000
00001000
00000100
00001000
00010000
00001000
00000000
,
00000100
00000001
00000100
00000000
00000001
00000000
00000100
00000001
00000100
00000000
00000010
00000000
00001000
00000000
00000000
00000000
,
00000100
00001000
00000100
00000000
00001000
00000000
00000100
00001000
00000100
00000000
00010000
00000000
00001000
00000000
00000000
00000000
,
01000000
00010000
01000000
00000000
00010000
00000000
01000000
00010000
01000000
00000000
00100000
00000000
10000000
00000000
00000000
00000000
,
00010000
00100000
00010000
00000000
00100000
00000000
00010000
00100000
00010000
00000000
01000000
00000000
00001000
00000000
00000000
00000000
,
00010000
00000100
00000010
00000001
00000100
00000010
00001000
00000000
,
00000100
00010000
00001000
01000000
00100000
10000000
00010000
00000000
,
10000000
01000000
00010000
00001000
01000000
00001000
00010000
00000000
,
00000001
00000100
00000010
00001000
00000100
00000010
00001000
00000000
,
00011000
00000000
00010000
00000000
00100000
01000000
00010000
00000000
,
10000000
01000000
00010000
00000000
00001000
00000000
00000100
00000000
,
00000202
00000000
00000000
00000303
,
00022000
00000000
00033000
01000000
,
20020000
00000000
00000000
00000000
,
00000000
00000000
00000000
30030000
,
10000000
01000000
00010000
01000000
00100000
00001000
00010000
00000100
,
00001000
00000001
00000100
00000010
00001000
00000100
00000010
00000000
,
00000100
00001000
00000001
00000100
00000010
00010000
00001000
00100000
,
00010000
10000000
00100000
01000000
00001000
00010000
01000000
00000000
,
00100000
00001000
00010000
00000100
00010000
00001000
00000100
00000001
,
00000010
00000100
00001000
00000001
00001000
00000010
00010000
00000000
,
00001000
00000010
00001000
00010000
00000100
00010000
00001000
01000000
,
00001000
00010000
00100000
10000000
00010000
00000000
10010000
00000000
,
20100000
00000000
30010000
00000000
10000000
00010000
01000000
00001000
,
00020000
00000000
00030010
00000000
00000100
00000001
00001000
00000100
,
00000020
00000000
00001030
00000010
00000001
00001000
00000010
00010000
,
00000200
00000001
00000010
00001300
,
00000100
00010000
00000100
00010000
00001000
01000000
00001000
01000000
,
00100000
00010000
00100000
00010000
00001000
00000010
00001000
00000010
,
00000001
00001000
00000001
00001000
00000010
00010000
00000010
00010000
,
01000000
00100000
01000000
00100000
00010000
10000000
00010000
00000000
,
10000000
01000000
10000000
00000000
01000000
00000000
00010000
00000000
00000000
00000000
00001000
00000000
00000100
00000001
00000100
00000000
,
00000001
00000000
00000010
00000000
00000000
00000000
00001000
00000000
00010000
00100000
00010000
00000000
00001000
00000000
01000000
00010000
,
01000000
00000000
00100000
00000000
10000000
00010000
10000000
00000000
01000000
00000000
00010000
00001000
00010000
00000000
00000010
00000000
,
00001000
00000001
00001000
00000000
00000001
00001000
00000001
00000000
00001000
00000001
00001000
00000000
00000001
00001000
00000001
00000000
,
00000200
00000000
00000000
00000000
,
00000300
00000000
00000000
00000000
;

//--------------- dance-double - forcednature ----------------
#NOTES:
     dance-double:
     forcednature:
     Hard:
     18:
     0,0,0,0,0:
00000000
00000000
00000000
00000000
,
00000000
00000000
00000000
00000000
,
00000000
00000000
00000000
00000000
,
00000000
00000000
00000000
00000000
,
00000000
00000000
00000000
00000000
,
00000000
00000000
00000000
00000000
,
00000000
00000000
00000000
00000000
,
00010000
00000000
00000100
00001000
00000000
00000100
00000001
00000000
00000100
00001000
00000000
00000001
,
00000100
00001000
00010000
00001000
00000000
00010000
01000000
10000000
00010000
10000000
00100000
00010000
,
00001000
00000100
00001000
00000000
00010000
01000000
00000000
01100000
,
00000000
00011000
00000000
00000220
00000000
00000000
00000330
00000000
,
00000001
00000100
00010000
01000000
00100000
00000000
10100000
00000000
,
11000000
00000000
00110000
00000000
00011000
00000000
00000100
00000010
,
00000000
00000000
00000000
00000000
00000000
00000000
00001001
00000000
00000000
00000000
00000000
00000000
00001000
00000000
00000000
00000100
00000000
00000000
00010000
00000000
00001000
00000000
00010000
00000000
,
01000000
00000000
00000000
01100000
00000000
00000000
00010000
10000000
00100000
00010000
00000000
00000000
,
00011000
00000000
00000000
00000100
00010000
00001000
00020000
00000000
00000000
00130000
00000000
00100000
,
10000000
00000000
10000000
01000000
00000000
01000000
00010000
00000000
00010000
00001000
00000010
00000001
,
00002000
00000000
00000000
00003010
00010000
00001000
00020000
00000000
00000000
01030000
10000000
00010000
,
01000000
01001000
00010100
00001001
,
00020010
00000000
00000100
00001000
,
00230000
00001000
00010000
10000000
,
02300000
10000000
00100000
00010000
,
03002000
00003020
00000032
00000203
,
00002300
01000000
00010000
00000010
,
02003000
10000000
00100000
00010000
,
03002000
00000010
00010000
00000100
,
00023000
00000000
02030000
00000000
23000000
00000000
30100000
01000000
,
00002000
00000000
00003100
00000001
,
00001000
00000000
00000100
00010000
00001000
00000000
01000000
00010000
,
20000000
00000000
00000000
00020000
00000000
00000000
30030000
00000000
,
00000000
00000000
00010000
01000000
00001000
00000000
00010000
00000100
,
00002000
00000000
00000000
00000002
00000000
00000000
00003003
00000000
,
00020000
00000000
00000100
00000200
00030000
00000000
00002300
00000000
,
00003002
00000000
00000203
00000010
,
00001300
00000000
00010000
00000000
01000000
00000000
10000000
00010000
,
10000000
01000000
00010000
00001000
01000000
00010000
00100000
00000000
,
00001000
00010000
00000100
00000010
00001000
00000010
00000001
00000000
,
00001000
00000100
00010000
00001000
00010000
01000000
00100000
00000000
,
00010000
10000000
00100000
00010000
00100000
01000000
00001000
00010000
,
00000100
00000100
00000000
00010000
00010000
00000000
00001000
00001000
,
00000000
01000000
01000000
00000000
00100000
00100000
00010000
00010000
,
00002000
00000000
00000000
00000000
00000010
00000000
00000000
00000000
00000010
00000000
00000000
00000000
00003010
00000000
00001000
00010000
,
00001000
00000000
00000000
00000000
00011000
00000000
00000000
00000000
01000000
00000000
00010000
10000000
01000000
10000000
00010000
00100000
,
01000000
01100000
00101000
00011000
,
00010100
00000000
00000000
00000000
00000100
00000000
00001000
00000000
00000001
00000000
00000100
00000000
00000010
00000000
00010000
00001000
,
00010000
00000000
00000000
00000000
00011000
00000000
00000000
00000000
01001000
00000000
00000000
00000000
01000000
00000000
00010000
10000000
,
00010000
00000000
00100000
00000000
00001000
00000000
00010000
00000010
00010000
00000010
00000000
00000100
00000000
00000001
00000000
00000010
,
00000001
00000000
00000100
00001000
00010000
00000000
00011000
00000000
,
01100000
00000000
00010000
10000000
01000000
00000000
00100000
00001000
,
00000010
00000000
00000110
00000000
00011000
00000000
00001000
00010000
,
01000000
00000000
00000000
00100000
00010000
00000000
01000000
00000000
00000000
00001000
00010000
00000100
00010000
00000000
00000010
00001000
,
00000010
00000100
00000001
00002000
00000000
00003100
00010000
00001000
,
01000000
00010000
10000000
00200000
00000000
00310000
00001000
00000010
,
00000001
00000000
00001000
00000100
00001000
00000000
00000020
00000000
00000000
00000000
00000130
00000000
00001000
00000000
00010000
00000000
,
01000000
00000000
10000000
00010000
10000000
01000000
00100000
00010000
01000000
00000000
00001000
00000000
00010000
00000000
00000100
00000000
,
00000020
00000030
00000002
00002003
,
00003010
00010000
00100000
00010000
00002000
00000000
00003000
00000000
,
02200000
03300000
00022000
00033000
,
00000110
00000000
00000001
00000010
00000100
00001000
00000010
00010000
,
00001000
01000000
00001000
00000000
00100000
00000000
01000000
00000000
00010000
00000000
00000000
01000000
10000000
00000000
00010000
00000000
,
10000000
00000000
00100000
00001000
00100000
01000000
00001000
00010000
,
00000100
00001000
00000100
00000000
00000010
00000000
00001000
00000000
00000010
00000000
00000000
00000001
00001000
00000000
00000001
00000000
,
00000100
00010000
01000000
00010000
00100000
01000000
00010000
00001000
,
00000010
00000001
00000100
00001000
00000100
00000010
00010000
00001000
,
00100000
00000000
01000000
10000000
00100000
00000000
01000000
00010000
00100000
00000000
00001000
00010000
00000100
00000000
00010000
00001000
,
01000000
00000000
00010000
00100000
01000000
00100000
00010000
00000000
01000000
00001000
00010000
00001000
01000000
00000000
00010000
00100000
,
00010000
00000000
01000000
00001000
00000010
00000001
00001000
00000100
,
00001000
00000010
00000100
00010000
00000100
00000001
00001000
00000100
,
00010000
00000000
00001000
01000000
10000000
01000000
00100000
10000000
,
01000000
00001000
00000100
00001000
00000010
00010000
00001000
00000010
,
00000001
00000100
00000010
00000100
00000001
00000000
00001000
00000100
00000010
00000100
00001000
00000000
00010000
00000000
01000000
00000000
,
00100000
10000000
00010000
10000000
00100000
00000000
01000000
00001000
00100000
00001000
01000000
00000000
00010000
00000000
00100000
00000000
,
00001000
00010000
00000100
00010000
00001000
00000000
00000100
00000001
00000010
00000001
00000100
00000000
00001000
00000000
00010000
00000000
,
01000000
10000000
00010000
10000000
01000000
00000000
00100000
00001000
00010000
00001000
00100000
00000000
01000000
00000000
00010000
00000000
,
00000100
00010000
00001000
00000100
00000010
00001000
00010000
00100000
,
01000000
10000000
00100000
10000000
01000000
00000000
00010000
00000000
00000100
00000000
00010000
00000000
00000010
00001000
00000001
00000000
,
00000010
00000000
00000100
00010000
00001000
00000000
00000100
00000000
00001000
00000000
01000000
00000000
00100000
00000000
10000000
00000000
,
01000000
00000000
00010000
00001000
00000010
00000000
00000100
00000000
00010000
00001000
00010000
00001000
00010000
00001000
00010000
00001000
,
00010000
00000000
01000000
00000000
10000000
00010000
01000000
00000000
,
00001000
00000010
00000001
00000000
00000100
00000000
00000010
00000000
,
00020020
00000000
00000000
00030030
,
00202000
00000000
00303000
01000000
,
00022000
00000000
00000000
00000000
,
00000000
00000000
00000000
00033000
,
00010000
00000100
00000001
00000100
00000010
00000001
00001000
00000010
,
00010000
00000000
00100000
00000000
01000000
00000000
00001000
00000000
00010000
00000000
01000000
00000000
10000000
00000000
00010000
01000000
,
00001000
00000000
00010000
00000000
00000100
00000000
00000010
00000000
00001000
00000000
00000010
00000000
00000001
00000000
00001000
00000010
,
00010000
00000000
00001000
00000000
00100000
00000000
01000000
10000000
01000000
00100000
01000000
10000000
01000000
00100000
00010000
00100000
,
00001000
00000000
00010000
00000000
00100000
00000000
00010000
00000000
00000010
00000000
00010000
00000000
00001000
00000010
00000100
00000010
,
00000001
00000000
00000100
00000000
00001000
00000000
00010000
00100000
00010000
00001000
00010000
00000100
00010000
00001000
00010000
01000000
,
00100000
00000000
00001000
00000000
00010000
00000000
00100000
00000000
10000000
00000000
01000000
00000000
00100000
00000000
00001000
00010000
,
00001000
01000000
00001000
00010000
00001000
00000010
00000100
00001000
00000010
00000000
00000000
00000000
00010100
00000000
00000000
00000000
,
01001000
00000000
00010010
00000000
00100000
00001000
00010000
00100000
,
10000000
00000000
01100000
00000000
10000000
01000000
00001000
00010000
,
00000010
00000000
00000001
00001000
00000010
00000001
00000010
00010000
,
00002000
00000010
00010000
01003000
,
00001000
00000100
00000001
00001000
00000100
00010000
01000000
00100000
,
10000000
00000000
00100000
00000000
00010000
00000000
00001000
00000000
00000100
00000000
00000001
00000000
00000100
00000000
00000010
00000001
,
00000100
00000000
00001000
00000000
00010000
00000000
00100000
00000000
10000000
00000000
00010000
00000000
00100000
00000000
01000000
00010000
,
00001000
00000000
00000100
00000000
00001000
00000000
00010000
00100000
00010000
00001000
00010000
00000100
00001000
00000000
00000100
00000010
,
00000100
00000001
00000100
00000010
00000100
00001000
00000100
00000000
00000000
00000000
00010000
00000000
00001000
01000000
00010000
01000000
,
00100000
01000000
10000000
00000000
00000000
00000000
01000000
00000000
00010000
00100000
00001000
00010000
00100000
00000000
00010000
00001000
,
00000010
00000100
00001000
00000000
00000010
00001000
00000001
00000100
00000010
00000000
00010000
00001000
00100000
00001000
00010000
00000000
,
00100000
10000000
01000000
10000000
01000000
00010000
01000000
00010000
00001000
00010000
00001000
00000100
00001000
00000100
00000001
00001000
,
00000002
00000000
00000000
00000000
,
00000003
00000000
00000000
00000000
;
