#VERSION:0.83;
#TITLE:MAGICAL VOICE SHOWER;
#SUBTITLE:;
#ARTIST:ウッチーズ;
#TITLETRANSLIT:;
#SUBTITLETRANSLIT:;
#ARTISTTRANSLIT:;
#GENRE:;
#ORIGIN:;
#CREDIT:;
#BANNER:MAGICAL VOICE SHOWER.png;
#BACKGROUND:;
#PREVIEWVID:;
#JACKET:MAGICAL VOICE SHOWER-jacket.png;
#CDIMAGE:;
#DISCIMAGE:;
#LYRICSPATH:;
#CDTITLE:;
#MUSIC:MAGICAL VOICE SHOWER.ogg;
#OFFSET:-0.032000;
#SAMPLESTART:56.040001;
#SAMPLELENGTH:16.000000;
#SELECTABLE:YES;
#BPMS:0.000=120.000;
#STOPS:;
#DELAYS:;
#WARPS:;
#TIMESIGNATURES:0.000=4=4;
#TICKCOUNTS:0.000=4;
#COMBOS:0.000=1;
#SPEEDS:0.000=1.000=0.000=0;
#SCROLLS:0.000=1.000;
#FAKES:;
#LABELS:0.000=Song Start;
#BGCHANGES:;
#KEYSOUNDS:;
#ATTACKS:
;

//---------------dance-single - ----------------
#NOTEDATA:;
#CHARTNAME:;
#STEPSTYPE:dance-single;
#DESCRIPTION:;
#CHARTSTYLE:;
#DIFFICULTY:Hard;
#METER:13;
#RADARVALUES:0.465256,0.621207,0.287364,0.644392,0.661808,374.000000,341.000000,33.000000,74.000000,0.000000,0.000000,0.000000,0.000000,0.000000,0.465256,0.621207,0.287364,0.644392,0.661808,374.000000,341.000000,33.000000,74.000000,0.000000,0.000000,0.000000,0.000000,0.000000;
#CREDIT:Pandemonium X;
#NOTES:
0000
0000
0000
0000
,
0000
0000
0000
0000
,
1000
0000
1000
0000
0001
0100
0000
0010
0000
0010
0000
0010
1000
0000
0001
0000
,
1000
0000
0000
0001
0000
0000
1000
0000
0001
0000
1000
0000
0001
0000
0000
1000
0000
0000
0000
0000
0000
0010
0000
0000
0000
0000
0000
0010
0000
0000
0000
0000
0000
0010
0000
0000
0100
0000
0000
0000
0000
0000
0100
0000
0000
0000
0000
0000
,
1002
0000
0000
0000
0100
0000
0000
1003
0000
0000
0000
0000
0000
0000
1000
0000
,
2100
0000
0000
0001
0000
0001
0000
3001
0000
0000
0000
0000
0000
0000
0001
0000
,
0021
0000
0000
0100
0000
0100
0000
0230
0000
0000
0000
0000
0310
0000
0001
0000
,
0200
0000
0000
0310
0000
0000
1000
0000
0002
0000
0000
0000
1003
0000
1000
0000
,
1002
0000
0000
0000
0010
0000
0000
1003
0000
0000
0000
0000
0000
0000
0100
0000
,
2100
0000
0000
0010
0000
0010
0000
0000
3002
0000
0000
0000
0013
0000
0010
0000
,
0100
0000
0000
0100
0000
0000
1000
0000
0001
0000
0000
0001
0000
0100
0000
0000
,
0010
0000
0000
0010
0100
0000
0000
0100
0010
1000
0000
0001
1000
0000
0001
0000
,
2000
0000
0000
3100
0000
0000
0000
0000
2000
0000
0000
0100
0000
3100
0000
0000
,
1000
0000
0000
1000
0000
0000
1000
0000
0002
0000
0000
0000
0000
0000
0000
0000
,
0203
0000
0000
0310
0000
0000
1000
0000
0200
0000
0000
0310
0000
0001
0000
0000
,
0020
0000
0000
0031
0000
0000
0100
0000
0020
0000
0000
0000
0000
0000
0000
0000
,
2030
0000
0000
3100
0000
0000
0000
0000
2000
0000
0000
0100
0000
3100
0000
0000
,
2000
0000
0000
3001
0000
0000
0100
0000
0020
0000
0000
0000
2030
0000
0000
0000
,
3200
0000
0000
0320
0000
0000
0032
0000
2003
0000
0000
0000
3020
0000
0000
0000
,
0200
0000
0000
0330
0101
0000
1100
0000
,
0011
0000
0010
0100
0000
0100
0000
1000
0000
1000
0000
1000
0001
0000
0100
0000
,
0010
0000
0000
1000
0100
1000
0000
0001
0000
0000
0001
0000
0010
0000
0100
0000
,
1000
0000
0000
0100
0010
0100
0000
0010
0000
0001
0000
1000
0010
0000
1000
0000
,
0100
0000
0000
1000
0001
1000
0000
0001
0000
0000
1000
0000
0100
0000
0010
0000
,
0001
0000
0100
0001
0000
0001
0100
0000
0010
0000
1000
0010
0000
0010
1000
0000
,
0100
0000
0010
0100
0000
0100
0010
0000
0001
0000
1000
0001
0000
0001
1000
0000
,
0020
0000
0000
1030
0000
0000
0001
0000
0101
0000
0000
0000
1100
0000
0000
0000
,
1002
0000
1003
0100
0000
0001
0100
0000
0020
0000
0000
0000
0000
0000
0030
0000
,
1001
0000
1000
0100
0000
0010
0000
0002
0000
0100
0000
0003
0102
0000
0000
0000
,
1003
0000
0000
0000
0000
0000
1000
0000
0000
0100
0000
0000
0000
0000
0000
1000
0000
0000
0000
0000
0000
0002
0000
0000
0000
0000
0000
0000
0100
0000
0000
0000
0103
0000
0000
0000
0120
0000
0000
0000
0000
0000
0000
0000
0000
0000
0000
0000
,
1030
0000
0100
0010
0000
0100
0000
2000
0000
0001
0000
3000
1020
0000
0000
0000
,
0230
0000
0000
0001
0000
0001
0000
0000
0320
0000
0000
0000
2030
0000
0000
0000
,
3002
0000
1003
0100
0000
0010
0000
0002
0000
1000
0000
0003
0012
0000
0000
0000
,
1003
0000
0000
0000
0000
0000
1000
0000
0000
0100
0000
0000
0000
0000
0000
1000
0000
0000
0000
0000
0000
0002
0000
0000
0000
0000
0000
0000
1000
0000
0000
0000
1003
0000
0000
0000
1200
0000
0000
0000
0000
0000
0000
0000
0000
0000
0000
0000
,
0320
0000
0000
0000
0002
0000
0000
0033
,
0000
1001
0000
1000
0001
1001
0000
1000
1001
0000
0000
1001
0001
0000
0001
0000
,
1000
0000
0100
0010
0000
0100
1000
0010
0000
0010
1000
0100
0000
0100
0010
0001
,
0000
0010
0001
0100
0000
0100
0001
0010
0000
0010
0001
1000
0000
0001
0000
1000
,
0000
1000
0001
0010
0000
0010
0001
1000
0000
1000
0001
0010
0000
0100
0000
0000
,
0021
0000
0000
0030
2100
0000
3020
0000
,
0130
0000
0010
1000
0000
1000
0001
0010
0000
0010
0001
1000
0000
1000
0000
0001
,
0000
1000
0010
0100
0000
0100
0010
1000
0000
1000
0010
0100
0000
0001
0000
0010
,
0000
0100
0010
0001
0000
0001
0010
0100
0000
0100
0010
0002
0000
0000
0000
0000
,
2003
0000
0000
0010
0000
0010
0000
0000
0020
0000
3000
0000
0130
0000
0001
0000
,
0020
2030
3020
0032
,
0203
2300
3200
0302
,
2003
3002
0023
0032
,
2000
0000
0000
0000
3003
0000
0001
1000
,
2010
0000
0000
0010
0000
0000
0010
0000
3010
0000
0000
0000
1000
0000
0001
0000
,
0201
0000
0000
0001
0000
0000
0001
0000
0301
0000
0000
0000
0010
0000
0100
0000
,
2100
0000
0000
3010
0000
0000
0100
0000
0102
0000
0000
0013
0000
0000
0100
0000
,
2001
3002
0020
0003
,
0200
0030
2000
0000
,
3300
0000
0000
0000
,
1010
0000
0000
0011
0000
0001
0000
0001
1000
1010
0000
1010
0000
0000
0101
0000
;

//---------------dance-single - ----------------
#NOTEDATA:;
#CHARTNAME:;
#STEPSTYPE:dance-single;
#DESCRIPTION:;
#CHARTSTYLE:;
#DIFFICULTY:Medium;
#METER:10;
#RADARVALUES:0.343344,0.358388,0.148036,0.330904,0.361382,276.000000,259.000000,17.000000,38.000000,0.000000,0.000000,0.000000,0.000000,0.000000,0.343344,0.358388,0.148036,0.330904,0.361382,276.000000,259.000000,17.000000,38.000000,0.000000,0.000000,0.000000,0.000000,0.000000;
#CREDIT:Pandemonium X;
#NOTES:
0000
0000
0000
0000
,
0000
0000
0000
0000
,
1000
0001
0001
0000
0010
0100
0100
0000
,
0010
0001
0100
1000
0100
0001
1000
1000
,
0010
0000
0000
0000
0100
0000
0000
0001
0000
0000
0000
0000
0000
0000
0010
0000
,
0001
0000
0000
1000
0000
1000
0000
0100
0000
0000
0000
0000
0000
0000
0010
0000
,
0001
0000
0000
0100
0000
0100
0000
0010
0000
0000
0000
0000
1000
0000
0001
0000
,
0010
0000
0000
0001
0000
0000
0100
0000
0020
0000
0000
0000
1030
0000
1000
0000
,
0100
0000
0000
0000
0010
0000
0000
0100
0000
0000
0000
0000
0000
0000
0100
0000
,
1000
0000
0000
0001
0000
0001
0000
0000
0200
0000
0000
0000
0310
0000
1000
0000
,
0100
0000
0000
1000
0000
0000
0010
0000
0100
0000
0000
0001
0000
0010
0000
0000
,
2200
0000
0000
3300
,
0001
0000
0000
0001
0000
0000
0000
0000
0001
0000
0000
0001
0000
1000
0000
0000
,
0001
0000
0000
0001
0000
0000
0001
0000
2000
0000
0000
0000
0000
0000
0000
0000
,
3010
0000
0000
0010
0000
0000
0010
0000
0100
0000
0000
0100
0000
0010
0000
0000
,
1000
0000
0000
0001
0000
0000
1000
0000
2000
0000
0000
0000
3000
0000
0000
0000
,
1000
0000
0000
0001
0010
0000
0000
0000
0001
0000
0000
1000
0010
0000
0000
0000
,
0100
0000
0000
0010
1000
0000
0000
0000
0002
0000
0000
0000
2003
0000
0000
0000
,
3100
0000
0000
0100
0000
0000
0010
0000
0100
0000
0000
0000
2000
0000
0000
0000
,
3010
0000
1010
0101
,
0001
0000
1000
0001
0000
1000
0000
0200
0000
0000
0000
0000
0000
0000
0000
0000
,
0300
0000
0000
0010
0001
0010
0000
0001
0000
0000
1000
0000
0100
0000
1000
0000
,
0010
0000
0000
0100
0001
1000
0000
0200
0000
0000
0000
0000
0000
0000
0000
0000
,
0300
0000
0000
0010
0001
0010
0000
0001
0000
0000
1000
0000
0001
0000
0100
0000
,
0010
0000
0000
1000
0000
0000
0100
0000
0010
0000
0000
0100
0000
0000
1000
0000
,
0001
0000
0000
0100
0000
0000
0001
0000
0010
0000
0000
0000
0100
0000
0010
0000
,
0001
0000
0000
1000
0000
0000
0010
0000
1010
0000
0000
0000
0101
0000
0000
0000
,
2002
0000
0000
3003
,
1001
0000
0001
0100
0000
0001
0000
0200
0000
0000
0000
0000
0320
0000
0000
0000
,
1030
0000
0001
1000
0000
0001
0000
0020
0000
0000
0000
0000
0031
0000
0000
0000
,
0100
0000
0001
0100
0000
0001
0000
0200
0000
0000
0000
0000
0320
0000
0000
0000
,
0230
0000
0000
0301
,
1000
0000
0001
1000
0000
0001
0000
0200
0000
0000
0000
0000
0301
0000
0000
0000
,
0001
0000
1000
0001
0000
1000
0000
0002
0000
0000
0000
0000
0013
0000
0000
0000
,
2002
0000
0000
3003
0202
0000
0000
0303
,
0000
1000
0000
0010
0100
0010
0000
0100
0010
0000
0000
1000
0000
0000
0000
0000
,
0001
0000
0000
0001
0000
0000
0001
0000
0000
0001
0000
0000
0001
0000
1000
0000
,
0010
0000
0000
0010
0000
0000
0010
0000
0000
0010
0000
0000
0010
0000
1000
0000
,
0100
0000
0000
0100
0000
0000
0100
0000
0000
0100
0000
0000
0100
0000
0010
0000
,
0002
0003
1100
0011
,
0001
0000
0000
0100
0000
0000
0010
0000
0000
1000
0000
0000
0100
0000
1000
0000
,
0010
0000
0000
0100
0000
0000
0001
0000
0000
1000
0000
0000
0100
0000
1000
0000
,
0010
0000
0000
1000
0000
0000
0001
0000
0000
0010
0000
0000
0100
0000
0000
0000
,
0110
0000
0000
1000
0000
0001
0000
0000
0200
0000
0000
0000
0301
0000
0100
0000
,
0020
1000
0230
0001
,
0320
1000
0230
0001
,
0320
1000
0230
0001
,
0020
0000
0000
0000
0000
0330
0010
0100
,
0001
0000
0000
0001
0000
0000
0001
0000
1000
0000
0000
0000
1000
0000
0001
0000
,
0010
0000
0000
0100
0000
0000
0010
0000
0001
0000
0000
0000
0010
0000
0100
0000
,
1000
0000
0000
0100
0000
0000
1000
0000
0010
0000
0000
0100
0000
0000
0001
0000
,
2000
0000
3002
0000
,
0023
0000
0032
0000
,
0003
0000
0000
0000
,
1010
0000
0000
0101
0000
0000
0000
0000
0000
1010
0000
0101
0000
0000
1001
0000
;

//---------------dance-single - ----------------
#NOTEDATA:;
#CHARTNAME:;
#STEPSTYPE:dance-single;
#DESCRIPTION:;
#CHARTSTYLE:;
#DIFFICULTY:Easy;
#METER:7;
#RADARVALUES:0.269948,0.382281,0.200284,0.208992,0.087080,217.000000,194.000000,23.000000,24.000000,0.000000,0.000000,0.000000,0.000000,0.000000,0.269948,0.382281,0.200284,0.208992,0.087080,217.000000,194.000000,23.000000,24.000000,0.000000,0.000000,0.000000,0.000000,0.000000;
#CREDIT:Pandemonium X;
#NOTES:
0000
0000
0000
0000
,
0000
0000
0000
0000
,
1000
0001
0010
0001
,
0100
0010
0100
0000
0010
0000
1000
0010
,
0100
0001
0010
0000
,
0100
1000
0001
0000
,
1000
0001
0100
0001
,
0010
0000
1000
0000
0010
0000
0001
0010
,
0100
0010
0001
0000
,
1000
0001
1000
0100
,
1000
0010
1000
0100
,
0020
0000
0000
0000
,
0130
0000
0100
0000
,
0010
0000
0001
0000
,
1000
0000
0001
0000
,
1000
0000
0010
0000
,
1000
1010
0010
0110
,
0100
0101
0001
1001
,
0001
1000
0110
1001
,
0220
0000
0000
0000
0000
0330
0000
0000
0001
0000
0000
0000
1000
0000
0000
0000
,
0001
0000
1000
0100
1000
0000
0100
0000
,
1000
0000
0010
1000
0010
0000
1000
0000
,
0001
0000
0010
0100
0010
0000
0100
0000
,
1000
0000
0001
0100
0001
0000
0100
0000
,
0002
1003
2000
3001
,
0002
1003
2000
3001
,
1000
0001
0110
1001
,
0220
0000
0000
0330
,
0001
0000
0000
1000
0000
1000
0000
1000
0000
0000
0000
0000
1001
0000
0000
0000
,
1000
0000
0000
0001
0000
0001
0000
0001
0000
0000
0000
0000
1001
0000
0000
0000
,
0001
0000
0000
1000
0000
1000
0000
1000
0000
0000
0000
0000
1001
0000
0000
0000
,
0220
0000
0000
0330
,
0110
0000
0000
0010
0000
0010
0000
0100
0000
0000
0000
0000
0110
0000
0000
0000
,
0110
0000
0000
0100
0000
0100
0000
0010
0000
0000
0000
0000
0110
0000
0000
0000
,
2002
0000
0000
3003
0220
0000
0000
0330
,
0000
0001
0000
0000
1000
0000
0000
0000
0010
0000
0000
1000
0000
0000
0000
0000
,
0100
1000
0010
1000
,
0001
0010
0001
0100
,
0010
1000
0001
0100
,
0010
1000
1001
0110
,
1000
0100
1000
0010
,
1000
0001
0010
0001
,
0100
0001
0010
0100
,
1000
0000
0100
0000
0010
0000
0001
0010
,
0100
0010
0002
1003
,
0001
0100
0020
1030
,
0010
1000
0001
0010
,
0200
0000
0000
0000
0300
0000
0010
0001
,
1000
0001
0200
0301
,
0010
0001
2000
3001
,
1000
0010
1000
0100
,
0020
0000
0032
0000
,
0203
0000
0320
0000
,
0030
0000
0000
0000
,
1000
0000
0000
0001
0000
0000
0000
0000
0000
0010
0000
0010
0000
0000
1001
0000
;

//---------------dance-single - ----------------
#NOTEDATA:;
#CHARTNAME:;
#STEPSTYPE:dance-single;
#DESCRIPTION:;
#CHARTSTYLE:;
#DIFFICULTY:Beginner;
#METER:3;
#RADARVALUES:0.115692,0.215033,0.104496,0.008708,0.000000,93.000000,81.000000,12.000000,1.000000,0.000000,0.000000,0.000000,0.000000,0.000000,0.115692,0.215033,0.104496,0.008708,0.000000,93.000000,81.000000,12.000000,1.000000,0.000000,0.000000,0.000000,0.000000,0.000000;
#CREDIT:Pandemonium X;
#NOTES:
// measure 0
0000
0000
0000
0000
,  // measure 1
0000
0000
0000
0000
,  // measure 2
0000
0000
0000
0000
,  // measure 3
0000
0000
0000
0000
,  // measure 4
1000
0000
0000
0000
,  // measure 5
0001
0000
0000
0000
,  // measure 6
1000
0000
0000
0000
,  // measure 7
0001
0000
1000
0000
,  // measure 8
0010
0000
0000
0000
,  // measure 9
0100
0000
0000
0000
,  // measure 10
0010
0000
1000
0000
,  // measure 11
0100
0000
0000
0000
,  // measure 12
1000
0000
1000
0000
,  // measure 13
1000
0000
0000
0000
,  // measure 14
0001
0000
0001
0000
,  // measure 15
1000
0000
0000
0000
,  // measure 16
0010
0000
0010
0000
,  // measure 17
0100
0000
0010
0000
,  // measure 18
1000
0000
0001
0000
,  // measure 19
0100
0000
0010
0100
,  // measure 20
1001
0000
0000
0000
,  // measure 21
0000
1000
0000
0000
,  // measure 22
0010
0000
0000
0000
,  // measure 23
0000
0100
0000
0000
,  // measure 24
0001
0000
1000
0000
,  // measure 25
0010
0000
1000
0000
,  // measure 26
0001
0000
1000
0001
,  // measure 27
0110
0000
0000
0000
,  // measure 28
1001
0000
0000
0010
,  // measure 29
1001
0000
0000
0100
,  // measure 30
1001
0000
0000
0010
,  // measure 31
1001
0000
0000
0000
,  // measure 32
0110
0000
0000
1000
,  // measure 33
0110
0000
0000
0001
,  // measure 34
0110
0000
1001
0000
,  // measure 35
0110
0000
0000
0000
,  // measure 36
1000
0000
0001
0000
,  // measure 37
0010
0000
0001
0000
,  // measure 38
1000
0000
0010
0000
,  // measure 39
0100
0000
0010
0010
,  // measure 40
1000
0000
0001
0000
,  // measure 41
0010
0000
0001
0000
,  // measure 42
1000
0000
0100
0000
,  // measure 43
1000
0000
0001
0100
,  // measure 44
0010
0000
0000
0000
,  // measure 45
0100
0000
0000
0000
,  // measure 46
0001
0000
1000
0000
,  // measure 47
0010
0000
0000
0000
,  // measure 48
0100
0000
0000
0000
,  // measure 49
0010
0000
0000
0000
,  // measure 50
1000
0000
0001
0000
,  // measure 51
2000
0000
0000
0000
,  // measure 52
0000
0000
0000
0000
,  // measure 53
3000
0000
0000
0000
,  // measure 54
0010
0000
0000
0000
0000
0000
0000
1001
;
