#TITLE:MA・TSU・RI;
#ARTIST:かなたん,アマギセーラ,ぁゅ by BEMANI Sound Team "藤森崇多";
#TITLETRANSLIT:MA-TSU-RI;
#ARTISTTRANSLIT:Kanata.N, Sera Amagi, ayu by Sota Fujimori;
#BANNER:MA-TSU-RI.png;
#BACKGROUND:MA-TSU-RI-bg.png;
#JACKET:MA-TSU-RI-jacket.png;
#CDTITLE:./CDTITLES/JUBEAT.PNG;
#MUSIC:MA-TSU-RI.ogg;
#SAMPLESTART:78;
#SAMPLELENGTH:15;
#BPMS:0=160;
#STOPS:271=1.125;

//---------------dance-single - t7r----------------
#NOTES:
     dance-single:
     t7r:
     Beginner:
     1:
     :
0000
0000
0000
0000
,
0000
0000
0000
0000
,
0000
0000
0000
0000
,
0000
0000
0000
0000
,
0000
0000
0000
0000
,
0000
0000
0000
0000
,
0001
0000
0000
0000
,
0000
0000
0000
0000
,
1000
0000
0000
0000
,
0000
0000
0000
0000
,
0010
0000
0000
0000
,
0010
0000
0000
0000
,
0100
0000
0000
0000
,
0100
0000
0000
0000
,
0001
0000
0000
0000
,
0001
0000
0000
0000
,
1000
0000
0000
0000
,
0000
0000
1000
1000
,
0000
0000
0001
0000
,
0001
0000
0001
0000
,
0000
0000
0100
0000
,
0100
0000
0100
0000
,
0000
0000
0010
0000
,
0010
0000
0010
0000
,
0000
0000
1000
0000
,
1000
0000
0000
0000
,
0100
0000
0000
0000
,
1000
0000
0000
0000
,
0010
0000
0000
0000
,
0100
0000
0000
0000
,
0001
0000
0000
0000
,
0010
0000
0000
0000
,
0100
0000
0000
0000
,
1000
0000
0000
0000
,
0001
0000
0001
0000
,
0001
0000
0000
0000
,
1000
0000
1000
0000
,
1000
0000
0000
0000
,
0010
0000
0010
0000
,
0010
0000
0000
0000
,
0100
0000
0100
0000
,
0100
0000
0000
0000
,
0010
0000
0000
0000
,
0000
0000
0000
0000
,
1000
0000
0000
0000
,
0000
0000
0000
0000
,
0001
0000
0000
0000
,
0000
0000
0000
0000
,
0010
0000
0010
0000
,
0010
0000
0000
0000
,
0000
0000
0000
0000
,
0000
0000
0000
0000
,
1000
0000
1000
0000
,
1000
0000
0000
0000
,
0001
0000
0001
0000
,
0001
0000
0000
0000
,
0100
0000
0100
0000
,
0100
0000
0000
0000
,
0010
0000
0000
0000
,
0000
0000
1000
1000
,
1000
0000
0000
0000
,
0001
0000
0000
0000
,
0010
0000
0000
0000
,
0100
0000
0000
0000
,
0010
0000
0000
0000
,
0001
0000
0000
0000
,
1000
0000
1000
0000
,
1000
0000
1000
1000
,
0000
0010
0000
0010
,
0000
0010
0000
0000
,
0000
0100
0000
0100
,
0000
0100
0100
0100
;

//---------------dance-single - t7r----------------
#NOTES:
     dance-single:
     t7r:
     Easy:
     6:
     :
0000
0000
0000
0000
,
0000
0000
0000
0000
,
0000
0000
0000
0000
,
0000
0000
0000
0000
,
0000
0000
0000
0000
,
0000
0000
0000
0000
,
0020
0000
0000
0000
,
0000
0000
0000
0000
,
2030
0000
0000
0000
,
3002
0000
0000
1003
,
0010
1000
0200
0000
,
0310
0001
0100
0010
,
1000
0001
0020
0000
,
0031
0100
0010
1000
,
0001
0010
0200
0000
,
1300
0100
0001
0100
,
1000
0010
0200
0000
,
0301
0010
0001
1001
,
1000
0000
1000
0000
,
1000
0000
0010
0010
,
0100
0000
0100
0000
,
0001
0000
0010
0010
,
0001
0100
0020
0000
,
1030
0001
0010
0010
,
0001
1000
0010
0010
,
2000
0100
0001
3010
,
1010
0000
0000
0010
0000
0000
1000
0000
,
0002
0010
1000
0103
,
0101
0000
0000
0001
0000
0000
0100
0000
,
0020
0100
0001
1030
,
1001
0000
0000
1000
0000
0000
0001
0000
,
0200
1000
0010
0301
,
0011
0000
0000
0010
0000
0000
0001
0000
,
2000
0010
0001
3100
,
1100
0000
2000
3010
,
1000
0100
0010
0010
,
0001
0100
0010
0010
,
1000
0001
0100
0110
,
0001
0000
0020
0031
,
1000
0001
0100
0010
,
1000
1000
0001
0001
,
1000
0100
0010
0001
,
2000
0010
0001
0000
,
0100
0100
3100
0000
,
0002
0010
1000
0000
,
0100
0100
0103
0000
,
0020
1000
0001
0000
,
0100
0100
0130
0000
,
0200
0001
1000
0000
,
0320
1000
1030
0001
,
1000
0000
1000
0000
,
1000
0001
1000
1001
,
0020
0000
0000
0130
0000
0000
0001
0000
,
0020
0000
0000
0130
0000
0000
1000
0000
,
0002
0003
0200
0300
,
0020
0030
2000
3000
,
0200
0000
0000
0310
0000
0000
0001
0000
,
2000
0000
3010
1000
,
0001
0000
1001
0000
,
0100
0010
0100
0110
,
2000
0100
3010
0000
,
0002
0100
0013
0000
,
2000
0010
3001
0000
,
0100
0010
1000
0001
,
0020
0001
0130
0100
,
2000
0010
3100
0100
,
0110
0000
0000
0001
0000
0000
1000
0000
,
0001
0001
1001
1001
,
0000
0110
1000
0100
,
0001
0100
0010
0001
,
0000
0000
0100
0100
0100
0000
0001
0001
,
0001
0000
1000
1000
1000
1000
1000
0000
,
0001
0002
0000
0000
0000
0000
0000
0000
,
0003
0000
0000
0000
;

//---------------dance-single - t7r----------------
#NOTES:
     dance-single:
     t7r:
     Medium:
     11:
     :
0000
0000
0000
0000
,
0000
0000
0000
0000
,
0000
0000
0000
0000
,
0000
0000
0000
0000
,
0000
0000
0000
0000
,
0000
0000
0000
0000
,
1000
0001
0001
0000
0100
0000
0100
0000
,
0001
0000
0010
0000
0100
1000
0001
0000
,
0010
0001
0001
0000
0100
0000
0100
0000
,
0010
1000
0001
0000
0100
0000
0110
0000
,
1000
0000
0000
0001
0100
0000
0000
0000
0010
0000
0020
0000
0000
0000
1030
0000
,
0001
0010
0100
0000
1000
0000
1000
0000
,
0001
0000
0000
1000
0010
0000
0000
0000
0100
0000
0200
0000
0000
0000
0310
0000
,
0000
1000
0100
0000
1000
0000
0001
0000
,
0100
0000
0000
0010
1000
0000
0000
0000
0100
0000
0200
0000
0000
0000
0310
0000
,
0000
0001
0100
0000
0001
1000
0010
0000
,
1000
0000
0000
0100
0010
0000
0000
0000
0001
0000
0002
0000
0000
0000
1003
0000
,
0000
0010
0100
0000
0010
0000
1010
0000
,
1000
0100
1000
0000
0001
0010
0001
0000
,
2000
3100
0002
0103
,
1000
0010
1000
0000
0001
0100
0001
0000
,
2000
3010
0002
0013
,
0100
0010
1000
0000
0010
0100
0001
0000
,
0020
0000
0031
0000
1000
0001
0100
0000
,
0110
0000
0000
1001
0000
0000
0101
0000
,
2000
0010
0001
3100
,
1100
0000
0010
0100
0000
1000
0100
0000
,
1000
0010
1000
0000
0001
0010
0001
0000
,
0101
0000
0010
0100
0000
0001
0100
0000
,
0010
1000
0100
0000
0010
0001
0100
0000
,
0110
0000
0001
1000
0000
0010
1000
0000
,
0001
0010
0100
0000
1000
0100
0010
0000
,
0110
0000
1000
0010
0000
0100
0010
0000
,
1000
0001
0001
0001
1000
0000
1001
0000
,
0001
0010
0020
0000
0032
0000
0103
0000
,
0010
1000
0100
0000
0010
0000
0011
0000
,
1000
0100
1000
0000
0001
0100
0010
0000
,
1000
0010
0100
0001
1000
0000
1001
0000
,
1000
0010
0020
0000
1030
0000
1100
0000
,
1000
0001
0010
0100
1000
0000
1010
0000
,
0010
0100
0001
0000
0010
0100
1000
0000
,
0001
0100
1000
0000
0100
0000
0110
0000
,
1000
0000
0010
1000
0000
0000
0020
0000
0000
1030
0000
0000
,
0001
0000
0010
0001
0000
0000
0010
0000
0001
1000
0000
0000
,
0001
0000
0100
0001
0000
0000
0200
0000
0000
0310
0000
0000
,
0100
0000
0010
1000
0000
0100
0010
0000
0000
1001
0000
0000
,
0001
0000
0010
0100
0000
2000
0000
0000
0000
0000
0000
3010
,
0100
0000
0010
0100
0000
0010
0100
0000
0100
0000
0000
0001
,
1000
0000
0100
0010
0000
0200
0000
0000
0000
0000
0000
1300
,
0001
0000
0100
0010
0000
0100
0010
0000
0000
1001
0000
0000
,
0020
0000
0100
0000
,
0130
0000
0010
0100
0000
0000
0010
0000
0000
1001
0000
0000
,
1000
0100
1000
0000
0002
0000
0013
0000
,
0001
0100
0001
0000
1000
0010
1000
0000
,
0002
0013
2000
3010
,
0002
0000
0103
0000
2000
0000
3100
0010
,
0200
0000
0310
1000
0000
0001
0100
0000
,
0001
0010
0001
0000
1000
0010
1000
0000
,
0210
0000
1000
0301
,
1000
0001
1000
0000
1001
0000
1001
0000
,
0001
0000
0000
0010
0001
0000
0000
0000
0100
0000
0000
0000
0010
0000
0010
0000
,
1000
0000
0000
0100
1000
0000
0000
0000
0010
0000
0000
0000
0100
0000
0100
0000
,
0001
0000
0000
0010
0001
0000
0000
0000
1000
0000
0000
0010
1000
0000
0000
0000
,
0002
0013
2000
3010
,
0100
0000
0000
0100
1000
0000
0000
0000
0001
1000
0000
0000
0001
0000
0001
0000
,
0010
0000
0000
0001
0100
0000
0000
0000
0010
0100
0000
0000
0010
0000
0010
0000
,
1000
0000
0000
0100
0001
0000
0000
0000
1000
0000
0000
0001
0100
0000
0000
0000
,
1000
0010
0100
0000
0110
0000
0110
0000
,
0010
0000
1000
0100
0100
0000
0001
0100
,
0100
0000
1000
0010
0100
0000
0110
0000
,
1002
0000
1003
0001
0100
0000
1000
0100
,
0001
0000
0010
0100
1000
0010
0010
0100
,
0100
0200
0000
0000
0000
0000
0000
0000
,
0300
0000
0000
0000
;

//---------------dance-single - t7r----------------
#NOTES:
     dance-single:
     t7r:
     Hard:
     15:
     :
0000
0000
0000
0000
,
0000
0000
0000
0000
,
0000
0000
0000
0000
,
0000
0000
0000
0000
,
0000
0000
0000
0000
,
0000
0000
0000
0000
,
1000
0010
0010
1000
0200
0000
0001
0000
,
0310
0100
1000
0010
0010
0100
0001
1000
,
0001
0100
1000
0001
0010
0100
1000
0100
,
0010
0000
0010
0000
0010
0000
0010
0000
1000
0000
0001
1000
0001
0000
0000
0000
,
1000
0000
0000
0100
1000
0000
0001
0000
0100
0001
0200
0000
0000
0000
0301
0000
,
0010
0001
0100
0010
0001
0010
0100
0001
,
1000
0000
0100
0000
0001
0000
0100
0000
0010
0100
0020
0000
0000
0000
1030
0000
,
0000
0010
0001
0100
0010
0100
0110
0000
,
0020
0000
0000
0000
1000
0000
0000
0000
0130
0001
0200
0000
0000
0000
0301
0000
,
0010
1000
0010
0100
1000
0100
0010
1000
,
0010
0000
0001
0000
0100
0000
1000
0000
0100
0010
0100
0000
0001
0000
1000
0000
,
0000
0100
0010
0100
0110
0000
1001
0000
,
1000
0100
0010
1000
0001
0100
2000
0000
,
3010
0000
0000
0000
0000
0000
0100
0000
0000
0100
0000
0000
0010
0000
0000
0000
0010
0000
0100
0000
0000
0000
0000
0000
,
0001
0100
1000
0100
0010
0100
0001
0100
,
0010
0000
0001
0000
0010
0000
0100
0010
0100
0000
0010
0000
1000
0000
1000
0000
,
0001
0010
0100
0001
1000
0010
0002
0000
,
0103
0000
0010
1000
0010
0000
0000
0000
0100
0000
0001
0010
0001
0000
0000
0000
,
1000
0100
0010
0001
0100
0010
0010
0010
,
1000
0001
1000
0000
0001
1000
0001
1000
0001
0000
0000
0000
1001
0000
0000
0000
,
1000
0000
0100
0000
0010
0000
0000
0010
0100
0000
0001
0000
0100
0000
1000
0000
,
0100
0010
1000
0010
0001
0010
0110
0000
,
0001
0000
0100
0000
0010
0000
0000
0010
0100
0000
0001
0000
0100
0000
1000
0000
,
0001
0000
0010
0000
0100
0000
0001
0000
1000
0001
1000
0001
1000
0000
0000
0000
,
0001
0000
1000
0000
0100
0000
0000
0001
0100
0000
0010
0000
1000
0000
0010
0000
,
0001
0000
0100
0000
1000
0000
0100
0000
0010
1000
0010
0000
0100
0000
0100
0000
,
0010
1000
0100
0010
1000
0010
0100
1000
,
0001
0000
0100
0010
0100
0000
0010
0100
0010
0000
1000
0001
1000
0000
0000
0000
,
0010
0100
0200
0000
0302
0000
1003
0100
,
0010
0001
0010
0001
0010
0000
0001
0000
0100
0000
0000
0100
0010
0000
0000
0000
,
1000
0000
0010
1000
0010
0000
0000
0000
1000
0000
0100
0000
0010
0000
0001
0000
,
0100
0000
0010
1000
0010
0000
1000
0000
0001
0000
0000
0000
1001
0000
0000
0000
,
0001
0000
0010
0001
0020
0000
0000
0031
0100
0000
0000
1000
0100
0000
0010
0000
,
1000
0100
1000
0100
1000
0000
0001
0000
0100
0000
0000
0100
0010
0000
0000
0000
,
1000
0000
0001
0100
0001
0000
0000
0000
1000
0000
0001
0010
0001
0000
1000
0000
,
0010
0100
0010
0100
0010
0000
1000
0000
0001
0000
0000
0000
1001
0000
0000
0000
,
0020
0000
0000
1000
0000
0000
0100
0000
0000
0031
0000
0010
,
1000
0000
1000
0100
0000
0100
0010
0000
0010
0001
0000
0001
,
0020
0000
0000
0001
0000
0000
0100
0000
0000
1030
0000
0010
,
0001
0000
0001
0100
0000
0100
0010
0000
0000
1001
0000
0000
,
0001
0000
0100
1000
0000
0100
0020
0000
0000
1030
0000
0001
,
0010
0000
0010
0100
0000
0100
1000
0000
1000
0010
0000
1000
,
0100
0000
0001
0100
0000
1000
0001
1000
0001
1000
0000
0010
,
0200
0000
0301
2000
0000
3100
0010
0000
0000
1001
0000
0000
,
0020
0000
0100
0000
,
0130
0000
0100
0010
0000
0010
0100
0000
0000
1001
0000
0000
,
1000
0100
0010
1000
0010
0100
1000
1000
,
0001
0100
0010
0001
0010
0100
0001
0001
,
1000
0000
0000
1000
0100
0000
0000
0100
0010
0000
0000
0010
0001
0000
0001
0000
,
1000
0010
0001
1000
0100
0010
0100
0100
,
0001
0000
0010
0001
0010
0000
0001
0000
0100
0001
0000
0100
0001
0000
1000
0000
,
0010
0000
1000
0010
1000
0000
0001
0000
0010
0100
0000
0010
0100
0000
0010
0000
,
0002
0000
0100
0000
1000
0000
0013
0010
,
0100
1000
0100
0001
0101
0000
1100
0000
,
0010
0000
0100
0001
0100
0000
0010
0000
0000
0000
1000
0000
0100
0000
0100
0000
,
1000
0000
0010
1000
0010
0000
0100
0000
0000
0000
0001
0000
0010
0000
0010
0000
,
0002
0000
0000
0103
0010
0000
0000
0000
2000
0000
0000
3100
0010
0000
0010
0000
,
0001
0100
1000
0001
0010
0100
0110
0000
,
1000
0000
0010
1000
0010
0000
1000
0000
0100
1000
0100
1000
0100
0000
1000
0000
,
0001
0000
0010
0001
0010
0000
0001
0000
0100
0001
0100
0001
0100
0000
0001
0000
,
1000
0000
0000
1000
0010
0000
0000
0010
0100
0000
0000
0100
0001
0000
0001
0000
,
1000
0001
0010
0100
0110
0000
1001
0000
,
0010
0000
1000
0100
0100
0001
0100
0100
,
0100
0010
1000
0010
0100
1000
0100
0000
,
0011
0000
0000
0000
0001
0000
0100
0001
0100
0000
0010
0000
0001
0000
0010
1000
,
0010
0000
1000
0001
0010
0000
0001
0000
0100
0000
1000
0000
0110
0000
0000
0000
,
1001
0020
0000
0000
0000
0000
0000
0000
,
0030
0000
0000
0000
;

//---------------dance-single - t7r----------------
#NOTES:
     dance-single:
     t7r:
     Challenge:
     17:
     :
0000
0000
0000
0000
,
0000
0000
0000
0000
,
0000
0000
0000
0000
,
0000
0000
0000
0000
,
0000
0000
0000
0000
,
0000
0000
0000
0000
,
0001
0000
0100
0001
0100
0000
0010
1000
0100
0000
0010
0100
1000
0000
0100
0000
,
0010
0000
0001
0000
0001
0000
0100
0000
1000
0000
0100
0010
1000
0001
1000
0100
,
0010
0000
0001
1000
0001
0000
0100
0000
0010
0000
1000
0000
0001
0000
0100
0000
,
0001
0010
0100
1000
0010
0000
0010
0000
1000
0010
0100
0001
1000
0000
0000
0000
,
1001
0000
1000
0100
1000
0000
0001
0000
0010
0001
0020
0000
0000
0000
0031
0000
,
0100
0000
1000
0000
1000
0000
0100
0000
0010
1000
0100
1000
0010
0000
1000
0001
,
1000
0000
0001
0000
0010
0000
1000
0000
0001
0100
0010
0000
0001
0000
0100
0000
,
1000
0000
0100
0000
0010
0000
0100
0000
0001
0100
0010
0000
0110
0000
0000
0000
,
1010
0000
0010
0100
0010
0000
0100
0000
0001
0010
0002
0000
0000
0000
1003
0000
,
0100
0000
0010
0000
1000
0000
0010
0000
0001
0000
0100
0000
0001
0010
0100
1000
,
0010
0000
0100
0000
0001
0000
0001
0000
0100
1000
0100
0000
0010
0000
0100
0000
,
0001
0000
1000
0010
1000
0000
0001
0010
0001
1000
0001
1000
0001
0000
0000
0000
,
1100
0100
0010
0000
0001
0100
1000
0001
,
0010
0000
0000
0100
0000
0000
0010
0000
0000
0001
0000
0000
0010
0000
0000
1000
0100
0000
0010
0000
0000
0000
0000
0000
,
0001
0000
0010
0000
1000
0000
0010
0001
0010
0000
0001
0100
0001
0000
1000
0000
,
0001
0000
0100
0000
0010
0000
0001
0010
0100
0000
0010
0000
1000
0000
1000
0000
,
0001
0000
0010
0100
1000
0000
0100
0000
0001
0000
0100
0000
0010
0000
0010
0000
,
0100
0000
0000
0001
0000
0000
0100
0000
0000
0001
0000
0000
0100
0000
0000
0000
0000
0000
0010
0000
0000
0000
0000
0000
0001
0000
0000
0000
0000
0000
0100
0000
0010
0000
0000
0000
1000
0000
0000
0000
0000
0000
0000
0000
0000
0000
0000
0000
,
0010
1000
0010
1000
0010
0000
0100
0000
0001
0010
0001
0010
0001
0000
1000
0000
,
0001
0010
0100
1000
0100
0010
0001
0010
0100
0000
1000
0001
1000
0000
0000
0000
,
0001
0000
0100
0000
0001
0010
0100
1000
0100
0000
1000
0010
0100
0010
1000
0000
,
0010
1000
0010
1000
0100
0010
0100
0010
0001
0100
0001
0100
0010
1000
0001
1000
,
0010
0000
1000
0000
0100
0010
0001
0010
0100
0000
0010
0000
0001
1000
0010
0000
,
1000
0010
1000
0010
0001
0010
0001
0010
0100
0010
0100
0010
1000
0000
0001
1000
,
0001
0000
0010
0000
0001
0100
0010
0100
0001
0000
1000
0010
0100
0001
1000
0000
,
0100
0001
0100
0001
0100
1000
0100
1000
0100
0010
0001
1000
0010
0000
0100
0000
,
0010
0000
1000
0000
0010
0001
0010
0100
0010
1000
0100
0010
0001
0000
1000
0000
,
0001
0000
1000
0010
1000
0000
0001
0010
0001
0000
1000
0001
1000
0000
0000
0000
,
0001
0010
0020
0000
2030
0000
3001
0100
,
1000
0010
0001
0010
1000
0000
0010
1000
0100
0000
0010
0000
0011
0000
0001
0000
,
1000
0100
0010
0100
1000
0000
0001
0000
1000
0010
0001
0010
1000
0000
0001
0000
,
1000
0010
1000
0010
0100
0010
0100
0010
0001
0000
0010
0000
0110
0000
0000
0000
,
0010
0000
1000
0001
2000
0000
0000
0000
3200
0000
0000
0000
0301
0000
1000
0000
,
0010
0001
0010
1000
0010
0000
0001
0100
1000
0000
0100
0000
0110
0000
0100
0000
,
1000
0100
0010
1000
0002
0000
0000
0000
0013
1000
0001
0100
0010
0000
0001
0000
,
1000
0100
1000
0100
0001
0100
0001
0100
0010
0000
0001
0000
1000
0000
1001
0000
,
0010
0000
0100
0001
0000
0100
0020
0000
1000
1030
0000
0001
,
0010
0000
0100
0001
0000
1000
0010
0000
0100
1000
0000
0001
,
0001
0000
0000
0000
0100
0010
0100
0000
0000
0000
0001
0000
0010
0000
1000
0000
0010
0000
0100
0000
0000
0000
1000
0000
,
1000
0000
0001
0001
0000
0100
0010
0000
0000
1001
0000
0000
,
0010
0000
0100
1000
0000
0100
0020
0000
0001
0031
0000
1000
,
0010
0000
0100
1000
0000
0001
0010
0000
0100
0001
0000
1000
,
1000
0000
0000
0000
0100
0010
0100
0000
0000
0000
1000
0000
0010
0000
0001
0000
0010
0000
0100
0000
0000
0000
0001
0000
,
0001
0000
0010
0010
0000
1000
0001
0000
0000
0110
0000
0000
,
2000
0000
0001
0001
0000
0000
3200
0000
0010
0010
0000
0001
,
0301
0000
0100
1000
0000
0010
0100
0000
0000
1010
0000
0000
,
0001
0000
0100
0000
0100
0000
0010
0000
1000
0100
0010
0001
1000
0000
1000
0000
,
0001
0000
0010
0001
0010
0000
1000
0000
0010
0001
0100
0001
0010
0000
0010
0000
,
0001
0000
0100
0001
0100
0000
1000
0100
1000
0000
0100
0010
0100
0000
0100
0000
,
0001
0010
0100
1000
0010
0000
0010
0000
1000
0000
0100
0000
0010
0000
0010
0000
,
0001
0000
1000
0010
1000
0000
0001
0000
1000
0010
0100
0001
1000
0000
1000
0000
,
0001
0010
0100
0010
1000
0000
1000
0000
0001
0100
0010
0100
1000
0000
1000
0000
,
0010
0000
0001
0010
1000
0000
0001
0010
1000
0000
0001
0100
1000
0000
0001
0100
,
1000
1000
0100
0100
0101
0000
1100
0000
,
0110
0000
0100
1000
0010
0000
0100
0000
0001
0100
1000
0100
0001
0000
0001
0000
,
1000
0010
0100
0010
1000
0000
0001
0000
1000
0000
0100
0001
0100
0000
0001
0000
,
0100
0000
0010
0001
0100
0000
0010
1000
0100
0000
0010
0001
1000
0000
0010
1000
,
0001
0000
0100
1000
0100
0000
0001
0000
0010
0001
1000
0001
0010
0000
0000
0000
,
0001
0000
0100
0010
0001
0000
0010
0000
0100
0001
0010
0100
1000
0000
1000
0000
,
0001
0000
0010
0100
0001
0000
0100
0000
1000
0000
0010
0000
0001
0000
0010
0000
,
0110
0000
0001
0010
0001
0000
0010
1000
0010
0000
0001
0100
0001
0000
0001
0000
,
1000
0100
0001
1000
1010
0000
0110
0000
,
1001
0000
0000
0000
0101
0000
0001
0000
0001
0000
0001
1000
0010
0000
0010
0000
,
0010
0000
0010
1000
0100
0000
0001
0000
0100
0000
1000
0100
0010
0000
0001
0000
,
1001
0000
1000
0000
0120
0000
1000
0000
1000
0000
0130
0001
0020
0000
1000
0000
,
1030
0000
0001
0100
0010
0000
0001
0100
0010
0000
0001
0010
1000
0000
0001
1000
,
0100
0020
0000
0000
0000
0000
0000
0000
,
0030
0000
0000
0000
;
