#TITLE:Lure Module;
#SUBTITLE:;
#ARTIST:KAWAYAH;
#TITLETRANSLIT:;
#SUBTITLETRANSLIT:;
#ARTISTTRANSLIT:;
#CREDIT:;
#BANNER:Lure Module BN.png;
#BACKGROUND:Lure Module BG.png;
#LYRICSPATH:;
#CDTITLE:CDTITLE.png;
#MUSIC:Lure Module.ogg;
#OFFSET:0.300;
#SAMPLESTART:37.615;
#SAMPLELENGTH:15.000;
#SELECTABLE:YES;
#BPMS:0.000=128.000;
#STOPS:;
#BGCHANGES:;

//---------------dance-single - ----------------
#NOTES:
     dance-single:
     :
     Hard:
     15:
     0.618,0.643,0.100,0.161,0.758:
0000
0000
0000
0000
,
0000
0000
0000
0000
,
0000
0000
0000
0000
,
0000
0000
0000
0000
,
0000
0000
0000
0000
1000
0001
0000
0100
0000
0010
0000
0100
0000
0000
0001
0000
,
0100
0000
0001
0100
0001
0000
0010
0100
0000
0010
0000
1000
0000
0000
0001
0000
,
1000
0000
0010
0001
0010
0000
1000
0010
0000
0100
0000
1000
0000
0000
0010
0000
,
0001
0000
0100
0010
0100
0000
0010
1000
0000
0100
0000
0010
0000
0001
0000
0010
,
1000
0000
0010
0000
1000
0001
0000
0100
0000
0010
0000
1000
0000
0000
0001
0000
,
0100
0000
0010
0100
0010
0000
0001
1000
0000
0100
0000
0001
0000
0000
1000
0000
,
0001
0000
0100
0010
0100
0000
0001
1000
0000
0100
0000
0010
0000
0000
0001
0000
,
0100
0000
0001
0100
0001
0000
0010
1000
0000
0100
0000
0010
0000
1000
0000
0001
,
1000
0000
0001
0000
1000
0000
0000
0001
0000
1000
0001
0000
0010
0000
0000
0100
,
0000
0010
0100
0000
0001
0000
0000
1000
0000
0001
1000
0000
0001
0000
0000
0100
,
0000
0001
0100
0000
0010
0000
0000
1000
0000
0010
1000
0000
0100
0000
0000
0001
,
0000
0100
0001
0000
1000
0000
0000
0001
0000
1000
0001
0000
0100
0000
0000
0010
,
0000
0100
0001
0000
1000
0001
1000
0000
0010
1000
0010
0000
0100
0010
0100
0000
,
0001
0100
0001
0000
1000
0010
1000
0000
0100
0001
0100
0000
0010
1000
0010
0000
,
0100
0010
0100
0000
1000
0001
1000
0001
1000
0010
1000
0010
1000
0100
1000
0100
,
1000
0001
1000
0001
1000
0000
0010
0000
0000
1000
0000
0000
1010
0000
0000
0000
,
1001
0000
0000
0000
2000
0000
0000
0000
3002
0000
0000
0000
0203
0000
0000
0001
,
0000
0000
0000
0301
0000
0000
1000
0000
0010
0000
1000
0000
0010
0000
1000
0000
0100
0000
1000
0000
0000
0010
0000
0000
,
0001
0000
1000
0000
0002
0000
0000
0000
0203
0000
0000
0000
0320
0000
0000
1000
,
0000
0000
0000
1030
0000
0000
0100
0000
0001
0000
0100
0000
0001
0000
0100
0000
0010
0000
0001
0000
0000
0010
0000
0000
,
0100
0000
1000
0000
0002
0000
0000
0000
0203
0000
0000
0000
2300
0000
0000
0010
,
0000
0000
0000
3010
0000
0000
1000
0000
0001
0000
1000
0000
0001
0000
0100
0000
0001
0000
0100
0000
0000
0001
0000
0000
,
0100
0000
0001
0000
2000
0000
0000
0000
3020
0000
0000
0000
0032
0000
0000
1000
,
0000
0000
1003
0000
1000
0001
0000
1000
0001
0000
0010
0000
0100
0010
0000
0100
,
0010
0000
0000
0000
1000
0000
0001
1000
0001
0000
0100
0000
0010
0000
0100
0010
,
0100
0000
0000
0000
0000
0000
0001
0000
0000
0000
0000
0000
1000
0000
0000
0000
0010
0000
0000
0000
1000
0000
0000
0000
0010
0000
0000
0000
1000
0000
0000
0000
0010
0000
0000
0000
0001
0000
0000
0000
0000
0000
1000
0000
0000
0001
0000
0000
,
1000
0000
0010
0000
1000
0000
0010
0100
0010
0000
0001
0000
0100
0000
0010
0100
,
0010
0000
0000
0000
0000
0000
1000
0000
0000
0000
0000
0000
0001
0000
0000
0000
0100
0000
0000
0000
0001
0000
0000
0000
0100
0000
0000
0000
0001
0000
0000
0000
0100
0000
0000
0000
0001
0000
0000
0000
0000
0000
0100
0000
0000
0010
0000
0000
,
0100
0000
0001
0000
1000
0000
0010
1000
0010
0000
0100
0000
0001
0000
0100
0010
,
0100
0000
0000
0000
0000
0000
0001
0000
0000
0000
0000
0000
1000
0000
0000
0000
0010
0000
0000
0000
1000
0000
0000
0000
0010
0000
0000
0000
1000
0000
0000
0000
0001
0000
0000
0000
1000
0000
0000
0000
0000
0000
0010
0000
0000
1000
0000
0000
,
0010
0000
0100
0000
0001
0000
0100
0010
0100
0000
0001
0000
1000
0000
0010
0100
,
0010
0000
0000
1000
0000
0000
0001
0000
0000
1001
0000
0000
1000
0000
0000
1001
0000
0000
0100
0000
0010
0000
0100
0000
,
0020
0000
0000
0000
1030
0000
0010
1000
0010
0000
0100
0000
0001
0000
0100
0010
,
0100
0000
0000
0000
0000
0000
0001
0000
0000
0000
0000
0000
1000
0000
0000
0000
0100
0000
0000
0000
0010
0000
0000
0000
0001
0000
0000
0000
0010
0000
0000
0000
0100
0000
0000
0000
1000
0000
0000
0000
0000
0000
0010
0000
0000
1000
0000
0000
,
0010
0000
0100
0000
0001
0000
1000
0010
1000
0000
0100
0000
0010
0000
0100
0001
,
0100
0000
0000
0000
0000
0000
0010
0000
0000
0000
0000
0000
0001
0000
0000
0000
0010
0000
0000
0000
0100
0000
0000
0000
1000
0000
0000
0000
0100
0000
0000
0000
0010
0000
0000
0000
0001
0000
0000
0000
0000
0000
0100
0000
0000
0001
0000
0000
,
0100
0000
0010
0000
1000
0000
0010
1000
0010
0000
0100
0000
0010
0000
0100
0010
,
0100
0000
0000
0000
0000
0000
0001
0000
0000
0000
0000
0000
1000
0000
0000
0000
0010
0000
0000
0000
0100
0000
0000
0000
0001
0000
0000
0000
0100
0000
0000
0000
0010
0000
0000
0000
1000
0000
0000
0000
0000
0000
0010
0000
0000
1000
0000
0000
,
0010
0000
0100
0000
0001
0000
1000
0010
1000
0000
0100
0000
0010
0000
0100
0001
,
0100
0000
0000
0001
0000
0000
1000
0000
0000
1001
0000
0000
0001
0000
0000
1001
0000
0000
1000
0000
0001
0000
1000
0000
,
0002
0000
0000
0000
1003
0000
0000
0010
1000
0000
0000
1000
0010
0000
0000
0010
,
0000
0000
1010
0000
0001
0000
0000
0100
0001
0000
0000
0001
0100
0000
0000
0100
,
0000
0000
0101
0000
0001
0000
0000
0100
0001
0000
0000
0001
1000
0000
0000
1000
,
0000
1010
1000
0100
0010
0001
2000
0000
,
3020
0000
0000
0000
0130
0000
0000
0100
0010
0000
0000
0010
0100
0000
0000
0010
,
0100
0110
0000
0000
;

//---------------dance-single - ----------------
#NOTES:
     dance-single:
     :
     Medium:
     13:
     0.482,0.519,0.201,0.161,0.226:
0000
0000
0000
0000
,
0000
0000
0000
0000
,
0000
0000
0000
0000
,
0000
0000
0000
0000
,
0000
0000
1000
0001
1000
0010
1000
0000
,
1010
0000
0010
0100
0001
0100
0010
0000
,
0110
0000
0001
1000
0010
0100
0001
0000
,
1001
0000
0001
0100
0001
1000
0010
0000
,
0110
0000
0010
0100
0001
0100
0010
0000
,
0110
0000
1000
0001
0100
0010
0100
0000
,
0101
1000
0010
1000
0010
0000
0110
1000
,
0100
0010
0001
0100
0001
0100
0001
0010
,
0001
0000
0010
0000
1010
0000
0000
0001
0000
0000
0100
0000
0010
0000
0000
0100
,
0000
0000
0001
0000
1000
0000
0000
0010
0000
0000
0001
0000
1000
0000
0000
0100
,
0000
0000
0001
0000
1000
0000
0000
0010
0000
0000
0100
0000
0001
0000
0000
1000
,
0000
0000
0010
0000
0100
0000
0000
0010
0000
0000
0001
0000
1000
0000
0000
0010
,
0000
0100
0001
0100
0001
0100
1000
0100
,
1000
0010
0001
0010
0001
0010
0100
0010
,
0100
0000
0010
0000
0100
0010
0100
0000
0001
1000
0001
0000
0100
0001
0100
0000
,
0010
1000
0010
0000
0100
0000
0001
0000
0000
1000
0000
0000
1001
0000
0000
0000
,
1001
2000
3020
0032
,
1003
0000
0010
0100
0010
0100
0010
0000
,
1000
1020
0230
0302
,
1003
0000
0001
1000
0001
1000
0001
0000
,
1001
2000
3020
0230
,
0301
0000
0100
0001
0100
0010
0100
0001
,
0100
0020
2030
3002
,
1003
0000
0000
0000
0100
0001
0000
0100
0001
0000
0000
0000
0001
1000
0000
0001
,
1000
0000
0100
0010
0100
0001
0100
0000
,
0101
0000
1000
0100
0010
0001
0010
0000
,
1010
0000
0100
0010
1000
0010
1000
0100
,
0010
0000
1000
0100
0010
0001
0010
0000
,
0110
0000
0010
1000
0001
0010
0100
0010
,
0001
0000
1000
0001
1000
0010
1000
0000
,
1010
0000
0001
0100
0001
0100
0010
0100
,
0010
0000
0000
0000
0000
0000
1000
0000
0000
0010
0000
0000
1000
0000
0000
0010
0000
0000
0001
0000
1000
0000
0001
0000
,
2000
0000
0000
0000
3001
0000
0000
0100
0001
0000
0010
0000
1000
0000
0000
0010
,
0100
0000
0000
0010
0000
0000
1000
0000
0001
0000
1000
0000
0001
0000
1000
0000
0001
0000
1000
0000
0000
0000
0000
0000
,
1001
0000
0000
0000
0001
0000
0000
1000
0010
0000
1000
0000
0010
0000
0000
0100
,
0010
0000
0000
0001
0000
0000
0100
0000
0010
0000
0100
0000
0010
0000
0100
0000
0010
0000
0100
0000
0000
0000
0000
0000
,
1001
0000
0000
0000
1000
0000
0000
0010
1000
0000
0100
0000
0001
0000
0000
1000
,
0010
0000
0000
0100
0000
0000
0001
0000
0100
0000
0001
0000
0100
0000
0001
0000
0100
0000
0001
0000
0000
0000
0000
0000
,
0101
0000
0000
0000
0001
0000
0000
1000
0001
0000
0100
0000
0001
0000
0000
0010
,
1000
0000
0000
0100
0000
0000
0001
0000
0000
1000
0000
0000
0001
0000
0000
1000
0000
0000
0001
0000
0100
0000
0001
0000
,
0200
0000
0301
0000
1000
0010
1000
0001
,
1000
0000
0010
0000
0100
0001
0100
0010
,
0100
0000
0100
0000
1000
0010
1000
0001
,
1000
0000
0000
0001
0010
0001
0010
0001
0010
0002
0000
0000
,
2003
0010
0010
0010
,
0010
3000
1010
0000
0000
0000
0000
0000
;

//---------------dance-single - ----------------
#NOTES:
     dance-single:
     :
     Easy:
     8:
     0.341,0.346,0.331,0.000,0.000:
0000
0000
0000
0000
,
0000
0000
0000
0000
,
0000
0000
0000
0000
,
0000
0000
0000
0000
,
0000
1000
0001
1001
,
0000
0010
0100
0110
,
0000
1000
0010
1010
,
0000
0001
0100
0101
,
0000
1000
0001
1001
,
0000
0100
0010
0110
,
0000
0100
0001
0101
,
0000
1000
0010
1010
,
1001
1000
1001
0001
,
1001
1000
1001
0001
,
1001
1000
1001
0001
,
1001
1000
1001
0001
,
1001
0000
1000
0010
1000
0000
0010
0100
,
0010
0000
0001
0100
0001
0000
1000
0001
,
1000
0000
0001
0001
0001
0000
1000
1000
,
1000
0001
1000
1001
,
0000
0100
0010
0100
,
0110
0000
1000
0001
1000
0000
0001
1000
,
0001
0001
1000
0001
,
1001
0000
1000
0010
1000
0000
0100
0001
,
0100
0100
0001
0100
,
0101
0000
0001
0100
0001
0000
1000
0010
,
1000
0010
1000
0010
,
1000
0000
1000
0100
0010
0000
0001
0010
,
0100
1000
0001
1000
,
1001
0000
0001
0100
0001
0000
1000
0010
,
1000
0001
0100
0001
,
0101
0000
1000
0010
1000
0000
0001
0100
,
0001
1000
0010
1000
,
1010
0000
0100
0010
0100
0000
0001
1000
,
0001
1000
0001
1000
,
1001
0000
0001
0100
0001
0000
1000
0010
,
1000
0100
0010
0100
,
0110
0000
0001
1000
0001
0000
0100
0001
,
0100
1000
0001
1000
,
1001
0000
0001
0100
0001
0000
1000
0010
,
1000
0100
0001
0100
,
0101
0000
0010
0100
0010
0000
1000
0010
,
1000
0001
0100
0001
,
0101
0000
1000
0010
1000
0000
0100
0010
,
0100
0010
1000
0010
,
1010
0001
0100
0001
,
0101
0100
0010
0100
,
0110
0000
1000
0010
1000
0000
0100
0001
,
0100
0010
0100
0010
,
0100
0110
0000
0000
;

//---------------dance-single - Copied from----------------
#NOTES:
     dance-single:
     Copied from:
     Beginner:
     4:
     0.220,0.223,0.110,0.000,0.000: // measure 1
0000
0000
0000
0000
,  // measure 2
0000
0000
0000
0000
,  // measure 3
0000
0000
0000
0000
,  // measure 4
0000
0000
0000
0000
,  // measure 5
0000
1000
1000
0001
,  // measure 6
0000
0010
0010
0100
,  // measure 7
0000
0001
0001
0100
,  // measure 8
0000
0010
0010
1000
,  // measure 9
0000
0100
0100
0001
,  // measure 10
0000
1000
1000
0010
,  // measure 11
0000
0001
0001
0100
,  // measure 12
0000
0010
0010
1000
,  // measure 13
0000
1000
0001
1001
,  // measure 14
0000
0010
0100
0110
,  // measure 15
0000
1000
0010
1010
,  // measure 16
0000
0001
0100
0101
,  // measure 17
0000
1000
1000
0100
,  // measure 18
0100
0001
0001
1000
,  // measure 19
1000
0010
0010
0100
,  // measure 20
0100
0010
0100
0010
,  // measure 21
0000
1000
1000
1000
,  // measure 22
0000
0001
0001
0001
,  // measure 23
0000
0010
0010
0010
,  // measure 24
0000
0100
0100
0100
,  // measure 25
0000
1000
1000
1000
,  // measure 26
0000
0001
0001
0001
,  // measure 27
0000
0100
0100
0100
,  // measure 28
0000
0100
0110
0100
,  // measure 29
0110
1000
1000
1000
,  // measure 30
0000
0001
0001
0001
,  // measure 31
0000
0010
0010
0010
,  // measure 32
0000
0100
0100
0100
,  // measure 33
0000
1000
1000
1000
,  // measure 34
0000
0001
0001
0001
,  // measure 35
0000
0010
0010
0010
,  // measure 36
0000
0100
0100
0110
,  // measure 37
0110
1000
1000
1000
,  // measure 38
0000
0010
0010
0010
,  // measure 39
0000
0100
0100
0100
,  // measure 40
0000
0001
0001
0001
,  // measure 41
0000
1000
1000
1000
,  // measure 42
0000
0010
0010
0010
,  // measure 43
0000
0001
0001
0001
,  // measure 44
0000
1000
1000
1001
,  // measure 45
1001
0010
0010
0000
,  // measure 46
0000
0100
0001
0100
,  // measure 47
0000
1000
0010
1000
,  // measure 48
0000
0100
0001
0100
,  // measure 49
0000
1000
1000
1000
,  // measure 50
1000
1001
0000
0000
;
