#TITLE:Luna Clock;
#SUBTITLE:;
#ARTIST:Wave;
#TITLETRANSLIT:;
#SUBTITLETRANSLIT:;
#ARTISTTRANSLIT:;
#GENRE:;
#CREDIT:;
#MUSIC:Luna Clock.ogg;
#BANNER:ban.png;
#BACKGROUND:bg.png;
#CDTITLE:;
#SAMPLESTART:51.957;
#SAMPLELENGTH:12.000;
#SELECTABLE:YES;
#OFFSET:-0.073;
#BPMS:0.000=148.000;
#STOPS:;
#BGCHANGES:;
#FGCHANGES:;

//--------------- dance-single - ----------------
#NOTES:
     dance-single:
     :
     Beginner:
     4:
     0,0,0,0,0:
0000
0000
0000
0000
,
0000
0000
0000
0000
,
1000
0000
0001
0000
,
0000
0000
0000
0000
,
1000
0000
0000
0000
,
0001
0000
0000
0000
0000
0000
0000
0000
0000
0000
0000
0000
0000
1000
0000
0000
,
0000
0000
0000
0000
0000
0000
0000
0000
0001
0000
0000
0000
0000
0000
0000
1000
,
0000
0000
0000
0000
,
0010
0000
0100
0000
,
0001
0000
1000
0000
,
0100
0000
0010
0000
,
0000
0000
1000
0000
,
0001
0000
0000
1000
0000
0000
0000
0000
,
0001
0000
0000
0000
,
0000
0100
0000
0000
0000
0000
0000
0000
0010
0000
0000
0000
0000
0000
0000
0000
,
0000
0000
0000
0000
,
1000
0000
0000
0000
,
0001
0000
0100
0000
,
0010
0000
1000
0000
,
0100
0000
0100
0000
,
0001
0000
1000
0000
,
0010
0000
0100
0000
,
0001
0000
1000
0000
,
0100
0000
0010
0000
,
0001
0000
0001
0000
,
1000
0000
0010
0000
,
0100
0000
0001
0000
,
1000
0000
0010
0000
,
1001
0000
0100
0000
,
0001
0000
1000
0000
,
0100
0000
0010
0000
,
0001
0000
0000
0000
,
1000
0000
0000
0000
0000
0000
0000
0001
0000
0000
0000
0000
0000
0000
0000
0000
,
1000
0000
0001
0000
,
0100
0000
0000
0010
,
0010
0000
0000
0000
,
1001
0000
0000
0000
,
0001
0000
0100
0000
,
0010
0000
0000
1000
,
1000
0000
0000
0000
,
0002
0000
0003
0000
,
1000
0000
0000
0000
,
0010
0000
0000
0000
,
0100
0000
0000
0000
,
0002
0000
0003
0000
,
1000
0000
0000
0000
,
0010
0000
0000
0000
,
0100
0000
0000
0000
,
0002
0000
0003
0000
,
1000
0000
0000
1000
0000
0000
1000
0000
,
0000
0000
0000
0001
0000
0000
0000
0000
,
2000
0000
3000
0000
,
0020
0000
0030
0000
,
1000
0000
0000
1000
0000
0000
1000
0000
,
0000
0000
0000
0100
0000
0000
0000
0000
,
0002
0000
0003
0000
,
1000
0000
0001
0000
,
0100
0000
0010
0000
,
1000
0000
0100
0000
,
0010
0000
0001
0000
,
1000
0000
0001
0000
,
0100
0000
0010
0000
,
1000
0000
0100
0000
,
0010
0000
0001
0000
,
0100
0000
0010
0000
,
1000
0000
0100
0000
,
0010
0000
0001
0000
,
0100
0000
0010
0000
,
1001
0000
1000
0000
,
0001
0000
1000
0000
,
0010
0000
1000
0000
,
0100
0000
0010
0000
,
1001
0000
1000
0000
,
0002
0000
0003
0000
,
1000
0000
0001
0000
,
0100
0000
0010
0000
,
1000
0000
1000
0000
,
0010
0000
0000
0000
0000
0000
0000
0000
0010
0000
0000
0000
0000
0000
0000
0100
,
0000
0000
0001
0000
,
1000
0000
0000
0000
0000
0000
0000
0000
0000
0010
0000
0000
0000
0000
0000
0010
;

//--------------- dance-single - ----------------
#NOTES:
     dance-single:
     :
     Easy:
     9:
     1.406577,1.292292,0.061586,0.377213,2.721324,1279,1271,8,49,0,0,1.406577,1.292292,0.061586,0.377213,2.721324,1279,1271,8,49,0,0:
0000
0000
0000
0000
,
0000
0000
0000
0000
,
1001
0000
0000
0000
0000
0000
0000
0000
0001
0000
0000
1000
0000
0001
0000
1000
,
0000
0000
0000
0000
,
1010
0000
0000
0101
0000
0000
0010
0000
,
1000
0000
0000
0001
0000
0100
0000
0001
0000
0000
0000
0000
0000
1000
0000
0000
,
0000
0010
0000
0010
0000
0000
0000
0000
1000
0000
0000
0001
0000
0100
0000
0010
,
0000
0000
0000
0000
,
1000
0001
0100
0010
,
1000
0100
0010
0001
,
0100
0000
0000
0000
0000
0000
0000
0000
0010
0000
0000
1000
0000
0001
0000
1000
,
0000
0010
0100
0001
,
0010
0100
0010
0100
,
0010
0000
0000
0100
0000
1000
0000
0100
0000
0000
0000
0000
0010
0000
0000
0000
,
0001
0000
0000
0000
0100
0000
0000
0000
0010
0000
0000
1000
0000
0001
0000
1000
,
0000
0010
0100
0001
,
0101
0000
0000
0110
0000
0000
0010
0000
,
1000
0001
1000
0100
,
0010
0100
1010
0010
,
1000
1000
0001
1000
,
0001
1000
0001
0000
0100
0000
0010
0000
,
1000
0100
0010
0000
0001
0000
0100
0000
,
0010
1000
0010
0000
0100
0000
0001
0000
,
0101
0110
0010
1000
,
0001
0100
0001
0000
1000
0000
0001
0000
,
0100
0010
0100
0000
0001
0000
1000
0000
,
0100
0010
0100
0000
1000
0000
0001
0100
,
0010
1000
0100
0010
,
1001
0000
0001
0000
0100
0000
0010
1000
,
0100
1001
0011
0100
,
1000
0001
0100
0000
0010
0000
1000
0100
,
0010
0000
0000
0000
0001
0000
0000
0100
0000
0000
0000
0000
0000
0000
0000
0000
,
1000
0000
0000
0000
0001
0000
0000
1000
0000
0000
0000
0010
0000
0000
0100
0000
,
0001
0000
1000
0100
0000
0000
0100
0010
0000
0000
0001
0100
0000
0000
0000
0000
,
0001
0000
0000
0000
1000
0000
0000
0001
0000
0000
0000
0000
0100
0000
0001
0000
,
1001
0000
0000
0000
1000
0000
0000
0010
0000
0000
0000
1000
0000
0000
0000
0000
,
1001
0000
0000
0000
0001
0000
0000
0100
0000
0000
0000
0010
0000
0000
1000
0000
,
0100
0010
0000
0000
1001
0000
1001
0000
,
1000
0000
0010
0000
1000
0000
0000
0001
0000
0000
0000
0000
1000
0000
0100
0000
,
1100
0000
0000
0000
0010
0000
0000
0001
0000
0000
0000
0000
0001
0000
1000
0000
,
0010
0000
0000
0100
0000
0000
0001
0000
0000
0100
0000
0000
0010
0000
0000
0000
,
1000
0000
0000
0001
0000
0000
0100
0000
0000
0010
0000
0000
1000
0000
0000
0000
,
0100
0000
0000
0010
0000
0000
0001
0000
0000
0100
0000
0000
0010
0000
0000
0000
,
1000
0000
0000
0100
0000
0000
1000
0000
0000
0001
0000
0000
0100
0000
0000
0000
,
1010
0000
0000
0010
0000
0000
0100
0000
0000
0001
0000
0000
0100
0000
0000
0000
,
0010
0000
0000
1000
0000
0000
0100
0000
0000
1000
0000
0000
0100
0000
0000
0000
,
1000
0000
0000
0001
0000
0000
1000
0000
0000
0001
0000
0000
0010
0000
0000
0000
,
0001
0000
0000
1000
0000
0000
0010
0000
0000
1000
0000
0000
0001
0000
0000
0000
,
2001
0010
0001
3010
,
0110
0000
0000
0101
0000
0000
2002
0000
,
0000
3003
0000
2002
0000
0000
3003
0000
,
1000
0000
0001
0000
1000
0000
0000
0010
0000
0010
0000
0010
0000
0000
1000
0000
,
0002
1000
0100
1003
,
1001
0000
0000
1010
0000
0000
2002
0000
,
0000
0000
3003
0000
0000
0000
0101
0000
0000
0000
0000
0000
0000
0010
0100
0000
,
0000
1000
0001
1000
,
0001
0010
0001
0100
0010
1000
0001
0100
,
0010
0000
1000
0100
1000
0001
0100
0010
,
1000
0000
0000
0000
0000
0001
0000
0000
1000
0000
0000
0000
0000
0000
0010
0000
,
1000
0100
0010
0001
0010
0000
0001
0000
,
1001
0000
0001
1000
0010
0000
0000
0000
,
1000
0001
0100
0010
,
1000
0000
0000
0000
0000
0001
0000
0001
0000
0000
0100
0000
0000
0000
0010
0000
,
1000
0000
0000
0001
0000
0100
0000
0010
0000
0000
0000
0000
1000
0000
0001
0000
,
0200
0000
0000
0000
0301
0010
0001
0010
,
0001
0010
0100
1000
0010
0100
0001
1000
,
0100
0010
0001
0100
0010
0000
1000
0000
,
0001
0000
0010
0100
1000
0000
0001
1000
,
0002
0000
0003
0000
1000
0100
1000
0000
,
0001
0100
0001
0000
1000
0001
0100
0000
,
0010
1000
0100
0000
1000
0000
0001
0000
,
0100
0010
1000
0100
0010
0100
1000
0001
,
2000
0000
3010
0100
,
0001
0110
1001
0000
,
0100
0000
0010
1000
,
0110
0000
0000
1001
0000
0000
1001
0000
,
1000
0001
1000
0010
,
0100
0000
0001
0000
0100
0000
0000
0000
0010
0000
0000
0010
0000
0000
0000
0000
,
0200
0300
0001
1000
,
0001
0000
0000
0000
0000
0000
0000
0000
0000
1000
0000
0010
0000
0100
0000
0100
;

//--------------- dance-single - ----------------
#NOTES:
     dance-single:
     :
     Medium:
     13:
     0,0,0,0,0:
0000
0000
0000
0000
,
0000
0000
0000
0000
,
1000
0001
0000
1000
0000
0000
0000
0000
0001
1000
0000
0010
0000
0100
0000
0001
,
0000
0000
0000
1001
0000
0001
0100
0010
,
1000
0000
0000
0001
0000
1000
0010
0000
0000
0000
0000
0010
0100
0000
0001
0000
,
1000
0010
0000
0100
0000
0001
0000
0200
0000
0000
0000
0300
0000
1010
0000
0000
,
0000
0010
0000
1000
0000
0000
0001
0000
1000
0010
0000
0100
0000
0001
0000
0200
,
0000
0000
0300
0000
0000
0010
1000
0001
,
1000
0100
0010
0001
0100
0010
1000
0100
,
0010
0000
0000
0001
0000
1000
0000
0010
0000
0100
0001
0000
1000
0000
0001
0000
,
1000
0010
0000
0100
0000
0000
0001
0000
1000
0010
0000
0100
0000
0001
0000
0100
,
0001
0000
0000
0000
0100
0000
0000
0000
0010
0000
0100
0000
0001
0100
0001
0000
,
1000
0000
0000
0001
0000
1000
0010
0000
0000
0000
0000
1000
0100
0000
0010
0000
,
0001
1000
0000
0001
0000
0100
0000
0020
0000
0000
0030
0000
0000
0000
1010
0000
,
0000
0100
0000
0100
0000
0000
0001
0000
1000
0010
0000
1000
0000
0100
0000
1000
,
0010
0100
0001
0000
0100
0010
1000
0000
,
1001
0001
0100
0001
0000
1000
0010
1000
,
0001
0010
0100
1000
0010
0100
0001
0100
,
0010
0100
0001
0010
0011
0000
0001
0100
,
1000
0100
0001
0010
0100
1000
0010
0100
,
0001
0000
0010
0000
0001
0000
0100
0000
0001
0000
0000
1000
0000
0000
0001
0000
,
0100
0010
1000
0100
0010
0001
0100
0010
,
1000
0100
1000
0100
0000
0010
0001
0010
0001
0000
0000
0000
0100
0000
0010
0000
,
1000
0100
0010
0001
0100
0010
1000
0100
,
1000
0000
0010
0000
1000
0000
0100
0000
1000
0000
0001
0000
0100
0010
0100
0010
,
1000
0001
0010
0100
1000
0010
0100
0001
,
0010
0000
0001
0000
0100
0000
0010
0000
1000
0000
0001
0000
0100
0010
0100
0010
,
1000
0000
0001
0000
0010
0000
0001
0000
0100
0000
0010
0000
1000
0100
1000
0000
,
0001
0000
0010
0000
0001
0000
0100
0000
0001
0000
0010
0000
0001
1000
0001
0010
,
0100
1000
0010
0100
0001
1000
0100
0010
,
0001
0000
0100
0000
0001
0000
0010
0000
0001
0000
0100
0000
0001
0010
0001
0100
,
0001
0000
0010
0000
0100
0010
0000
0001
0000
0000
1000
0100
0000
0010
0001
0000
,
1000
0000
0001
0000
0100
0010
0000
1000
0000
0000
0001
0100
0000
0010
1000
0000
,
0001
0000
1000
0100
0000
0000
0010
0001
0000
0000
1000
0001
1000
0010
0000
0000
,
1000
0000
0001
0000
0100
0010
0000
2000
0000
0000
3000
0000
0001
0000
0100
0000
,
0101
0000
0000
0000
0010
1000
0000
0010
0000
0000
0100
0001
0000
0100
0010
0000
,
1010
0000
1000
0000
0001
0100
0000
0010
0000
0000
1000
0010
0000
0100
0001
0000
,
1000
0000
0001
0010
0000
0000
0100
1000
0000
0000
0001
1000
0001
1000
0000
0000
,
0010
0000
0100
0000
0001
0100
0000
0020
0000
0000
0030
0000
1000
0000
0001
0000
,
1000
0000
0010
0000
0100
0001
0000
0100
0000
0000
0010
1000
0000
0010
0100
0000
,
0001
0000
0000
1000
0000
0000
0010
0000
0000
0100
0000
0000
0001
0000
1000
0000
,
0100
0000
0000
0010
0000
0000
0001
0000
0000
0100
0000
0000
0010
0000
1000
0000
,
0001
0000
0000
0010
0000
0000
0100
0000
0000
1000
0000
0000
0010
0000
0100
0000
,
0001
0000
0000
1000
0000
0000
0100
0000
0000
0001
0000
0000
0100
0000
1000
0000
,
0002
0000
0000
1000
0000
0000
1000
0000
0000
1000
0000
0000
1003
0000
0010
0000
,
0100
0000
0000
0001
0000
0000
0100
0000
0000
0010
0000
0000
1000
0000
0100
0000
,
0010
0000
0000
0001
0000
0000
0100
0000
0000
0010
0000
0000
1000
0000
0100
0000
,
1000
0000
0000
0001
0000
0000
0100
0000
0000
0010
0000
0000
1000
0000
0001
0000
,
2001
0010
0001
3100
,
0220
0330
0000
0202
0303
0000
2002
0000
,
0000
0000
3003
0000
0000
0000
0101
0000
0000
0000
0000
0000
0000
0000
0001
0100
,
0001
0000
1000
0000
0010
0000
0100
0001
0000
0100
0000
0010
0000
0000
1000
0000
,
0200
0010
1000
0310
,
2002
3003
0000
0202
0303
0000
0220
0000
,
0000
0000
0330
0000
0000
0000
1001
0000
0000
0000
0000
0000
0000
1000
0200
0000
,
0000
0300
0010
0001
,
1000
0000
0100
0000
0010
0000
0001
0000
0100
0000
0010
0000
1000
0000
0001
1000
,
0000
0001
0100
0000
0010
0000
1000
0000
0100
0000
0010
0000
0001
0000
0100
0000
,
0010
0000
0000
1000
0000
0000
0001
0000
0100
0000
0000
0100
0000
0000
0010
0000
,
1000
0100
0010
0001
0100
0010
1000
0001
,
0010
0000
0100
0000
1000
0000
0010
1000
0000
0001
0100
0001
0000
1000
0010
0000
,
0100
0001
0010
0001
0100
0010
1000
0001
,
0010
0000
0010
0000
0000
0100
0000
0100
0000
0000
1000
0010
0000
0000
0100
0000
,
0001
1000
0000
0010
0000
1000
0000
0001
0000
0000
0000
0000
1000
0000
0100
0000
,
0020
0000
0030
0000
0100
1000
0010
0100
,
0001
0010
0100
1000
0010
0100
0001
1000
,
0100
0010
0001
0100
0110
0000
1010
0000
,
1001
0000
0001
0100
0001
0010
0001
1000
,
0020
0000
0030
0100
0001
0010
0001
0100
,
0010
1000
0100
0010
0001
0100
0010
1000
,
0001
0010
0100
1000
0001
0000
1000
0001
,
0100
0000
0001
0010
0001
0100
0010
1000
,
1020
0000
0130
0001
0010
0000
0100
1000
,
0020
0000
1030
0000
0001
0100
0010
1000
,
0200
0000
0000
0000
0300
0000
0001
0000
1000
0010
0000
0100
0000
0001
0000
0100
,
0000
0000
0001
0000
1000
0010
0100
0001
,
1000
0100
0001
0100
1000
0010
0100
0001
,
0010
0000
0100
0000
1000
0000
0010
0000
0100
0001
0000
1000
0010
0000
0100
0001
,
1000
0010
0000
0100
0000
0000
0001
0000
1000
0100
0000
0010
0000
0001
0000
0100
,
0010
0000
1000
0000
0100
0000
0010
0000
0001
0010
0000
0010
0000
0100
0000
1000
;

//--------------- dance-single - ----------------
#NOTES:
     dance-single:
     :
     Hard:
     16:
     0,0,0,0,0:
0000
0000
0000
0000
,
0001
1000
0000
0100
0000
0010
0000
0001
0000
1000
0001
0000
0010
0000
0001
0000
,
1000
0100
0000
0010
0000
0000
0001
1000
0010
1000
0000
0100
0000
0010
0000
0001
,
0000
0000
0000
0000
0000
0000
1001
0000
0000
0000
1000
0001
0010
0100
1000
0000
,
0001
0000
0000
1000
0000
0100
0020
0000
0000
0000
0030
0001
1000
0000
0001
0100
,
0001
0010
0000
0100
0000
1000
0000
0100
0000
0000
0000
0000
0000
0011
0000
0000
,
0000
0001
0000
1000
0000
0000
0001
0010
0100
1000
0000
0100
0000
0010
0000
0020
,
0000
0000
0000
0000
0030
0000
0000
0000
0000
0000
0100
1000
0100
0010
0001
0000
,
1000
0010
1000
0000
0001
0100
0001
0000
1000
0100
1000
0000
0001
0100
0001
0000
,
1000
0100
0000
0010
0000
0001
0000
1000
0000
0001
0100
0000
0010
0000
1000
0000
,
0001
0010
0000
0100
0000
0000
1000
0001
0010
0001
0000
1000
0000
0100
0000
0010
,
0001
0100
0010
0000
1000
0001
1000
0001
0100
0001
0010
0000
0100
1000
0100
0000
,
0011
0000
0001
1000
0100
0010
0200
0000
0000
0000
0300
0010
0001
0000
1000
0001
,
0100
0001
0000
1000
0000
0100
0000
0010
0001
0000
1000
0000
0100
0000
0010
0000
,
0001
1000
0000
0001
0000
0000
1000
0100
0010
0001
0000
1000
0000
0100
0000
0010
,
0001
0000
0100
0000
0010
0000
1000
0000
0100
0000
0010
0000
0001
1000
0001
0000
,
1001
0000
1000
0000
0100
0000
0010
0000
0000
0001
0010
0000
0100
0000
1000
0000
,
0001
0000
1000
0100
1000
0000
0001
0010
0001
0000
1000
0000
0100
0000
0010
0000
,
0001
1000
0001
1000
0100
0010
0100
0010
0001
0000
0000
1000
0001
1000
0100
0010
,
0001
0000
1001
0000
1000
0100
0010
0001
,
1000
0000
0010
0000
0001
0000
0010
0000
1000
0100
1000
0000
0001
0000
1000
0000
,
0001
0100
1000
0100
0001
0010
1000
0010
,
0001
0100
0010
0000
1000
0100
0010
0000
0011
0000
0000
0000
0100
0000
1000
0000
,
0100
0010
0100
0000
0010
0001
1000
0000
0001
0100
0010
0000
1000
0000
0001
0000
,
1000
0000
0010
0000
1000
0000
0100
0000
1000
0000
0001
0000
1000
0100
0010
0001
,
0010
0100
1100
1000
1001
0001
1000
1000
,
0001
0000
0100
0000
1000
0000
0100
0000
0001
0000
0010
0000
0100
1000
0010
1000
,
0001
0000
0010
0000
0001
0000
0011
0000
0010
0000
0100
0000
1000
0001
0010
0100
,
1000
0000
0010
0000
0001
0000
0010
0000
1000
0000
0100
0000
0010
0001
0100
0001
,
1000
0000
0010
0000
0101
0000
0010
0000
1010
0000
0100
0000
0001
1000
0010
1000
,
0001
0000
0010
0000
0100
0000
1000
0000
1001
0000
0001
0000
0010
0100
1000
0010
,
1000
0000
0100
0000
0010
0001
0000
0010
0000
0000
0100
1000
0000
0001
1000
0100
,
0010
0000
0001
0000
1000
0001
0000
1000
0000
0000
0001
0100
0000
0010
1000
0100
,
0010
0000
0001
1000
0001
0000
0010
0001
0010
0000
0100
1000
0010
1000
0001
0000
,
1000
0000
0000
0000
0000
0000
0010
0000
0000
0000
0000
0000
0100
0000
0000
0001
0000
0000
0000
0000
0000
0010
0000
0000
0001
0000
0000
0000
0000
0000
0000
0000
0000
0000
0000
0000
1000
0000
0001
0000
1000
0000
0001
0000
1000
0000
0001
0000
,
1000
0000
0100
0000
0010
0001
0000
1000
0000
0000
0100
0010
0000
0001
0100
0000
,
0101
0000
0001
0000
0010
0001
0000
0200
0000
0000
0310
1000
0000
0001
0010
0000
,
0100
0000
1000
0001
0010
0000
0100
1000
0100
0000
0010
0001
0100
0001
0000
0000
,
1001
0000
0000
0000
0000
0000
1000
0000
0000
0000
0000
0000
0100
0000
0000
0010
0000
0000
0000
0000
0000
0001
0000
0000
1000
0000
0000
0000
0000
0000
0000
0000
0000
0000
0000
0000
0100
0000
0010
0000
0100
0000
1000
0000
0100
0000
0010
0000
,
0100
0000
0010
0000
0001
1000
0000
0100
0000
0000
0010
0001
0000
1000
0100
0000
,
0010
0000
0001
0100
0000
0010
1000
0000
0000
0100
0000
0000
0010
0000
0001
0000
,
1000
0000
0001
0010
0000
0100
1000
0000
0000
0100
0000
0000
0010
0000
0001
0000
,
1000
0000
0010
0100
0000
0001
0010
0000
0000
0100
0000
0000
1000
0000
0001
0000
,
0010
0000
0100
1000
0000
0100
0010
0000
0000
0001
0000
0000
1000
0000
1000
0000
,
0002
0000
0000
0010
0000
0000
0013
0000
0000
0100
0000
0000
1000
0000
0001
0000
,
1000
0000
0100
0010
0000
0100
1000
0000
0000
0100
0000
0000
0010
0000
0001
0000
,
1000
0000
0001
0100
0000
0010
1000
0000
0000
0001
0000
0000
0100
0000
1000
0000
,
0100
0000
0001
0010
0000
0100
1000
0000
0000
0001
0000
0000
1000
0000
0100
0000
,
1200
0000
1300
0100
0010
0001
0010
0001
,
0021
0100
0130
0002
1000
1003
0002
0010
,
0013
0000
0000
0000
0000
0000
0000
0000
0000
0100
0000
0000
0000
0000
0000
0000
0000
0000
2100
0000
0000
0000
0000
0000
0000
0000
0000
0000
0000
0000
3000
0000
0000
0000
0000
0000
0001
0000
0000
0000
0000
0000
0010
0000
0001
0000
0010
0000
,
0001
0000
1000
0000
0100
0000
0010
0001
0000
1000
0000
0100
0000
0000
0010
0000
,
0012
0000
1000
0000
0010
0010
0013
0000
,
0120
0000
0130
2100
0000
3001
1002
1000
,
1003
0000
0000
0000
0100
0000
0220
0000
0000
0000
0330
0000
0000
0001
1000
0000
,
0001
0000
0000
1000
0000
0000
0100
0000
0000
0010
0000
0000
0001
0000
1000
0000
,
0001
0100
0001
0010
0100
1000
0001
0000
1000
0010
0100
0001
0010
0100
1000
0001
,
1000
0100
0010
0100
1000
0000
0001
0000
1000
0001
1000
0000
0100
0010
0100
0000
,
1000
0000
0000
0010
0000
0000
1000
0000
0000
0010
0000
0000
0000
0000
0000
1000
0000
0000
0001
0000
0000
0010
0000
0000
0100
0000
1000
0000
0100
0000
1000
0000
0000
0001
0000
0000
0000
0000
0000
1000
0000
0000
0010
0000
0000
0100
0000
0000
,
0001
0010
0001
0010
0200
0000
0000
0000
1300
0000
0001
0000
1000
0000
0000
0000
,
0001
1000
0001
0000
0010
0100
1000
0100
0000
1000
0001
1000
0000
0001
0100
0010
,
2000
0000
0000
0000
3001
0010
0100
0010
0002
0000
0000
0000
0203
0000
0000
0000
,
0310
0000
1000
0000
0000
0001
0000
1000
0000
0000
0010
1000
0000
0000
0001
0000
,
0100
0000
0000
0000
0000
0000
0000
0000
0000
0000
0000
0000
0010
0000
0000
0000
0000
0000
0000
0000
0000
0000
0000
0000
0000
0000
0000
0000
0000
0000
0000
0000
0000
0000
0000
0000
1000
0000
0000
0000
0000
0000
0000
0000
0000
0000
0000
0000
0000
0000
0000
0000
0000
0000
0000
0000
0000
0000
0000
0000
0100
0000
0000
0000
0000
0000
0000
0000
0000
0000
0000
0000
0000
0000
0000
0000
0000
0000
0000
0000
0000
0000
0000
0000
0010
0000
0000
0000
0000
0000
0000
0000
0000
0000
0000
0000
0000
0000
0000
0000
0000
0000
0000
0000
0000
0000
0000
0000
0000
0000
0000
0000
0000
0000
0000
0000
0000
0000
0000
0000
0000
0000
0000
0000
0000
0000
0000
0000
0000
0000
0000
0000
0000
0000
0000
0000
0000
0000
0000
0000
0000
0000
0000
0000
0001
0000
0000
0000
0000
0000
0000
0000
0000
0000
1000
0000
0000
0000
0000
0000
0000
0000
0000
0010
0000
0000
0000
0000
0000
0000
0000
0000
0000
0100
0000
0000
0000
0000
0000
0000
0000
0000
0001
0000
0000
0000
0000
0000
0000
0000
0000
0000
,
1000
0000
0000
0000
0000
0000
1001
0000
0000
0000
0000
0000
0001
0000
0000
1000
0010
0100
0001
0000
0000
0010
0100
1000
,
0100
0000
0000
0010
0000
0000
0100
0000
0000
0000
0000
0000
1000
0000
0000
0001
0000
0000
1000
0000
0000
0000
0000
0000
0010
0000
0000
0000
0000
0000
1000
0000
0001
0000
1000
0000
0001
0000
0000
0100
0000
0000
0010
0000
0000
1000
0000
0000
,
0001
0100
0001
0100
0010
1000
0010
1000
0002
0000
0003
0000
2002
0000
3003
0000
,
0202
0000
0303
0000
0010
1000
0100
0010
0001
0010
0100
1000
0100
0010
0001
1000
,
0200
0000
0000
0000
0000
0000
0000
0000
0000
0000
0000
0000
0300
0000
0000
0000
0000
0000
1000
0000
0010
0000
1000
0000
0010
0000
0000
0100
0000
0000
0001
0000
0000
0100
0000
0000
0010
0000
0000
1000
0000
0000
0100
0000
0000
1000
0000
0000
,
0001
0000
0000
0010
0000
0000
0100
0000
0000
1000
0000
0000
0001
0000
0000
0000
0000
0000
0000
0000
0000
0000
0000
0000
1001
0000
0000
0000
0000
0000
1000
0000
0001
0000
0100
0000
0001
0000
0000
1000
0000
0000
0100
0000
0000
1000
0000
0000
,
0100
0000
0100
0000
1000
0010
1000
0010
0100
0000
0000
0000
0001
1000
0001
1000
,
0010
0100
0010
0100
0001
0010
0100
1000
0001
0100
0001
0010
0001
1000
0100
1000
,
0002
0000
0003
1000
0000
0010
0100
0000
0001
0000
1000
0000
0001
0000
1000
0000
,
0100
1001
0202
0303
,
0020
0000
0000
0000
0000
0000
0000
0000
0000
0000
0000
0000
0030
0000
0000
0000
0000
0000
0100
0000
0010
0000
0100
0000
0010
0000
0000
0100
0000
0000
0000
0000
0000
0010
0000
0000
0000
0000
0000
0100
0000
0000
0000
0000
0000
0010
0000
0000
,
1000
0100
0010
0100
1000
0010
0100
0010
1000
0000
0000
0000
0010
0000
0000
0000
,
1000
0000
0000
0100
0000
0000
0010
0000
0000
0001
0000
0000
0000
0000
0000
1000
0000
0000
0010
0000
0000
0100
0000
0000
0001
0000
0000
0000
0000
0000
0000
0000
0000
0000
0000
0000
1000
0000
0001
0000
0010
0000
0100
0000
1000
0000
0001
0000
,
1000
0000
0000
0000
0000
0000
0001
0000
0010
0000
0100
0000
1000
0000
0000
0010
0000
0000
1000
0000
0000
0001
0000
0000
0100
0000
0000
0010
0000
0000
0000
0000
0000
0100
0000
0000
0001
0000
0000
0000
0000
0000
1000
0000
0000
0010
0000
0000
,
1000
0000
0000
0100
0000
0000
0000
0000
0000
0010
0000
0000
0000
0000
0000
0000
0000
0000
0001
0000
0100
0000
0010
0000
1000
0000
0000
0100
0000
0000
0010
0000
0000
0001
0000
0000
0000
0000
0000
0000
0000
0000
1000
0000
0000
0000
0000
0000
,
0010
1000
0000
0010
0100
0000
0010
0000
1000
0010
0000
0110
0000
1001
0000
1001
;

//--------------- dance-single - ----------------
#NOTES:
     dance-single:
     :
     Challenge:
     18:
     0,0,0,0,0:
0000
0000
0000
0000
,
0000
0000
0000
0000
,
1000
0000
0000
0001
0000
0000
0000
0000
0000
0010
0000
0000
0000
0000
0000
0000
0000
0000
0100
0000
1000
0000
0001
0000
1000
0000
0000
0010
0000
0000
0000
0000
0000
0100
0000
0000
0000
0000
0000
0001
0000
0000
0000
0000
0000
0020
0000
0000
,
0000
0000
0000
0000
0030
0000
0000
0000
0000
0000
0000
0000
0100
0000
0000
0000
0000
0000
0000
0000
1000
0000
0010
0000
0100
0001
0100
0001
0100
0000
0000
0000
,
0001
0000
0000
0000
0000
0000
1000
0000
0000
0000
0000
0000
0010
0000
0000
0000
0000
0000
0100
0000
0000
0000
0000
0000
0001
0000
0000
0000
0010
0000
0000
0000
0100
0000
0000
0000
1000
0000
0000
0000
0000
0000
0001
0000
0000
0000
0000
0000
0000
0000
0000
0000
0000
0000
0000
0000
0000
0000
0000
0000
0000
0000
0000
0000
0000
0000
0001
0000
0000
0000
0000
0000
1000
0000
0000
0000
0000
0000
0000
0000
0000
0000
0000
0000
0010
0000
0000
0000
0000
0000
0100
0000
0000
0001
0000
0000
,
1000
0001
0000
0100
0000
0010
0000
1000
0000
0000
0000
1000
0100
0010
0001
0010
,
0000
0000
0000
0100
0000
0000
0000
0000
0000
1000
0000
0000
0000
0000
0000
0000
0000
0000
0001
0000
1000
0000
0100
0000
0010
0000
0000
0001
0000
0000
0000
0000
0000
1000
0000
0000
0000
0000
0000
0100
0000
0000
0000
0000
0000
2000
0000
0000
,
0000
0000
0000
0000
3000
0000
0000
0000
0000
0000
1000
0010
0100
0001
0100
0000
,
0002
0000
0000
0000
0000
0000
0013
0000
0000
0000
0000
0000
0100
0000
0000
0000
0000
0000
1000
0000
0000
0000
0000
0000
0002
0000
0000
0000
0103
0000
0000
0000
0010
0000
0000
0000
1000
0000
0000
0000
0000
0000
0010
0000
0000
0000
0000
0000
0100
0000
0000
0000
0000
0000
0001
0000
0000
0000
0000
0000
0010
0000
0000
0000
0000
0000
0100
0000
0000
0000
0000
0000
1000
0000
0000
0000
0000
0000
0010
0000
0000
0000
0000
0000
0100
0000
0000
0000
0000
0000
0001
0000
0000
0010
0000
0000
,
0001
1000
0000
0010
0100
0001
0100
0010
1000
0100
0010
0001
1000
0000
0100
0000
,
1000
0000
0000
0100
0000
0000
0010
0000
0000
0001
0000
0000
1000
0000
0100
0000
0010
0000
0001
0000
0000
1000
0000
0000
0001
0000
0000
0010
0000
0000
0000
0000
0000
0100
0000
0000
0000
0000
0000
1000
0000
0000
0000
0000
0000
0010
0000
0000
,
0100
0001
1000
0000
0010
1000
0010
0100
0001
0010
0100
1000
0001
0100
0010
0000
,
1000
0000
0000
0000
0000
0000
0100
0000
0000
0000
0000
0000
0010
0000
0000
0000
0000
0000
0001
0000
0000
0000
0000
0000
1000
0000
0000
0000
0010
0000
0000
0000
0100
0000
0000
0000
0001
0000
0000
0000
0000
0000
0100
0000
0000
0000
0000
0000
0010
0000
0000
0000
0000
0000
1000
0000
0000
0000
0000
0000
0001
0000
0000
0000
0000
0000
0010
0000
0000
0000
0000
0000
0100
0000
0000
0000
0000
0000
1000
0000
0000
0000
0000
0000
0001
0000
0000
0000
0000
0000
0100
0000
0000
0010
0000
0000
,
0100
0010
0000
1000
0000
0010
0000
0100
0001
1000
0010
0100
0001
0010
0100
1000
,
0001
0000
0000
0100
0000
0000
0010
0000
0000
1000
0000
0000
0001
0000
0000
0000
0000
0000
1000
0000
0010
0000
1000
0000
0010
0000
0000
0100
0000
0000
0000
0000
0000
0001
0000
0000
0000
0000
0000
0010
0000
0000
0000
0000
0000
0100
0000
0000
,
1000
0000
0000
0001
0000
0000
0010
0000
0000
0100
0000
0000
1000
0000
0000
0010
0000
0000
0000
0000
0000
0100
0000
0000
1000
0000
0000
0010
0000
0000
0100
0000
0000
0001
0000
0000
0010
0000
0001
0000
0100
0000
0010
0000
0000
0000
0000
0000
,
1000
0000
0010
0000
0100
0000
0001
0000
1000
0000
0100
0000
1000
0000
0010
0000
0000
0000
0100
0001
0100
0000
0000
0000
0001
0000
0010
0000
0100
0000
1000
0000
,
0100
0000
0010
0010
0000
0001
1000
0100
1000
0010
0100
0010
1000
0100
0010
0001
,
1000
0010
0100
0001
1000
0100
0010
0001
1000
0001
0100
0001
0010
0100
1000
0010
,
0100
0000
0000
0001
0000
0000
0010
0000
0000
0100
0000
0000
1000
0000
0000
0100
0000
0000
0010
0000
0000
0001
0000
0000
0010
0000
0000
0100
0000
0000
1000
0000
0000
0010
0000
0000
0100
0000
0001
0000
0010
0000
0100
0000
0000
0000
0000
0000
,
1000
0000
0100
0000
1000
0000
0010
0000
0100
0000
0001
0000
0010
0000
0100
0000
1000
0000
0001
1000
0001
0000
0010
0000
0000
0000
0100
0000
0010
0000
0000
0000
,
0001
0000
0010
0000
0100
0000
1000
0001
0100
0000
0010
0000
1000
0000
0001
0000
1000
0000
0010
0000
0100
0000
0001
0000
0010
0000
0100
0000
1000
0000
0001
0000
,
0100
0010
1000
0100
0010
0001
0100
0001
1000
0001
0000
0010
0001
0100
0010
1000
,
0100
0010
0001
0100
0001
1000
0100
1000
0001
0100
0010
1000
0100
0010
0001
1000
,
0001
0000
1000
0100
1000
0000
0001
0000
0010
0000
0100
0000
1000
0001
1000
0100
,
0010
0000
0100
0000
1000
0000
0001
0010
0001
0000
1000
0000
0010
0000
0100
0000
0002
0003
0000
0000
0100
0000
0001
0000
1000
0000
0000
0000
1000
0000
0100
0000
,
1000
0000
0000
0000
0001
0000
0010
0000
0001
0000
0000
0000
1000
0001
1000
0001
1000
0000
0000
0000
0100
0000
0010
0000
0001
0000
0100
0000
0010
0000
0000
0000
,
1010
0000
1000
0001
0100
0000
0101
0000
0001
0000
1000
0100
1000
0010
1000
0000
,
1010
0000
1000
0100
0010
0001
0100
0001
0010
0000
0100
1000
0100
0010
0001
0000
,
1000
0000
0001
0100
0010
1000
0001
0010
0200
0300
1000
0001
0010
0100
1000
0010
,
0200
0300
0001
1000
0100
0000
0010
0001
1000
0000
0010
0000
1000
0100
0010
0001
,
0100
0000
0010
0000
1000
0001
1000
0001
1000
0000
0100
0010
0000
0001
1000
0010
,
0100
0000
0001
0010
0100
1000
0010
0100
0001
0000
1000
0010
0100
0001
0100
0010
,
0100
0000
0010
1000
0100
0010
0001
1000
0001
0100
0010
1000
0100
0010
0001
1000
,
0001
0000
0000
0000
0000
0000
0100
0000
0000
0010
0000
0000
1000
0000
0000
0100
0000
0000
0000
0000
0000
2000
0000
0000
0000
0000
0000
0000
0000
0000
3000
0000
0000
0000
0000
0000
0001
0000
0010
0000
0100
0000
1000
0000
0100
0000
0010
0000
,
0001
0000
0000
0000
0000
0000
1000
0000
0000
0000
0000
0000
0100
0000
0000
0010
0000
0000
0000
0000
0000
0001
0000
0000
0000
0000
0000
0000
0000
0000
1000
0000
0100
0000
0010
0000
0001
0000
0000
0000
0000
0000
0100
0000
0000
0010
0000
0000
,
1000
0000
0001
0010
0001
0010
0000
0100
0000
0000
1000
0010
0000
0100
0001
0010
,
0100
0000
1000
0010
1000
0000
0001
0010
0001
0000
1000
0010
1000
0001
0010
0100
,
1000
0000
0000
0000
0000
0000
0001
0000
0000
0100
0000
0000
0010
0000
0000
1000
0000
0000
0100
0000
0000
1000
0000
0000
0000
0000
0000
0000
0000
0000
0000
0000
0000
0000
0000
0000
0010
0000
1000
0000
0010
0000
0100
0000
0001
0000
1000
0000
,
0001
0000
0010
0000
0100
1000
0000
0001
0000
0000
0000
0000
1000
0010
0100
0001
,
0010
0100
1000
0001
0000
0100
0010
0100
0000
0000
1000
0010
1000
0100
0010
0001
,
1000
0010
0100
0001
0010
0100
1000
0010
0000
1000
0001
0010
0100
1000
0010
0100
,
0001
1000
0100
0010
0000
0001
0100
0000
0010
1000
0000
0100
0010
0001
1000
0010
,
0100
0000
0001
0010
0000
0100
1000
0000
0001
0100
0000
0010
1000
0000
0001
0100
,
0010
0000
1000
0100
0000
0010
0001
0000
0010
0100
0000
1000
0010
0100
0001
0010
,
0100
0000
1000
0010
0000
1000
0100
0000
0010
0001
0000
0100
0010
1000
0100
0010
,
0001
0000
1000
0010
0000
0100
0010
0000
1000
0001
0000
1000
0100
0010
0001
0100
,
0010
0000
1000
0100
0000
0010
0001
0000
1000
0010
0000
0100
0001
0010
0100
1000
,
0001
0000
1000
0010
1000
0010
0100
0010
1000
0000
0001
0100
0001
0010
0100
0010
,
0001
0000
1000
0010
0100
0001
0010
0000
0100
1000
0010
1000
0001
0000
1000
0100
,
0010
0000
0000
0001
0000
0000
0100
0000
0000
0001
0000
0000
0010
0000
0000
0000
0000
0000
1100
0000
0000
0000
0000
0000
0010
0000
0000
0001
0000
0000
0100
0000
0000
0001
0000
0000
0010
0000
0000
0001
0000
0000
0100
0000
0010
0000
1000
0000
,
0001
0000
0010
0000
0100
0000
0010
0001
0000
0010
0000
0100
0000
0000
1000
0000
,
1001
0000
0001
0100
0001
0010
0100
1000
0001
0000
0100
0010
1000
0100
0010
0001
,
1000
0000
0010
0100
0010
1000
0001
0000
0010
0001
0100
0001
0010
0000
0100
1000
,
0010
0000
0000
0000
0100
0000
0001
0000
0010
0000
0000
0000
0001
0000
0010
0000
0100
0000
0000
0000
1000
0000
0100
0000
0010
0000
0001
1000
0010
0000
0000
0000
,
0100
0001
0010
0001
0010
0000
0001
0010
0100
1000
0010
0100
0001
1000
0010
0100
,
0001
0000
0000
0100
0000
0000
0010
0000
0000
1000
0000
0000
0100
0000
0000
1000
0000
0000
0010
0000
0100
0000
0001
0000
0010
0000
0000
0100
0000
0000
1000
0000
0000
0010
0000
0000
1000
0000
0000
0100
0000
0000
0010
0000
0000
0001
0000
0000
,
0010
0000
0000
0000
0000
0000
0100
0000
0000
1000
0000
0000
0100
0000
0000
0000
0000
0000
0010
0000
0000
0000
0000
0000
0001
0000
0000
0000
0100
0000
0000
0000
0001
0000
0000
0000
0100
0000
0000
0000
0000
0000
0001
0000
0000
0000
0000
0000
0100
0000
0000
0000
0000
0000
0001
0000
0000
0000
0000
0000
0100
0000
0000
0000
0000
0000
0010
0000
0000
0000
0000
0000
1000
0000
0000
0000
0000
0000
0010
0000
0000
0000
0000
0000
0100
0000
0000
0000
0000
0000
0001
0000
0000
0000
0000
0000
,
1000
0000
0000
0100
0000
0000
0010
0000
0000
0001
0000
0000
0010
0000
0000
0100
0000
0000
0010
0000
0000
0001
0000
0000
1000
0000
0010
0000
0100
0000
0001
0000
0000
0010
0000
0000
0100
0000
0000
1000
0000
0000
0010
0000
0100
0000
0001
0000
,
1000
0000
0000
0000
0000
0000
0000
0000
0000
0000
0000
0000
0100
0000
0000
0000
0000
0000
0000
0000
0000
0000
0000
0000
0010
0000
0000
0000
0000
0000
0000
0000
0000
0000
0000
0000
0001
0000
0000
0000
0000
0000
0000
0000
0000
0000
0000
0000
1000
0000
0000
0000
0000
0000
0000
0000
0000
0000
0100
0000
0000
0000
0000
0000
0000
0000
0000
0010
0000
0000
0000
0000
0000
0000
0000
0000
0000
0001
0000
0000
0000
0000
0000
0000
0000
0000
1000
0000
0000
0000
0000
0000
0000
0000
0000
0000
0001
0000
0000
0000
0000
0000
0000
0000
1000
0000
0000
0000
0000
0000
0000
0000
0100
0000
0000
0000
0000
0000
0000
0000
1000
0000
0000
0000
0000
0000
0000
0000
0001
0000
0000
0000
0000
0000
0000
0000
0100
0000
0000
0000
0000
0000
0000
0000
0001
0000
0000
0000
0000
0000
0000
0000
0000
0000
1000
0000
0000
0000
0000
0000
0000
0000
0000
0100
0000
0000
0000
0000
0000
0000
0000
0000
0000
1000
0000
0000
0000
0000
0000
0000
0000
0000
0001
0000
0000
0000
0000
0000
0000
0000
0000
0000
,
0100
0000
0000
0000
0000
0000
0001
0000
0000
0000
0000
0000
1000
0000
0000
0000
0100
0000
0000
0000
0010
0000
0000
0000
0001
0000
0000
0000
0000
0000
0100
0000
0000
0000
0000
0000
0010
0000
0000
0000
0000
0000
1000
0000
0000
0000
0000
0000
0000
0000
0000
0000
0000
0000
0100
0000
0000
0000
0000
0000
0010
0000
0000
0000
0000
0000
0001
0000
0000
0000
0000
0000
0100
0000
0000
0000
0000
0000
0010
0000
0000
1000
0000
0000
0010
0000
0000
0000
0000
0000
0100
0000
0000
0000
0000
0000
,
0001
0000
0000
0000
0000
0000
0000
0000
0010
0000
0000
0000
0000
0000
0000
0000
0100
0000
0000
0000
0000
0000
0000
0000
1000
0000
0000
0000
0000
0000
0000
0000
0000
0000
0000
0000
0010
0000
0000
0000
0000
0000
0000
0000
0000
0000
0000
0000
0100
0000
0000
0000
0000
0000
0000
0000
0000
0000
0000
0000
0001
0000
0000
0000
0000
0000
0000
0000
0000
0000
0000
0000
0010
0000
0000
0000
0000
0000
0000
0000
0000
0000
0000
0000
0001
0000
0000
0000
0000
0000
0000
0000
0000
0000
0000
0000
1000
0000
0000
0000
0000
0000
0000
0000
0000
0000
0010
0000
0000
0000
0000
0000
0000
0000
0000
0100
0000
0000
0000
0000
0000
0000
0000
0000
0000
0001
0000
0000
0000
0000
0000
0000
0000
0000
1000
0000
0000
0000
0000
0000
0000
0000
0000
0000
0001
0000
0000
0000
0000
0000
0000
0000
0010
0000
0000
0000
0000
0000
0000
0000
0001
0000
0000
0000
0000
0000
0000
0000
0100
0000
0000
0000
0000
0000
0000
0000
0010
0000
0000
0000
0000
0000
0000
0000
1000
0000
0000
0000
0000
0000
0000
0000
,
0001
0000
0000
0000
0011
0000
0000
0000
0001
0000
0100
0000
0010
0000
1000
0000
0000
0000
0000
1000
0001
0000
0010
0000
0001
0000
0000
0000
0100
0000
0010
0000
,
0100
0000
0000
0000
0000
0000
0000
0000
0000
0000
0000
0000
0001
0000
0000
0000
0000
0000
0000
0000
0000
0000
0000
0000
0000
0000
0000
0000
0000
0000
0000
0000
0000
0000
0000
0000
0100
0000
0000
0000
0000
0000
0000
0000
0000
0000
0000
0000
0001
0000
0000
0000
0000
0000
0000
0000
0000
0000
0000
0000
0000
0000
0000
0000
0000
0000
0000
0000
0000
0000
0000
0000
1000
0000
0000
0000
0000
0000
0000
0000
0000
0000
0000
0000
0000
0000
0000
0000
0000
0000
0000
0000
0000
0000
0000
0000
0001
0000
0000
0000
0000
0000
0000
0000
0000
0000
0000
0000
0000
0000
0000
0000
0000
0000
0000
0000
0000
0000
0000
0000
0010
0000
0000
0000
0000
0000
0000
0000
0000
0000
0000
0000
0100
0000
0000
0000
0000
0000
0000
0000
0000
0000
0000
0000
1000
0000
0000
0000
0000
0000
0000
0000
0000
0000
0010
0000
0000
0000
0000
0000
0000
0000
0000
0100
0000
0000
0000
0000
0000
0000
0000
0000
0000
0001
0000
0000
0000
0000
0000
0000
0000
0000
1000
0000
0000
0000
0000
0000
0000
0000
0000
0000
,
0001
0000
0000
0000
0000
0000
0000
0000
0000
0000
0000
0000
0000
0000
0000
0000
0000
0000
0000
0000
0000
0000
0000
0000
1000
0000
0000
0000
0000
0000
0000
0000
0000
0000
0000
0000
0100
0000
0000
0000
0000
0000
0000
0000
0000
0000
0000
0000
0010
0000
0000
0000
0000
0000
0000
0000
0000
0000
0000
0000
0000
0000
0000
0000
0000
0000
0000
0000
0000
0000
0000
0000
0001
0000
0000
0000
0000
0000
0000
0000
0000
0000
0000
0000
0100
0000
0000
0000
0000
0000
0000
0000
0000
0000
0000
0000
0010
0000
0000
0000
0000
0000
0000
0000
0000
0000
0000
0000
1000
0000
0000
0000
0000
0000
0000
0000
0000
0000
0000
0000
0100
0000
0000
0000
0000
0000
0000
0000
0010
0000
0000
0000
0000
0000
0000
0000
0001
0000
0000
0000
0000
0000
0000
0000
1000
0000
0000
0000
0000
0000
0000
0000
0000
0000
0010
0000
0000
0000
0000
0000
0000
0000
0000
1000
0000
0000
0000
0000
0000
0000
0000
0000
0000
0100
0000
0000
0000
0000
0000
0000
0000
0000
0010
0000
0000
0000
0000
0000
0000
0000
0000
0000
,
0001
0000
0000
0100
0000
0000
0010
0000
0000
1000
0000
0000
0010
0000
0000
0100
0000
0000
0001
0000
0000
0010
0000
0000
0001
0000
0000
0100
0000
0000
0010
0000
1000
0000
0001
0000
0010
0000
0000
0001
0000
0000
1000
0000
0000
0010
0000
0000
,
1000
0000
0000
0000
0000
0000
0000
0000
0000
0000
0000
0000
0100
0000
0000
0000
0000
0000
0000
0000
0000
0000
0000
0000
0010
0000
0000
0000
0000
0000
0000
0000
0000
0000
0000
0000
0001
0000
0000
0000
0000
0000
0000
0000
0000
0000
0000
0000
1000
0000
0000
0000
0000
0000
0000
0000
0000
0000
0000
0000
0010
0000
0000
0000
0000
0000
0000
0000
0000
0000
0000
0000
0100
0000
0000
0000
0000
0000
0000
0000
0000
0000
0000
0000
0001
0000
0000
0000
0000
0000
0100
0000
0000
0000
0000
0000
0010
0000
0000
0000
0000
0000
0000
0000
0000
0000
1000
0000
0000
0000
0000
0000
0000
0000
0000
0100
0000
0000
0000
0000
0000
0000
0000
0000
0000
0010
0000
0000
0000
0000
0000
0000
0000
0000
0001
0000
0000
0000
0000
0000
0000
0000
0000
0000
1000
0000
0000
0000
0000
0000
0000
0000
0000
0000
0010
0000
0000
0000
0000
0000
0000
0000
0000
0100
0000
0000
0000
0000
0000
0000
0000
0000
0000
0001
0000
0000
0000
0000
0000
0000
0000
0000
0010
0000
0000
0000
0000
0000
0000
0000
0000
0000
,
0100
0000
0000
0000
0000
0000
0000
0000
0000
0000
1000
0000
0000
0000
0000
0000
0000
0000
0000
0001
0000
0000
0000
0000
0000
0000
0000
0000
0000
0010
0000
0000
0000
0000
0000
0000
0000
0000
0001
0000
0000
0000
0000
0000
0000
0000
0000
0000
0100
0000
0000
0000
0000
0000
0000
0000
0000
0000
0000
0000
0010
0000
0000
0000
0000
0000
0000
0000
0000
0000
0000
0000
0100
0000
0000
0000
0000
0000
0000
0000
0000
0000
0000
0000
0001
0000
0000
0000
0000
0000
0000
0000
0000
0000
0000
0000
1000
0000
0000
0000
0000
0000
0000
0000
0000
0000
0000
0000
0100
0000
0000
0000
0000
0000
0000
0000
0000
0000
0000
0000
0010
0000
0000
0000
0000
0000
0000
0000
0000
0000
0000
0000
0001
0000
0000
0000
0000
0000
0000
0000
0000
0000
0000
0000
0010
0000
0000
0000
0000
0000
0000
0000
0000
0000
0000
0000
0100
0000
0000
0000
0000
0000
0000
0000
0000
0000
0000
0000
1000
0000
0000
0000
0000
0000
0000
0000
0000
0000
0000
0000
0100
0000
0000
0000
0000
0000
0000
0000
0000
0000
0000
0000
,
0020
0000
0000
0000
0000
0000
0000
0000
0000
0000
0000
0000
0031
0000
0000
0000
0000
0000
1000
0000
0100
0000
0010
0000
0001
0000
0000
0010
0000
0000
0100
0000
0000
1000
0000
0000
0001
0000
0000
0010
0000
0000
0100
0000
0000
1000
0000
0000
,
0010
0000
0000
0100
0000
0000
0001
0000
0000
0010
0000
0000
0001
0000
0100
0000
0010
0000
1000
0000
0000
0010
0000
0000
0100
0000
0000
0001
0000
0000
0100
0000
0010
0000
1000
0000
0100
0000
0000
0010
0000
0000
0001
0000
0000
0100
0000
0000
,
0010
0000
0000
0000
0000
0000
0000
0000
1000
0000
0000
0000
0000
0000
0000
0000
0100
0000
0000
0000
0000
0000
0000
0000
0010
0000
0000
0000
0000
0000
0000
0000
0001
0000
0000
0000
0000
0000
0000
0000
1000
0000
0000
0000
0000
0000
0000
0000
0100
0000
0000
0000
0000
0000
0000
0000
0000
0000
0000
0000
1000
0000
0000
0000
0000
0000
0000
0000
0000
0000
0000
0000
0001
0000
0000
0000
0000
0000
0000
0000
0000
0000
0000
0000
0100
0000
0000
0000
0000
0000
0000
0000
0000
0000
0000
0000
0010
0000
0000
0000
0000
0000
0000
0000
0000
0000
0100
0000
0000
0000
0000
0000
0000
0000
0000
0001
0000
0000
0000
0000
0000
0000
0000
0000
0000
1000
0000
0000
0000
0000
0000
0000
0000
0000
0100
0000
0000
0000
0000
0000
0000
0000
0000
0000
0010
0000
0000
0000
0000
0000
0000
0000
0000
0000
0000
0000
0001
0000
0000
0000
0000
0000
0000
0000
0000
0000
0000
0000
0100
0000
0000
0000
0000
0000
0000
0000
0000
0000
0000
0000
0010
0000
0000
0000
0000
0000
0000
0000
0000
0000
0000
0000
,
1000
0001
0010
0100
1000
0010
1000
0100
0010
0001
0100
0010
1000
0010
0100
0001
,
2000
0000
0000
0000
3010
0000
0100
0000
0001
0000
0000
0000
0100
0000
0010
0000
1000
0000
0001
1000
0001
0000
0100
0000
0010
0000
0000
0000
1000
0000
0010
0000
,
1000
0000
0000
0000
0100
0000
0010
0001
0010
0000
0000
0000
0100
0000
0010
0000
0001
0000
0010
0000
0100
0000
0000
0000
1000
0000
0010
0000
1000
0000
0010
0000
,
0200
0000
0000
0000
0000
0000
0301
0000
0000
1000
0000
0000
0002
0000
0000
0000
0000
0000
0013
0000
0001
0000
1000
0000
0010
0000
0000
0100
0000
0000
0001
0000
0000
1000
0000
0000
0000
0000
0000
0010
0000
0000
0100
0000
0000
0001
0000
0000
,
0010
0000
0000
0001
0000
0000
0100
0000
0000
0001
0000
0000
0100
0000
0000
0010
0000
0000
1000
0000
0000
0100
0000
0000
0010
0000
0000
0000
0000
0000
0001
0000
0000
1000
0000
0000
0001
0000
0100
0000
0010
0000
1000
0000
0000
0000
0000
0000
,
1000
0000
0000
0000
0000
0000
0000
0000
0000
0000
0000
0000
0010
0000
0000
0000
0000
0000
0000
0000
0000
0000
0000
0000
0100
0000
0000
0000
0000
0000
0001
0000
0000
0000
0000
0000
0100
0000
0000
0000
0000
0000
0000
0000
0000
0000
0000
0000
0000
0000
0000
0000
0000
0000
0000
0000
0000
0000
0000
0000
0010
0000
0000
0000
0000
0000
0000
0000
0000
0000
0000
0000
1000
0000
0000
0000
0000
0000
0000
0000
0000
0000
0000
0000
0100
0000
0000
0000
0000
0000
0000
0000
0000
0000
0000
0000
0010
0000
0000
0000
0000
0000
0000
0000
0000
0000
0001
0000
0000
0000
0000
0000
0000
0000
0000
0100
0000
0000
0000
0000
0000
0000
0000
0000
0000
0010
0000
0000
0000
0000
0000
0000
0000
0000
1000
0000
0000
0000
0000
0000
0000
0000
0000
0000
0001
0000
0000
0000
0000
0000
0000
0000
1000
0000
0000
0000
0000
0000
0000
0000
0100
0000
0000
0000
0000
0000
0000
0000
0010
0000
0000
0000
0000
0000
0000
0000
0001
0000
0000
0000
0000
0000
0000
0000
1000
0000
0000
0000
0000
0000
0000
0000
,
0010
0000
0000
0100
0000
0000
1000
0000
0010
0000
0100
0000
0001
0000
0000
0010
0000
0000
0100
0000
0000
1000
0000
0000
0001
0000
0000
0100
0000
0000
0000
0000
0000
0010
0000
0000
1000
0000
0000
0000
0000
0000
0100
0000
0000
0010
0000
0000
,
0002
0000
0000
0000
0000
0000
0000
0000
0000
0000
0000
0000
0003
0000
0000
0000
0000
0000
1000
0000
0000
0100
0000
0000
0010
0000
0000
0001
0000
0000
0100
0000
0000
0001
0000
0000
0010
0000
0100
0000
1000
0000
0010
0000
1000
0000
0001
0000
,
0010
0000
0100
0000
1000
0000
0010
0100
0001
0000
0000
0000
0001
0000
0000
0000
0000
0000
1001
0000
0000
0000
1001
0000
0000
0000
0110
0000
0000
0000
0110
0000
;
