#TITLE:Love You Now;
#SUBTITLE:;
#ARTIST:Cash Cash feat. Georgia Ku;
#TITLETRANSLIT:;
#SUBTITLETRANSLIT:;
#ARTISTTRANSLIT:;
#GENRE:;
#CREDIT:;
#BANNER:Love You Now.png;
#BACKGROUND:Love You Now-bg.png;
#LYRICSPATH:;
#CDTITLE:;
#MUSIC:Love You Now.ogg;
#OFFSET:-0.440000;
#SAMPLESTART:63.426266;
#SAMPLELENGTH:12.000000;
#SELECTABLE:YES;
#BPMS:0.000000=160.000000
;
#STOPS:
;
#BGCHANGES:;
#KEYSOUNDS:;
#ATTACKS:;

//---------------dance-single - ----------------
#NOTES:
     dance-single:
     :
     Hard:
     11:
     0.457558,0.550919,0.123189,0.358367,0.000000,286.000000,275.000000,11.000000,32.000000,0.000000,0.000000,0.457558,0.550919,0.123189,0.358367,0.000000,286.000000,275.000000,11.000000,32.000000,0.000000,0.000000:
// measure 0
0000
0000
0000
0000
,  // measure 1
0000
0000
0000
0000
,  // measure 2
0000
0000
0000
0000
,  // measure 3
0000
0000
0000
0000
,  // measure 4
0000
0000
0000
0000
,  // measure 5
0000
0000
0000
0000
,  // measure 6
0000
0000
0000
0000
,  // measure 7
0000
0000
0000
0000
,  // measure 8
0000
0000
0000
0000
,  // measure 9
0000
0000
0000
0000
0000
0001
1000
0010
,  // measure 10
0200
0010
0000
0000
0310
1000
0001
0010
,  // measure 11
0200
0010
0000
0000
1300
0000
0001
0100
,  // measure 12
0020
0100
0000
0130
0001
1000
0200
0000
,  // measure 13
0000
0000
1000
0000
0310
0001
0100
0010
,  // measure 14
2000
0010
0000
0000
3001
0000
0001
1000
,  // measure 15
0020
0100
0000
0000
1030
0100
0010
0001
,  // measure 16
0000
0001
1000
0010
1000
0100
0010
0000
,  // measure 17
0000
0010
0100
1000
0010
0001
1000
0100
,  // measure 18
0002
0000
0000
0000
0013
1000
0001
0100
,  // measure 19
2000
0000
0010
0000
3100
0010
0001
1000
,  // measure 20
0010
0000
0110
0000
0100
0010
1000
0001
,  // measure 21
0010
0000
0110
0000
0010
1000
0001
0100
,  // measure 22
2000
0000
0000
0000
3010
0001
1000
0100
,  // measure 23
0002
0000
0010
0000
1003
0000
0010
0100
,  // measure 24
0002
0000
0013
0100
2000
0000
3100
0010
,  // measure 25
0002
0203
2300
3020
,  // measure 26
0032
0000
0000
0000
,  // measure 27
2003
0000
0000
0000
0000
3010
0100
0001
,  // measure 28
0010
0000
0001
0001
1000
0000
0000
0000
,  // measure 29
2000
3200
0302
0023
,  // measure 30
2030
0000
0000
0000
,  // measure 31
3002
0000
0000
0000
0000
0013
0100
1000
,  // measure 32
0010
0000
1000
1000
0001
0000
0010
0000
,  // measure 33
0001
0001
1000
0000
0100
0001
0100
1000
,  // measure 34
0001
0000
0010
1000
0000
0010
0001
0000
,  // measure 35
1000
0000
0010
0100
0000
0001
1000
0010
,  // measure 36
1000
0000
0100
0001
0000
0100
1000
0000
,  // measure 37
0001
0000
0100
0010
2000
0000
3002
0000
,  // measure 38
0013
0100
0100
0010
0001
0001
0010
0100
,  // measure 39
1000
0010
0010
0100
0010
1000
0100
0010
,  // measure 40
0001
0000
0010
0010
1000
0000
0001
0000
,  // measure 41
0010
0010
1000
0000
0110
0000
0001
0010
,  // measure 42
0100
1000
0100
0010
0002
0000
0103
1000
,  // measure 43
0100
0010
0001
0000
1010
0000
1000
0100
,  // measure 44
0010
0001
0010
0100
2000
0000
3010
0001
,  // measure 45
0010
0100
1000
0000
0100
0001
0001
0001
,  // measure 46
0100
0001
0100
0010
2000
0000
3100
0001
,  // measure 47
0100
0010
1000
0000
0011
0000
0002
0203
,  // measure 48
0310
1000
0010
0100
0002
0000
0013
1000
,  // measure 49
0010
0100
0100
0000
0011
0000
1100
0000
,  // measure 50
1000
0100
1000
0001
1000
0010
0100
0001
,  // measure 51
0000
0001
1000
0010
1000
0001
0010
0100
,  // measure 52
1000
0000
0010
0010
0001
0000
0001
0011
,  // measure 53
0000
0100
0010
0000
0101
0000
1010
0000
,  // measure 54
0001
0010
0001
1000
0010
0001
0010
1000
,  // measure 55
0000
1000
0001
0010
0001
1000
0100
0010
,  // measure 56
0001
0000
0010
0010
1000
0000
1000
0001
,  // measure 57
0100
0100
1000
0000
1100
0100
0010
0001
;

//---------------dance-single - ----------------
#NOTES:
     dance-single:
     :
     Medium:
     8:
     0.327970,0.421291,0.011199,0.347168,0.000000,205.000000,204.000000,1.000000,31.000000,0.000000,0.000000,0.327970,0.421291,0.011199,0.347168,0.000000,205.000000,204.000000,1.000000,31.000000,0.000000,0.000000:
0000
0000
0000
0000
,
0000
0000
0000
0000
,
0000
0000
0000
0000
,
0000
0000
0000
0000
,
0000
0000
0000
0000
,
0000
0000
0000
0000
,
0000
0000
0000
0000
,
0000
0000
0000
0000
,
0000
0000
0000
0000
,
0000
0000
0000
0000
,
2000
0000
0000
0000
3010
0000
0100
0010
,
0000
0010
0200
0000
0301
0000
0010
0001
,
0000
0001
1000
0000
0001
0100
0001
0000
,
1000
0000
0010
0000
0100
0000
0001
1000
,
0002
0000
0000
0000
0013
0000
0100
0010
,
0000
0010
0200
0000
1300
0000
0010
1000
,
0000
1000
0001
0000
1000
0010
1000
0000
,
0000
0001
0010
0000
0100
0000
1000
0001
,
2000
0000
0000
0000
3010
0000
1000
0001
,
2000
0000
0001
0000
3100
0000
0010
0001
,
0010
0000
0010
0000
0100
0000
0100
1000
,
0100
0000
0000
0000
0010
0000
0001
1000
,
0002
0000
0000
0000
0013
0000
0001
1000
,
0002
0000
1000
0000
0103
0000
0100
0010
,
0000
0000
0010
1000
0000
0000
1000
0000
,
0002
0203
0320
2030
,
3200
0000
0000
0000
,
0320
0000
0000
0000
,
0031
0000
0001
1000
0000
0000
0000
0000
,
2000
3200
0320
0032
,
0203
0000
0000
0000
,
0320
0000
0000
0000
,
1030
0000
1000
0001
0000
0000
0001
0000
,
0001
1000
0000
0000
0100
0010
0001
0000
,
1000
0000
0000
0010
0000
0000
1000
0000
,
0001
0000
0000
0001
0000
0000
0010
0000
,
0001
0000
0000
1000
0000
0000
0001
0000
,
0200
0320
2030
3002
,
0013
0000
0100
0010
0000
0100
0010
0000
,
0001
0000
1000
0001
0000
1000
0001
0000
,
0100
0000
0100
0010
0000
0000
0100
0000
,
0100
0010
0000
0000
1000
0000
0001
0000
,
1001
0000
0001
0010
0001
0000
1000
0000
,
0001
0010
0001
0000
0100
0000
0010
0100
,
0001
0000
1000
0100
1000
0000
0001
0000
,
1000
0100
1000
0000
0001
1000
0001
1000
,
0001
0000
1000
0010
1000
0000
0001
0000
,
1000
0010
1000
0000
0001
0000
0010
0100
,
1000
0000
0001
0100
0001
0000
1000
0001
,
2000
3020
0230
0302
,
1003
1000
0001
0100
,
0010
0100
0001
0000
1000
0000
0100
0000
,
0010
0000
0010
0001
0000
0000
1000
0001
,
0000
0001
2000
0000
3200
0000
0320
0000
,
0031
0001
1000
0100
,
0010
0100
1000
0000
0001
0000
0100
0000
,
0010
0000
0010
1000
0000
0000
1000
0000
,
1000
0100
0000
0000
0010
0100
1000
0001
;

//---------------dance-single - ----------------
#NOTES:
     dance-single:
     :
     Easy:
     6:
     0.215980,0.291033,0.000000,0.179183,0.000000,135.000000,135.000000,0.000000,16.000000,0.000000,0.000000,0.215980,0.291033,0.000000,0.179183,0.000000,135.000000,135.000000,0.000000,16.000000,0.000000,0.000000:
0000
0000
0000
0000
,
0000
0000
0000
0000
,
0000
0000
0000
0000
,
0000
0000
0000
0000
,
0000
0000
0000
0000
,
0000
0000
0000
0000
,
0000
0000
0000
0000
,
0000
0000
0000
0000
,
0000
0000
0000
0000
,
0000
0000
0000
0000
,
2000
0000
0001
0000
,
0000
0010
3001
0000
,
0002
0000
1000
0000
,
0000
0010
1003
0000
,
0200
0000
0010
0000
,
0000
1000
0310
0000
,
0020
0000
0031
0000
,
0000
0010
0001
0001
,
0001
0000
1000
1000
,
1000
0000
0010
0010
,
0010
1000
0010
0100
,
0001
0000
1000
1000
,
1000
0000
0001
0001
,
0001
0000
0010
0000
,
0100
0000
1000
0000
,
0010
1000
0100
0010
,
0002
0000
0000
0000
,
2003
0000
0000
0000
,
3010
0000
0000
0010
0000
0000
0000
0000
,
0100
0010
1000
0001
,
2000
0000
0000
0000
,
3002
0000
0000
0000
,
0013
0000
0000
0010
0000
0000
0100
0000
,
0000
0100
0000
0000
1000
0000
0000
0000
,
0001
0000
0000
0001
0000
0000
0000
0000
,
1000
0000
0000
1000
0000
0000
1000
0000
,
0010
0000
0000
0010
0000
0000
0000
0000
,
0100
0001
0010
0100
,
1000
0001
1000
0000
,
0010
0100
0010
0000
,
1000
0000
0000
1000
0000
0000
0001
0000
,
0000
0001
0000
0000
0010
0000
0100
0000
,
1000
1000
0001
1000
,
1000
0010
0010
0000
,
0100
0001
1000
0100
,
1000
0001
0010
0010
,
0001
0001
1000
0001
,
0001
0010
0010
0100
,
1000
0001
0010
0001
,
2000
3020
0230
0302
,
1003
1000
0010
1000
,
0000
0100
0010
0000
,
0001
0000
0000
0001
0000
0000
1000
0000
,
0002
0203
0320
2030
,
3001
0001
0010
0001
,
0000
0100
0010
0000
,
1000
0000
0000
1000
0000
0000
0001
0000
,
0000
0001
0000
0000
0010
0000
0100
0000
;

//---------------dance-single - ----------------
#NOTES:
     dance-single:
     :
     Beginner:
     2:
     0.123189,0.226359,0.022398,0.000000,0.000000,77.000000,75.000000,2.000000,0.000000,0.000000,0.000000,0.123189,0.226359,0.022398,0.000000,0.000000,77.000000,75.000000,2.000000,0.000000,0.000000,0.000000:
0000
0000
0000
0000
,
0000
0000
0000
0000
,
0000
0000
0000
0000
,
0000
0000
0000
0000
,
0000
0000
0000
0000
,
0000
0000
0000
0000
,
0000
0000
0000
0000
,
0000
0000
0000
0000
,
0000
0000
0000
0000
,
0000
0000
0000
0000
,
1000
0000
0000
0000
,
0010
0000
0000
0000
,
1000
0000
0000
0000
,
0000
0000
0000
0000
,
0001
0000
0000
0000
,
0010
0000
0000
0000
,
0001
0000
0000
0000
,
0000
0000
0001
0000
,
0001
0000
1000
0000
,
1000
0000
0100
0000
,
0100
0000
0010
0000
,
0010
0000
0001
0000
,
0001
0000
0100
0000
,
0100
0000
0000
0000
,
0010
0000
0010
0000
,
0100
0100
0100
0000
,
1001
0000
0000
0000
,
0010
0000
0000
0000
,
1000
0000
0000
0000
,
0001
0001
0001
0000
,
1000
0000
0000
0000
,
0100
0000
0000
0000
,
0010
0000
0000
0010
,
0000
0000
0010
0000
,
0001
0000
0000
0000
,
1000
0000
0010
0000
,
0010
0000
0000
0000
,
0100
0100
0100
0000
,
0001
0000
0001
0000
,
1000
0000
1000
0000
,
0100
0000
0000
0100
,
0000
0000
0010
0000
,
0110
0000
0000
0100
,
0000
0000
1000
0000
,
0001
0000
0000
0001
,
0000
0000
0010
0000
,
0100
0000
0000
0100
,
0000
0000
1000
0000
,
0001
0000
0000
0001
,
0000
0000
0010
0000
,
0100
0100
0000
0100
,
0000
0000
0010
0000
,
0001
0000
0000
0000
,
1000
0000
0010
0000
,
1000
1000
0000
1000
,
0000
0000
0001
0000
,
0010
0000
0000
0010
,
0000
0000
0100
0100
;
