#VERSION:0.83;
#TITLE:Logan Square;
#SUBTITLE:;
#ARTIST:Sleep On It;
#TITLETRANSLIT:;
#SUBTITLETRANSLIT:;
#ARTISTTRANSLIT:;
#GENRE:;
#ORIGIN:;
#CREDIT:;
#BANNER:Logan Square.png;
#BACKGROUND:Logan Square-bg.png;
#PREVIEWVID:;
#JACKET:Logan Square-jacket.png;
#CDIMAGE:;
#DISCIMAGE:;
#LYRICSPATH:;
#CDTITLE:;
#MUSIC:Logan Square.ogg;
#OFFSET:0.191935;
#SAMPLESTART:42.537975;
#SAMPLELENGTH:10.847458;
#SELECTABLE:YES;
#BPMS:0.000=174.000,
122.000=177.000,
188.000=173.000,
252.000=177.000;
#STOPS:;
#DELAYS:;
#WARPS:;
#TIMESIGNATURES:0.000=4=4;
#TICKCOUNTS:0.000=4;
#COMBOS:0.000=1;
#SPEEDS:0.000=1.000=0.000=0;
#SCROLLS:0.000=1.000;
#FAKES:;
#LABELS:0.000=Song Start;
#BGCHANGES:;
#KEYSOUNDS:;
#ATTACKS:
;

//---------------dance-single - ----------------
#NOTEDATA:;
#CHARTNAME:;
#STEPSTYPE:dance-single;
#DESCRIPTION:;
#CHARTSTYLE:;
#DIFFICULTY:Challenge;
#METER:16;
#RADARVALUES:0.689304,0.933113,0.322226,0.041311,0.177638,584.000000,545.000000,39.000000,5.000000,0.000000,0.000000,0.000000,0.000000,0.000000,0.689304,0.933113,0.322226,0.041311,0.177638,584.000000,545.000000,39.000000,5.000000,0.000000,0.000000,0.000000,0.000000,0.000000;
#CREDIT:Daniel Van Eden;
#NOTES:
// measure 0
0000
0000
0000
0000
,  // measure 1
0000
0000
0000
0000
,  // measure 2
0000
0000
0000
0000
,  // measure 3
0000
0000
0000
0000
,  // measure 4
0000
0000
0000
0000
,  // measure 5
0000
0000
0000
0000
,  // measure 6
0000
0000
0000
0000
,  // measure 7
0000
0000
0000
0000
,  // measure 8
0000
0000
0000
0000
,  // measure 9
1001
0000
1000
0000
0100
0000
1000
0001
0010
0000
0001
0000
1000
0000
0010
0000
,  // measure 10
0100
0010
1000
0001
0010
1000
0010
0001
,  // measure 11
1000
0000
0001
0000
0100
0000
0001
1000
0010
0000
1000
0000
0001
0000
0010
0000
,  // measure 12
0100
0000
0010
0000
0001
0000
1000
0000
0001
0100
0001
0100
0010
1000
0001
0010
,  // measure 13
0100
0000
0100
0000
0010
0000
0001
0100
0001
0000
1000
0000
0001
0000
0100
0000
,  // measure 14
0010
1000
0001
1000
0100
0001
0100
1000
,  // measure 15
0010
0000
0010
0000
0100
0000
0010
1000
0010
0000
1000
0000
0001
0000
1000
0000
,  // measure 16
0100
0001
1000
0010
0001
0010
1000
0010
,  // measure 17
0001
0000
1000
0010
1000
0000
0001
0010
0001
0000
1000
0000
0100
0000
1000
0000
,  // measure 18
0001
0010
0100
1000
0010
0001
0010
1000
,  // measure 19
0001
0000
0100
0000
0001
0000
1000
0010
1000
0000
0001
0000
0010
0000
0001
0000
,  // measure 20
1000
0000
0100
0000
0010
0000
0001
0000
1000
0001
0100
0010
1000
0001
1000
0100
,  // measure 21
0010
0010
0001
1000
0000
1000
0010
0100
,  // measure 22
0000
0100
0001
1000
0001
0010
0100
1000
,  // measure 23
0010
0010
1000
0001
0000
0001
0010
0100
,  // measure 24
0000
0100
0010
0001
0100
1000
0100
0001
,  // measure 25
1000
0010
0100
0000
0010
0100
0001
0010
,  // measure 26
1000
0010
0001
1000
0010
1000
0001
0100
,  // measure 27
0001
0010
0100
0000
0010
0100
1000
0010
,  // measure 28
0100
0000
0010
0000
1000
0000
0100
0000
0010
0000
0001
1000
0001
1000
0100
0010
,  // measure 29
0002
0000
0000
0000
,  // measure 30
0000
0000
0003
0000
1001
0010
1001
0000
,  // measure 31
0101
0000
0100
0001
0000
0001
1000
0000
,  // measure 32
0010
1000
0001
0000
1000
1000
0100
0000
,  // measure 33
0011
0001
1000
0010
0000
0010
0100
0000
,  // measure 34
0010
1000
0001
0000
0010
0010
0001
1000
,  // measure 35
0100
0100
1000
0001
0000
0100
0001
0000
,  // measure 36
1000
0010
0100
0000
0010
0010
0100
0010
,  // measure 37
1000
0001
0101
0000
0001
1000
1010
0010
,  // measure 38
0000
0000
0010
0000
1000
0000
0001
0000
0010
0100
0010
0100
1000
0001
1000
0001
,  // measure 39
1000
1000
0001
0010
0000
0010
0100
0000
,  // measure 40
0010
0001
1000
0000
0010
0010
1000
0000
,  // measure 41
1100
1000
0001
0010
0000
0010
0100
0000
,  // measure 42
0010
0001
1000
0010
1000
0001
0001
1000
,  // measure 43
0100
0100
0010
0001
0000
0001
1000
0000
,  // measure 44
0100
1000
0010
0000
0100
0100
0010
1000
,  // measure 45
0001
1000
1010
0000
1000
0001
0101
0100
,  // measure 46
0000
0100
0001
1000
0001
1000
0100
0100
,  // measure 47
0000
0000
0000
0000
,  // measure 48
0000
0000
0000
0000
,  // measure 49
1000
0100
0000
0100
0001
0000
0000
0001
,  // measure 50
0000
0100
1000
0001
0100
0000
0010
0000
,  // measure 51
0101
0100
0000
0100
1000
0000
0100
0000
,  // measure 52
0100
0001
1000
0100
0010
0000
0001
0000
,  // measure 53
0011
0010
0000
0001
1001
0000
1000
0010
,  // measure 54
0000
0000
0001
0000
0010
0000
1000
0100
0010
0000
0000
0001
0000
0000
1000
0000
,  // measure 55
1001
0001
0010
0100
1100
0000
1000
0000
,  // measure 56
1000
0010
0001
0010
1000
0000
0001
0000
,  // measure 57
1100
1000
0100
0010
0011
0000
0001
1000
,  // measure 58
0010
0000
0100
0000
0100
0000
0010
0000
1000
0000
0001
0010
0100
1000
0010
0100
,  // measure 59
0001
0100
0010
0100
0001
0100
1000
0100
,  // measure 60
0001
0010
0100
0010
0001
0010
1000
0010
,  // measure 61
0001
1000
0100
1000
0010
0100
0001
1000
,  // measure 62
0100
0000
0010
0000
0010
0000
0100
0000
1000
0001
0100
0010
1000
0001
1000
0001
,  // measure 63
2000
0000
0000
0100
0000
0000
0200
0000
,  // measure 64
0000
0000
3300
0000
,  // measure 65
0002
0000
0000
0100
0000
0000
0200
0000
,  // measure 66
0000
0000
0303
0000
,  // measure 67
0100
0100
0010
0100
0000
0100
1000
0000
,  // measure 68
0000
0100
0010
0000
0100
0100
0001
0100
,  // measure 69
0001
0010
1000
0010
0001
1000
0010
1000
,  // measure 70
0100
1000
0100
1000
0100
0010
0100
0010
0001
0010
0100
1000
0001
1000
0010
0100
,  // measure 71
0001
0001
0010
1000
0010
0001
0011
0000
,  // measure 72
0001
1000
1100
0000
0100
0100
1000
0001
,  // measure 73
1000
1000
0100
0001
0100
1000
1010
0000
,  // measure 74
0010
1000
0001
0010
1000
0001
0100
1000
,  // measure 75
0001
0001
0100
1000
0100
0001
0101
0000
,  // measure 76
0100
0010
1010
0000
1000
1000
0001
0010
,  // measure 77
0100
0001
0100
1000
0010
0001
0010
1000
,  // measure 78
1001
0000
0001
0010
0100
0000
1000
0000
1010
0000
0010
0000
0110
0000
0100
0000
,  // measure 79
0000
1010
0010
1000
0001
0010
0100
0110
,  // measure 80
0000
0011
0010
0001
1000
0010
0100
0101
,  // measure 81
0000
0110
0010
1000
0001
0010
0100
1100
,  // measure 82
0000
0000
1001
0000
1000
0000
0010
0000
0100
0000
0001
1000
0001
1000
0001
0000
,  // measure 83
0000
0101
0100
0010
1000
0001
0010
0110
,  // measure 84
0000
1100
1000
0010
0100
0001
0010
0011
,  // measure 85
0000
1001
0001
0010
0100
1000
0010
0110
,  // measure 86
0000
0000
0010
1000
0001
0000
0010
0000
0100
0000
1000
0000
0001
0000
1001
0000
;

//---------------dance-single - ----------------
#NOTEDATA:;
#CHARTNAME:;
#STEPSTYPE:dance-single;
#DESCRIPTION:;
#CHARTSTYLE:;
#DIFFICULTY:Hard;
#METER:14;
#RADARVALUES:0.577174,0.753668,0.049573,0.008262,0.086753,489.000000,483.000000,6.000000,1.000000,0.000000,0.000000,0.000000,0.000000,0.000000,0.577174,0.753668,0.049573,0.008262,0.086753,489.000000,483.000000,6.000000,1.000000,0.000000,0.000000,0.000000,0.000000,0.000000;
#CREDIT:Daniel Van Eden;
#NOTES:
0000
0000
0000
0000
,
0000
0000
0000
0000
,
0000
0000
0000
0000
,
0000
0000
0000
0000
,
0000
0000
0000
0000
,
0000
0000
0000
0000
,
0000
0000
0000
0000
,
0000
0000
0000
0000
,
0000
0000
0000
0000
,
1000
1000
0010
0000
0000
1000
0010
1000
,
0100
0010
0001
1000
0001
0100
0010
0100
,
0001
0000
0011
0000
0000
0001
0010
0001
,
0100
0000
0010
0000
1000
0000
0001
0000
1000
0000
0100
0000
0010
0000
0001
1000
,
0001
0000
1000
0010
0000
0010
1000
0100
,
0000
0010
0001
1000
0000
0001
0100
0010
,
1000
0100
1000
0001
0000
0010
0001
0100
,
0000
0010
1000
0001
1000
0100
0010
0001
,
0001
0000
1010
0000
1000
0001
0100
0001
,
1000
0001
0010
0100
0010
0001
1000
0010
,
0100
0000
0001
0100
0000
0010
0100
0001
,
1000
0000
0001
0000
0010
0000
0100
0000
1000
0100
0010
0000
0001
0000
1000
0001
,
1000
0100
1000
0001
0000
0001
0100
0010
,
0000
0010
0100
0000
0001
1000
0010
1000
,
0001
0100
0001
1000
0000
1000
0100
0010
,
0000
0010
0100
1000
0001
0010
0001
1000
,
0010
1000
0100
0000
0010
0100
1000
0001
,
0000
0001
0100
0000
0010
1000
0001
0000
,
1000
0000
0011
0000
0001
1000
0100
1000
,
0000
0000
1000
0000
0100
0000
0010
0000
0100
0000
1000
0010
1000
0000
0001
0100
,
0001
0000
0000
0000
,
0000
0000
1001
1001
,
0001
0000
0010
0100
0000
0100
0010
0000
,
0001
1000
0010
0000
0100
0010
1000
0000
,
0001
1000
0010
0100
0000
0100
0010
0000
,
1000
0001
0010
0000
0100
0010
0001
1000
,
0001
1000
0001
0100
0000
0100
0010
0000
,
1000
0001
0010
0000
0100
0010
0001
0010
,
0100
1000
0001
0000
0001
0100
0010
1000
,
0000
0000
1000
0000
0001
0000
0010
0000
0001
0010
0001
0010
0100
1000
0100
1000
,
0001
0100
0001
1000
0000
1000
0010
0000
,
0100
0001
1000
0000
0100
0010
0001
0000
,
1000
0100
1000
0001
0000
0001
0010
0000
,
0001
1000
0010
0100
0010
1000
0001
1000
,
0100
0010
0100
1000
0000
1000
0010
0000
,
0100
0001
1000
0000
0001
1000
0010
1000
,
0001
0010
0001
0000
1000
0100
1000
0001
,
0000
1000
0010
1000
0001
1000
0001
0001
,
0000
0000
0000
0000
,
0000
0000
0000
0000
,
1000
1000
0000
1000
0010
0000
0000
0010
,
0000
1000
0010
0100
0001
0000
1000
0000
,
0001
0001
0000
0001
0010
0000
0001
0000
,
0001
1000
0100
0010
0001
0000
1000
0000
,
0100
0100
0000
0100
0010
0000
0000
0010
,
0000
0000
0001
0000
0010
0000
0100
0000
1000
0000
0000
0001
0000
0000
1000
0000
,
0010
1000
0100
1000
0010
0000
0100
0000
,
0100
0001
1000
0001
0010
0000
0100
0000
,
0010
0001
0100
0001
1000
0000
0001
1000
,
0000
0010
1000
0001
0010
0000
0100
0000
,
1000
0010
0100
0010
1000
0010
0100
0000
,
0001
0010
0100
0010
0001
0010
0100
0000
,
1000
0100
0010
0100
1000
0100
0010
0001
,
0000
0000
0001
0000
1000
0000
0010
0000
0100
0000
0010
1000
0001
1000
0001
1000
,
0002
0000
0000
0000
,
0000
0000
0000
0000
,
0003
0000
0000
0000
,
0000
0000
0000
0000
,
0001
1000
0100
1000
0000
1000
0001
0000
,
0000
1000
0001
0000
0100
0001
1000
0001
,
1000
0100
0010
0001
1000
0001
0100
0010
,
1000
0010
1000
0000
0100
0000
0010
0001
0010
0000
0001
0000
1000
0100
0010
0001
,
1000
0001
1000
0010
0000
0010
0100
0000
,
0010
0100
0001
0000
1000
0001
0010
0000
,
0001
1000
0001
0010
0000
0010
0100
0000
,
0010
0100
1000
0001
1000
0100
0010
0001
,
1000
0010
1000
0001
0000
0001
0100
0000
,
0010
1000
0001
0000
1000
0100
0010
0001
,
1000
0000
1001
0000
0001
0100
0001
1000
,
0001
0000
0010
0100
1000
0000
0001
0000
0100
0000
0010
0000
0100
0000
0010
0000
,
0000
0010
1000
0010
0100
0010
0100
0001
,
0000
0001
1000
0001
1000
0100
0010
0100
,
0000
0100
1000
0100
0010
0100
0010
0001
,
0000
0000
0001
0000
1000
0000
0001
0000
0100
0000
0010
0100
0010
0100
0010
0000
,
0000
0100
0001
0100
0010
0100
0010
1000
,
0000
1000
0001
1000
0001
0010
0100
0010
,
0000
0010
0001
0010
0100
0010
0100
1000
,
0000
0000
0001
0100
0010
0000
1000
0000
0001
0000
1000
0000
0100
0000
0010
0000
;
