#VERSION:0.83;
#TITLE:Lightyear;
#SUBTITLE:;
#ARTIST:Vective;
#TITLETRANSLIT:;
#SUBTITLETRANSLIT:;
#ARTISTTRANSLIT:;
#GENRE:;
#ORIGIN:;
#CREDIT:darkanine;
#BANNER:Lightyear.png;
#BACKGROUND:Lightyear-bg.png;
#PREVIEWVID:;
#JACKET:Lightyear-jacket.png;
#CDIMAGE:;
#DISCIMAGE:;
#LYRICSPATH:;
#CDTITLE:;
#MUSIC:Lightyear.ogg;
#OFFSET:0.000000;
#SAMPLESTART:26.740000;
#SAMPLELENGTH:35.675674;
#SELECTABLE:YES;
#BPMS:0.000=148.000;
#STOPS:;
#DELAYS:;
#WARPS:;
#TIMESIGNATURES:0.000=4=4;
#TICKCOUNTS:0.000=4;
#COMBOS:0.000=1;
#SPEEDS:0.000=1.000=0.000=0;
#SCROLLS:0.000=1.000;
#FAKES:;
#LABELS:0.000=Song Start;
#BGCHANGES:;
#KEYSOUNDS:;
#ATTACKS:
;

//---------------dance-single - ----------------
#NOTEDATA:;
#CHARTNAME:;
#STEPSTYPE:dance-single;
#DESCRIPTION:;
#CHARTSTYLE:;
#DIFFICULTY:Hard;
#METER:14;
#RADARVALUES:0.454582,0.631414,0.065901,0.498964,0.235361,338.000000,331.000000,7.000000,53.000000,0.000000,0.000000,0.000000,0.000000,0.000000,0.454582,0.631414,0.065901,0.498964,0.235361,338.000000,331.000000,7.000000,53.000000,0.000000,0.000000,0.000000,0.000000,0.000000;
#CREDIT:;
#NOTES:
0000
0000
0000
0000
,
0000
0000
0000
0000
,
0000
0000
0000
0000
,
0000
0000
0000
0000
,
0000
0000
0000
0001
,
1000
0100
0001
0100
1000
0100
0001
0000
,
1000
0010
0001
0010
1000
0010
0100
0000
,
0001
0100
1000
0100
0001
0100
1000
0000
,
0000
0100
0000
0100
,
1001
0001
0100
0100
1000
1000
0100
0001
,
1000
1000
0010
0010
0001
0001
0010
1000
,
0001
0001
0010
0010
1000
1000
0010
0001
,
1000
0000
1000
0000
0100
0000
0100
0000
0001
0000
0000
0100
0000
0000
0000
0000
,
1000
0001
0000
0100
0000
0010
0000
0000
1000
0001
0000
0010
0000
0000
0100
0000
,
1000
0000
0000
0010
0000
0100
0000
0000
0001
0000
0000
0010
0100
0000
1000
0000
,
0001
0000
0100
0000
0001
0000
0000
0000
0020
0000
0000
0000
0000
0000
0000
0000
0130
0000
1000
0000
0100
0000
0000
0000
0010
0000
0000
0100
0000
0000
1000
0000
,
0000
1001
0000
0000
0000
0000
0000
0000
1000
0002
0100
0000
0000
0000
0023
0000
,
0000
0000
0000
0000
,
0000
0000
0000
0000
0000
0000
0000
0000
0130
2000
0001
0000
0000
0000
3020
0000
,
0000
0000
0000
0000
,
0000
0000
0000
0000
0000
0000
0000
0000
1030
0200
0001
0000
0000
0000
0320
0000
,
0000
0000
0000
0000
0000
0000
0000
2030
,
0000
0000
0000
0000
3000
0000
1000
0000
0010
0002
1000
0000
0000
0000
0203
0000
,
0000
0000
0000
0000
,
0000
0000
0000
0000
0000
0000
0000
0000
0301
2000
0010
0000
0000
0000
3002
0000
,
0100
1000
0100
1000
,
0100
0000
0000
0000
1000
0000
0000
0000
0013
0200
1000
0000
0000
0000
0320
0000
,
0100
1000
0100
1000
,
0100
0000
0000
0000
1000
0000
0000
0000
0130
2000
0001
0000
0000
0000
3020
0000
,
0100
0000
1000
0000
0100
0000
1030
0200
,
1000
0000
0010
0000
0301
0100
1000
0100
,
0010
0000
0000
0000
0000
0000
0100
0000
0010
0100
1000
0000
0000
0000
0110
0000
,
0000
0000
1001
0000
0010
0100
0000
0100
,
2002
0000
3000
2000
0000
0000
0003
0002
,
0003
0000
0002
0000
0000
0000
0000
0000
0003
0000
0002
3000
0000
2000
0003
0000
,
0002
0000
0003
0002
0000
0000
3000
2000
,
3000
0000
2000
0000
0000
0000
0000
0000
0003
0000
3001
0000
1000
0001
1000
0000
,
0010
0000
1000
0000
0010
0000
0010
0100
0001
0000
0010
0000
0001
0010
0000
0100
,
1000
0000
0010
0000
0001
0000
0010
1000
0001
0000
0001
0000
0010
0000
0100
1000
,
0002
0100
1000
0010
1000
0100
0013
0001
,
0000
0000
0000
0000
0000
0000
0000
0000
1000
0002
0100
0000
0000
0000
0023
0000
,
0001
0000
1000
0000
0001
0000
0130
0020
,
0100
0000
0000
0000
1000
0000
0000
0000
0130
2000
0001
0000
0000
0000
3020
0000
,
1000
0000
0001
0000
1000
0000
0130
0020
,
0100
0000
0000
0000
0001
0000
0000
0000
1030
0002
0010
0000
0000
0000
2003
0000
,
0100
0000
0010
0000
0001
3000
0100
0020
,
0100
0000
0000
0000
1030
0000
0010
0000
0001
2000
0010
0000
0000
0000
3200
0000
,
1000
0000
0001
0000
1000
0000
0310
0200
,
0010
0000
0000
0000
0001
0000
0000
0000
1300
0002
0010
0000
0000
0000
2003
0000
,
0100
0000
0010
0000
0100
0000
3010
2000
,
0001
0000
0000
0000
0001
0000
0000
0000
3100
0020
0001
0000
0000
0000
2030
0000
,
0010
0000
0001
0000
0010
0000
3001
2000
,
0010
0000
0000
0000
0010
0000
0000
0000
3010
0200
1000
0000
0000
0000
0302
0000
,
0100
0000
1000
0000
0100
0003
0100
2000
,
0100
0000
0000
0000
3001
0000
0010
0000
0010
0200
1000
0000
0000
0000
0320
0000
,
0100
0001
1000
0001
,
0100
1000
0031
1001
,
1000
0000
0000
1000
0010
0000
0000
0000
0100
0000
0000
0100
0001
0000
1000
0000
,
0001
0000
0000
0001
0010
0000
0000
0000
0100
0000
0000
0110
0000
0000
0010
0000
,
0001
0000
0000
0001
0100
0000
0000
0000
0010
0000
0000
0010
1000
0000
0001
0000
,
1000
0000
0000
0000
0100
0000
0000
0100
0010
0000
0010
0100
0000
0100
1000
0000
,
0001
0000
0100
0000
0001
0000
0100
0001
1000
0000
0100
0000
1000
0100
0000
0010
,
0001
0000
0010
0000
0001
0000
0010
0100
1000
0000
0010
0000
1000
0000
0020
0000
,
0100
0001
0100
1000
0001
0100
1030
0010
;

//---------------dance-single - ----------------
#NOTEDATA:;
#CHARTNAME:;
#STEPSTYPE:dance-single;
#DESCRIPTION:;
#CHARTSTYLE:;
#DIFFICULTY:Medium;
#METER:9;
#RADARVALUES:0.364473,0.511144,0.075315,0.414235,0.056487,271.000000,263.000000,8.000000,44.000000,0.000000,0.000000,0.000000,0.000000,0.000000,0.364473,0.511144,0.075315,0.414235,0.056487,271.000000,263.000000,8.000000,44.000000,0.000000,0.000000,0.000000,0.000000,0.000000;
#CREDIT:;
#NOTES:
// measure 0
0000
0000
0000
0000
,  // measure 1
0000
0000
0000
0000
,  // measure 2
0000
0000
0000
0000
,  // measure 3
0000
0000
0000
0000
,  // measure 4
0000
0000
0000
1000
,  // measure 5
0001
0100
1000
0000
1000
0100
0001
0000
,  // measure 6
0001
0010
1000
0000
1000
0010
0100
0000
,  // measure 7
1000
0100
0001
0000
0001
0100
0010
0000
,  // measure 8
0000
0100
0000
0100
,  // measure 9
1001
0000
0100
0000
0001
0000
0100
1000
,  // measure 10
0001
0000
0010
0000
1000
0000
0010
0001
,  // measure 11
1000
0000
0010
0000
0001
0000
0010
1000
,  // measure 12
0001
0000
0000
0000
0100
0000
0000
0000
1000
0000
0000
1000
0000
0000
0000
0000
,  // measure 13
0001
0000
0000
0100
0000
0010
0000
0000
1000
0000
0000
0010
0000
0000
0100
0000
,  // measure 14
0001
0000
0000
0010
0000
0100
0000
0000
1000
0000
0000
0010
0000
0000
0100
0000
,  // measure 15
0001
0000
1000
0000
0020
0000
0000
0000
0130
0000
0001
0000
0010
0000
0000
0100
,  // measure 16
0000
0100
0000
0000
0000
0000
0000
0000
0001
0000
0200
0000
0000
0000
0320
0000
,  // measure 17
0000
0000
0000
0000
,  // measure 18
0000
0000
0000
0000
0130
0002
0000
0023
,  // measure 19
0000
0000
0000
0000
,  // measure 20
0000
0000
0000
0000
0031
0200
0000
0320
,  // measure 21
0000
0000
0000
0000
0000
0000
0000
0032
,  // measure 22
0000
0000
0003
0001
0010
2000
0000
3200
,  // measure 23
0000
0000
0000
0000
,  // measure 24
0000
0000
0000
0000
1300
0020
0000
2030
,  // measure 25
0000
0001
0000
0001
,  // measure 26
0000
0000
0001
0000
3010
0200
0000
0320
,  // measure 27
0000
1000
0000
1000
,  // measure 28
0000
0000
1000
0000
0130
0002
0000
0023
,  // measure 29
0000
0000
0100
0000
0000
0000
0130
2000
,  // measure 30
0000
0000
0000
3100
0100
0002
0000
0103
,  // measure 31
1000
0000
0000
0100
0101
0001
0000
0110
,  // measure 32
0000
0000
1001
0000
0010
0001
0000
0001
,  // measure 33
2000
0000
0000
3002
0000
0000
0000
1003
,  // measure 34
0000
0000
2000
0000
0000
0000
0000
0000
3000
0000
2000
0000
0000
3002
0000
0000
,  // measure 35
2003
0000
0000
3002
0000
0000
0000
1003
,  // measure 36
0000
2000
0000
0000
0000
3001
1000
0001
,  // measure 37
0010
0001
0010
0100
1000
0010
1000
0000
,  // measure 38
0001
0010
0100
0010
1000
0010
0001
0100
,  // measure 39
1000
0100
0001
0010
1000
0010
0100
1000
,  // measure 40
0000
0000
0000
0000
0001
0200
0000
0320
,  // measure 41
1000
0100
1000
0100
,  // measure 42
1000
0000
1000
0000
0130
0002
0000
0023
,  // measure 43
0001
0100
0001
0100
,  // measure 44
0001
0000
0001
0000
0130
2000
0000
3002
,  // measure 45
0100
0000
0010
0000
0100
0003
0100
0020
,  // measure 46
0100
0000
0031
0010
1000
0020
0000
0230
,  // measure 47
0001
0000
1000
0000
0001
0000
0310
0200
,  // measure 48
0010
0000
1000
0000
0301
0020
0000
0032
,  // measure 49
0100
0010
0100
0010
,  // measure 50
1000
0000
1000
0000
0103
2000
0000
3002
,  // measure 51
0010
1000
0010
1000
,  // measure 52
0010
0000
0010
0000
0013
0200
0000
2300
,  // measure 53
0100
0000
0001
0000
0100
3000
0100
0002
,  // measure 54
0100
0000
1003
0010
0010
0100
0000
0200
,  // measure 55
0000
1000
0001
1000
,  // measure 56
0010
0001
0310
1001
,  // measure 57
0001
0000
1010
0000
0100
0000
1000
0001
,  // measure 58
1000
0000
0000
0000
0011
0000
0000
0000
1000
0000
0000
0010
0000
0000
0010
0000
,  // measure 59
1000
0000
0110
0000
0010
0000
0001
1000
,  // measure 60
0001
0000
0000
0000
0100
0000
0000
0000
0010
0000
0000
1000
0000
0000
0001
0000
,  // measure 61
1000
0100
1000
0010
0100
0001
0100
0010
,  // measure 62
1000
0010
1000
0010
0001
0010
0001
0010
,  // measure 63
0100
1000
0100
0001
1000
0100
0001
1000
;
