#TITLE:Level 2;
#SUBTITLE:;
#ARTIST:Yamato;
#TITLETRANSLIT:;
#SUBTITLETRANSLIT:;
#ARTISTTRANSLIT:;
#GENRE:BIGBEAT / DUBSTEP;
#CREDIT:;
#BANNER:;
#BACKGROUND:;
#LYRICSPATH:;
#CDTITLE:;
#MUSIC:Level 2.ogg;
#OFFSET:1.180000;
#SAMPLESTART:13.179998;
#SAMPLELENGTH:19.199999;
#LASTBEATHINT:0.430000;
#SELECTABLE:YES;
#BPMS:0.000000=150.000000
,98.000000=75.000000
,99.000000=150.000000
,100.000000=75.000000
,101.000000=150.000000
,104.000000=75.000000
,105.000000=150.000000
,111.000000=75.000000
,112.000000=150.000000
,113.000000=75.000000
,114.000000=150.000000
,117.000000=75.000000
,118.000000=150.000000
,124.000000=75.000000
,125.000000=150.000000
,126.000000=75.000000
,127.000000=150.000000
,130.000000=75.000000
,131.000000=150.000000
,137.000000=75.000000
,138.000000=150.000000
,139.000000=75.000000
,140.000000=150.000000
,143.000000=75.000000
,144.000000=150.000000
,212.000000=75.000000
,213.000000=150.000000
;
#STOPS:96.000000=0.800000
;
#BGCHANGES:3.000=Level 2.avi=1.000=1=0=1===CrossFade==,
99999=-nosongbg-=1.000=0=0=0 // don't automatically add -songbackground-
;
#KEYSOUNDS:;
#ATTACKS:;

//---------------dance-single - ----------------
#NOTES:
     dance-single:
     :
     Hard:
     15:
     0.722495,0.822972,0.206259,0.255761,0.738406,613.000000,588.000000,25.000000,31.000000,0.000000,0.000000,0.722495,0.822972,0.206259,0.255761,0.738406,613.000000,588.000000,25.000000,31.000000,0.000000,0.000000:
// measure 0
0000
0000
0000
0000
,  // measure 1
0000
0000
0000
0000
,  // measure 2
0000
0000
0000
0000
,  // measure 3
0000
0000
0000
0000
,  // measure 4
0000
0000
0000
0000
,  // measure 5
1000
0001
0040
0000
0130
1000
0004
0000
,  // measure 6
0103
0000
0010
0000
4000
0000
0000
0000
3100
0010
0001
0010
0100
0010
0001
1000
,  // measure 7
0010
0000
1000
0000
0001
1000
0001
1000
0020
0000
0130
0001
0100
0001
0100
0001
,  // measure 8
0010
0100
1000
0000
0100
0000
0010
0000
0004
0000
0000
0000
0003
0000
0000
0000
,  // measure 9
1010
0000
0000
0001
0100
0000
0000
0001
0010
0000
0100
0010
0000
0001
1000
0000
,  // measure 10
0000
0000
0100
0000
1000
0010
0000
0100
0010
0000
1000
0010
0000
0100
0010
0000
,  // measure 11
0101
0000
0000
0010
0001
0000
0000
0010
0100
0000
1000
0100
0000
0010
0001
0000
,  // measure 12
0000
0000
0100
0000
0001
0010
0000
0100
0010
0000
0001
0100
0000
0001
0010
0000
,  // measure 13
1100
0000
0000
0100
0010
0000
0000
0100
1000
0000
0010
0100
0000
0001
1000
0000
,  // measure 14
0000
0000
0001
0000
1000
0010
0000
1000
0001
0000
0010
0001
0000
1000
0010
0000
,  // measure 15
0110
0000
0000
1000
0010
0000
0000
0100
0001
0000
0010
0100
0000
0010
0001
0000
,  // measure 16
1000
0000
1000
0000
0001
0010
0001
0010
0100
1000
0010
0100
0002
0000
0000
0000
,  // measure 17
0013
0000
0000
0010
0100
0000
0000
0100
1000
0000
0000
1000
0100
0000
0010
0000
,  // measure 18
0001
0000
0000
0001
0100
0000
0000
0100
0010
0000
0000
0100
0001
0000
0010
0000
,  // measure 19
0100
0000
0000
1000
0100
0000
0000
0100
0010
0000
0000
0100
1000
0000
0001
0000
,  // measure 20
0100
0000
0000
0010
1000
0000
0000
1000
0001
0000
0000
0001
0010
0000
0100
0000
,  // measure 21
1000
1000
0001
0010
0100
0100
0010
0001
,  // measure 22
1000
1000
0010
0100
0001
0001
1000
0100
,  // measure 23
1000
0001
1000
0001
1000
0001
1000
0001
1000
0001
1000
0001
1000
0001
1000
0001
,  // measure 24
1000
0000
1001
0010
1002
0000
0103
0000
,  // measure 25
2001
0000
3100
0000
1000
0010
0110
0000
,  // measure 26
0102
0000
0000
0010
0013
0000
0100
0000
0010
0000
0001
0000
1000
0000
0010
0000
,  // measure 27
0002
0000
0023
0000
0130
0001
0041
0000
,  // measure 28
0130
0000
2100
0000
3010
0000
0100
0010
,  // measure 29
1001
0000
1000
0000
1002
0000
0000
0010
0013
0000
0100
0000
1000
0000
0100
0000
,  // measure 30
1000
0000
0010
0100
0001
0100
0010
0000
2000
0000
0000
0000
3001
0000
1000
0000
,  // measure 31
1002
0103
0120
1030
,  // measure 32
0100
0000
0010
0000
0100
0000
1000
0000
1002
0000
0000
0010
0013
0000
0100
0000
,  // measure 33
0010
0001
1000
0001
0200
0000
0310
1000
,  // measure 34
0010
1000
0401
0000
0310
0000
2001
0000
,  // measure 35
3100
0000
0000
0000
0010
0000
0001
0000
1001
0000
0001
0000
0012
0000
0000
1000
,  // measure 36
1003
0000
0100
0000
0010
0000
0100
0000
1000
0000
0001
0100
0010
0100
0001
0000
,  // measure 37
2000
0000
3001
1000
0010
0010
1000
0010
,  // measure 38
0010
1000
0010
0010
1000
0010
0010
1000
,  // measure 39
0010
0010
0200
0000
0301
0001
0010
0001
,  // measure 40
0001
0010
0001
0001
0010
0001
0001
0010
,  // measure 41
0001
0000
0001
0000
2000
0000
0000
0000
3001
0000
1000
0100
0010
0000
0001
0000
,  // measure 42
1000
0000
1000
0000
0010
0000
1000
0000
0001
0000
1000
0100
0010
0000
0001
0000
,  // measure 43
0010
0000
0010
0000
0200
0000
0000
0000
1300
0000
0001
0010
0100
0000
1000
0000
,  // measure 44
0100
0000
0100
0000
1000
0000
0001
0000
1000
0000
0001
0010
0100
0000
1000
0000
,  // measure 45
0100
0000
0100
0000
0020
0000
0000
0000
0031
0000
1000
0001
0000
1000
0010
0000
,  // measure 46
1000
0000
0001
0010
0000
0001
1000
0000
0001
0000
1000
0010
0000
1000
0001
0000
,  // measure 47
1000
0000
0001
0010
0200
0000
0000
0000
1300
0000
0001
1000
0000
0001
0100
0000
,  // measure 48
0001
0000
1000
0100
0000
1000
0001
0000
1000
0000
0001
0100
0000
0001
1000
0000
,  // measure 49
0001
0000
1000
0100
0020
0000
0000
0000
0130
0000
1000
0010
0000
0100
0010
0000
,  // measure 50
0100
0000
0010
1000
0000
0100
0010
0000
0100
0000
1000
0010
0000
0100
0010
0000
,  // measure 51
1000
0000
0100
0010
0002
0000
0000
0000
1003
0000
0000
0001
0100
0000
0000
0010
,  // measure 52
1000
0000
0000
0001
0100
0000
0000
0010
1000
0001
1000
0001
0100
0010
0100
0010
,  // measure 53
1000
0000
0000
1000
0000
0000
1000
0000
0011
0000
0000
0000
0010
0000
0100
0000
0000
0000
0100
0000
1000
0000
0100
0000
1000
0000
0100
0000
0000
0000
1000
0000
,  // measure 54
0000
0000
0001
0000
1000
0000
0001
0000
0010
0100
0010
0100
1000
0100
1000
0100
,  // measure 55
1000
0001
1000
0001
1000
0000
0010
0000
0100
0001
0100
0001
0100
0001
0000
0100
,  // measure 56
0000
0000
0010
0000
1000
0000
0100
0000
1000
0001
1000
0001
0100
0010
0100
0010
,  // measure 57
1000
0100
0010
0001
1000
0000
0000
0001
0000
0100
0010
0100
0001
0100
0000
0010
,  // measure 58
0000
0000
1000
0000
0100
0000
1000
0000
0001
0000
1000
0001
1000
0001
0010
0100
,  // measure 59
0010
0001
1000
0010
0100
0000
0000
0001
0000
0010
0100
0010
0100
0010
0000
0100
,  // measure 60
0000
0000
1000
0000
4004
0000
0000
0000
3003
0000
0000
0000
0001
1000
0100
0000
,  // measure 61
0022
0000
0000
0033
1100
0000
1000
0010
0100
0000
0100
0010
1000
0000
0001
1000
,  // measure 62
0000
0010
0100
0000
0001
1000
0001
1000
0001
0010
0001
0000
1000
0100
1000
0100
,  // measure 63
0010
0000
0000
0100
0000
0000
1000
0000
0000
0010
0000
0000
0100
0000
0000
0000
0000
0000
0000
0000
0100
0000
0000
0000
0000
0000
0000
0000
0100
0000
0000
0000
0000
0000
0000
0000
0100
0000
0000
0000
0000
0000
0000
0000
0000
0000
0000
0000
,  // measure 64
0010
0000
1000
0000
1100
0000
0000
0000
0010
0001
0010
0001
1000
0100
0010
0001
,  // measure 65
1000
0100
0010
0001
1000
0000
0001
0100
0010
0000
0010
1000
0100
0000
0010
0100
,  // measure 66
0000
1000
0010
0000
0100
0001
0100
0000
0001
0000
1000
0000
0100
0010
0100
0000
,  // measure 67
1000
0000
0000
0001
0000
0000
0010
0000
0000
0000
0010
0000
0000
0000
0010
0000
0000
0000
0010
0000
0000
0000
0000
0000
,  // measure 68
0100
0000
0010
0000
0001
0000
1000
0000
0010
0000
0100
0000
0001
1000
0010
1000
,  // measure 69
0001
0010
0100
1000
0001
0000
0000
0000
0001
0000
0000
0000
0001
0000
0000
1000
,  // measure 70
0000
0000
0001
0000
0100
0000
0010
1000
0100
1000
0010
0100
0002
0000
0000
0000
,  // measure 71
0023
0230
2300
0002
3003
0000
0000
0000
0000
0000
0000
0000
0000
0000
0000
0000
;

//---------------dance-single - ----------------
#NOTES:
     dance-single:
     :
     Medium:
     11:
     0.458484,0.529054,0.189758,0.404267,0.173257,389.000000,366.000000,23.000000,49.000000,0.000000,0.000000,0.458484,0.529054,0.189758,0.404267,0.173257,389.000000,366.000000,23.000000,49.000000,0.000000,0.000000:
0000
0000
0000
0000
,
0000
0000
0000
0000
,
0000
0000
0000
0000
,
0000
0000
0000
0000
,
0000
0000
0000
0000
,
0001
0100
0020
0000
1030
0100
0020
0000
,
0130
1000
0002
0000
1003
0100
0010
0001
,
1000
0001
0200
0000
0301
1000
0020
0000
,
1030
0010
0001
0010
0200
0000
0301
0000
,
1010
0000
0000
0000
1010
0000
0000
0000
0001
0000
0000
0010
0000
0000
0001
0000
,
0000
0000
1000
0000
0000
0001
0000
0000
0100
0000
0000
0001
0000
0000
0010
0000
,
0011
0000
0000
0000
0011
0000
0000
0000
1000
0000
0000
0100
0000
0000
0010
0000
,
0000
0000
0100
0000
0000
1000
0000
0000
0010
0000
0000
0100
0000
0000
0001
0000
,
1001
0000
0000
0000
1001
0000
0000
0000
0001
0000
0000
0010
0000
0000
0100
0000
,
0000
0000
0010
0000
0000
0001
0000
0000
0100
0000
0000
0010
0000
0000
1000
0000
,
1100
0000
0000
0000
1100
0000
0000
0000
0100
0000
0000
0010
0000
0000
0001
0000
,
0100
0100
0010
1000
0001
0001
0020
0000
,
0230
2000
3300
0000
0002
0020
0033
0000
,
0200
0002
0303
0000
2000
0020
3030
0000
,
0002
2000
3003
0000
0200
0020
0330
0000
,
2000
0200
3300
0000
0020
0002
0033
0000
,
0100
1000
0010
0000
0100
0001
0010
0000
,
0100
0010
0001
0000
0010
0100
1000
0000
,
0100
1000
0010
0100
0010
1000
0001
0010
,
0100
0000
1000
0001
0020
0000
0130
0000
,
2000
0000
3010
0000
0100
0001
1000
0000
,
0002
0000
0000
1003
0100
0000
0000
0000
0010
0000
0100
0000
1000
0000
0010
0000
,
0200
0000
0320
0000
1030
0001
2000
0000
,
3010
0000
2000
0000
3001
0000
0100
0010
,
2000
0000
0000
0000
3100
0000
0000
0010
0100
0000
0000
0000
0010
0000
0001
0000
,
0010
1000
0010
0001
1000
0000
0001
1000
,
0020
1030
0200
0310
,
0100
0000
1000
0000
0010
0000
0100
0000
0002
0000
0000
1003
0100
0000
0000
0000
,
0010
0100
0010
0001
1000
0000
0001
0000
,
0100
0010
2000
0000
3100
0000
0020
0000
,
0031
0000
0000
0000
0010
0000
1000
0000
0200
0000
0000
0000
0320
0000
0000
0130
,
1000
0000
0100
1000
0010
0100
0001
1000
,
0200
0000
0310
0001
0201
0000
0001
0000
,
0001
0001
0001
0001
,
0001
0320
2030
0100
,
0100
0100
0100
0100
,
0100
0000
3002
0000
0103
0001
0010
0000
,
0100
0010
0001
1000
,
0100
0000
2000
0000
3010
1000
0100
0000
,
0010
0001
0101
0011
,
1100
0000
0000
0000
0110
0000
0000
0000
0001
0000
0000
1000
0000
0000
0010
0000
,
0000
0000
1000
0000
0010
0000
0000
0000
0100
0000
0000
0010
0000
0000
1000
0000
,
0000
0000
0100
0000
1000
0000
0000
0000
0100
0000
0000
0010
0000
0000
0001
0000
,
0000
0000
0010
0000
0001
0000
0000
0000
0100
0000
0000
0010
0000
0000
1000
0000
,
0001
0000
0010
0000
0200
0000
0000
0000
0310
0000
0000
0001
0000
0000
0100
0000
,
0000
0000
0010
0000
0100
0000
0001
0000
1000
0000
0000
0100
0000
0000
0010
0000
,
0000
0100
1000
0001
1001
0000
1001
0000
,
1001
0000
1001
0000
1000
0010
0100
0001
,
0010
0000
0000
0010
0000
0000
0010
0000
0100
0000
0000
0000
0000
0000
1000
0000
0000
0000
0000
0000
0001
0000
0000
0000
0100
0000
0000
0000
0000
0000
0001
0000
,
0000
0010
0100
1000
0100
0010
0001
0000
,
1001
0000
0000
0000
0001
0000
0000
0100
0000
0000
0001
0000
0010
0000
0000
0100
,
0000
0000
0010
0000
0001
0000
0100
0000
0010
0000
0000
0000
0100
0000
0000
0010
,
0000
0000
1000
0000
0100
0000
0000
0010
0000
0000
0100
0000
1000
0000
0000
0001
,
0000
0100
0001
0010
0100
0010
0001
0000
,
1001
0000
0000
0000
1000
0000
0000
0010
0000
0000
1000
0000
0100
0000
0000
0010
,
0000
0100
2200
0000
3300
0000
0010
0001
,
2000
0000
0000
0000
3010
0000
0000
0000
0110
0000
0000
0000
0100
0000
0000
0001
,
0000
0000
0010
0000
0000
0000
0100
0000
0000
0010
0000
0000
0001
0000
0000
1000
,
0000
0000
0000
0001
0000
0000
0100
0000
0000
0000
0010
0000
0000
0000
1000
0000
0000
0000
0001
0000
0000
0010
0000
0000
,
0100
0000
0010
0001
0100
0010
1000
0100
,
0010
0000
0001
0000
0101
0000
0000
0000
0101
0000
0000
0000
0001
0000
0000
1000
,
0000
0000
0010
0000
0000
0000
1000
0000
0000
0100
0000
0000
0010
0000
0000
0001
,
0000
0000
0000
1000
0000
0000
0100
0000
0000
0000
1000
0000
0000
0000
0010
0000
0000
0000
0100
0000
0000
0010
0000
0000
,
1000
0000
0001
1000
0100
0001
0100
0010
,
0001
0000
1000
0000
0010
0000
0000
0000
0010
0000
0000
0000
0010
0000
0000
1000
,
0000
0010
0100
0010
1000
0001
0010
1000
,
0010
0002
0003
0000
0000
0000
0000
0000
;

//---------------dance-single - ----------------
#NOTES:
     dance-single:
     :
     Easy:
     8:
     0.354765,0.410764,0.288762,0.123755,0.000000,301.000000,266.000000,35.000000,15.000000,0.000000,0.000000,0.354765,0.410764,0.288762,0.123755,0.000000,301.000000,266.000000,35.000000,15.000000,0.000000,0.000000:
0000
0000
0000
0000
,
0000
0000
0000
0000
,
0000
0000
0000
0000
,
0000
0000
0000
0000
,
0000
0000
0000
0000
,
1020
0130
2100
3010
,
0102
0013
0001
1000
,
0011
0001
1001
1000
,
0010
0100
0010
0100
0002
0000
0013
0000
,
0100
1000
0010
1000
,
0001
0010
0001
0100
,
0001
0010
0001
1000
,
0100
1000
0010
0100
,
0010
1000
0001
0010
,
0100
0010
0001
0100
,
0010
1000
0001
0100
,
0010
0000
0010
0000
0100
0010
0100
0000
,
1010
0000
0101
0000
,
1010
0000
0101
0000
,
1100
0000
0011
0000
,
1100
0000
0011
0000
,
1002
1000
1000
1000
,
1000
1000
1000
1000
,
1000
1000
1000
1000
,
0003
0000
1010
0010
,
1001
0000
0001
0000
1000
0100
1000
0000
,
0110
1000
0010
0100
,
0010
1000
0001
0020
,
0130
1100
0100
1000
,
1010
0101
0001
0010
,
0001
1000
0001
0000
0100
0000
0010
1000
,
1100
0010
0011
1000
,
0001
0100
0010
0000
1010
0000
0010
0000
,
0100
0000
0010
1000
0001
0000
0010
0000
,
0100
0020
0031
0011
,
0001
0000
1000
0001
0200
0000
0301
0000
,
1001
0000
1000
0000
0100
0010
0001
0000
,
0010
0200
1300
1000
,
1000
1000
1000
1000
,
1000
0020
0130
0100
,
0100
0100
0100
0100
,
0100
0020
1030
0001
,
0010
0001
1000
0010
,
1000
0002
1003
0001
,
0100
0001
1000
0100
,
1000
0001
0100
0001
,
0010
0001
1000
0100
,
0010
0100
1000
0010
,
0100
0001
0010
0100
,
0010
0001
1000
0100
,
0010
0001
0010
0100
,
1000
0100
1001
0110
,
1001
0000
0110
0000
0001
1000
0001
1000
,
0000
0001
0100
0010
,
1000
0010
0100
0010
,
1000
0001
0010
0100
,
0010
0001
1000
0100
,
0010
0100
1000
0010
,
0100
0010
1000
0001
,
0010
0001
1000
0100
,
0010
0000
0100
1000
0100
0000
0010
0001
,
0010
0001
1000
0001
,
0100
0001
0010
0100
,
1000
1100
1000
1001
,
0001
0101
0001
0100
,
0010
1000
0010
1000
,
0001
0010
0100
0010
,
0001
0101
0100
0110
,
0010
1010
1000
0001
,
0100
0020
0000
0000
,
0000
0230
0301
0200
,
0310
1000
0000
0000
0000
0000
0000
0000
;

//---------------dance-single - ----------------
#NOTES:
     dance-single:
     :
     Beginner:
     5:
     0.200366,0.289793,0.082503,0.041252,0.000000,170.000000,160.000000,10.000000,5.000000,0.000000,0.000000,0.200366,0.289793,0.082503,0.041252,0.000000,170.000000,160.000000,10.000000,5.000000,0.000000,0.000000:
0000
0000
0000
0000
,
0000
0000
0000
0000
,
0000
0000
0000
0000
,
0000
0000
0000
0000
,
0000
0000
0000
0000
,
1000
0000
0010
0000
,
1000
0000
0100
0000
,
1000
0000
0001
0000
,
0100
0010
0200
0300
,
0010
0000
1000
0000
,
0001
0000
0010
0000
,
0001
0000
1000
0000
,
0100
0000
1000
0000
,
0010
0000
0100
0000
,
0001
0000
0010
0000
,
0001
0000
1000
0000
,
0010
0010
1000
0001
,
1000
0000
1001
0000
,
0001
0000
1001
0000
,
1000
0000
1001
0000
,
0001
0000
1001
0000
,
0220
0000
0000
0000
,
0000
0000
0000
0000
,
0000
0000
0000
0000
,
0330
0000
1000
1000
,
0001
0001
1000
0000
,
0010
0100
0010
0000
,
1000
0001
0010
0100
,
1000
0010
0100
0001
,
1001
1000
0001
0010
,
0001
0100
0001
1000
,
0100
0010
0001
0100
,
0010
1000
0001
1000
,
0100
1000
0010
0100
,
0010
1000
0010
0100
,
0001
0010
0100
0010
,
0001
1000
0001
0001
,
1000
1000
0110
0000
,
0000
0000
0000
0000
,
0000
0000
1001
0000
,
0000
0000
0000
0000
,
0000
0000
0110
0000
,
0010
0000
0010
0000
,
0010
0000
1001
0000
,
0100
0000
0100
0000
,
0100
0000
1000
0000
,
0001
0000
0010
0000
,
0001
0000
1000
0000
,
0100
0000
1000
0000
,
0010
0000
0100
0000
,
0001
0000
0010
0000
,
0100
0000
1000
1000
,
1000
1000
1000
0001
,
1000
0010
0000
1000
,
0000
0100
0000
0010
,
0001
1000
0000
0001
,
0000
0100
0000
0010
,
0100
0001
0000
0010
,
0000
0001
0000
1000
,
0001
1000
0000
0100
,
0000
2000
3000
0001
,
0100
0010
0000
0100
,
0000
0010
1000
0100
,
1000
0001
0000
0100
,
0000
0010
1000
0100
,
1000
0001
0000
0010
,
0000
0001
0010
0100
,
1000
0100
0000
1000
,
0000
0010
1000
0001
,
0100
0020
0000
0000
,
0000
0030
0000
0000
;
