#VERSION:0.83;
#TITLE:Let Me Think About It;
#SUBTITLE:(MAFFALDA Remix);
#ARTIST:Ida Corr vs. Fedde Le Grand;
#TITLETRANSLIT:;
#SUBTITLETRANSLIT:;
#ARTISTTRANSLIT:;
#GENRE:Bailefunk;
#CREDIT:tikal. vs MEGAtive;
#MUSIC:Let Me Think About It (MAFFALDA Remix).ogg;
#BANNER:Let Me Think About It (MAFFALDA Remix).png;
#BACKGROUND:Let Me Think About It (MAFFALDA Remix)-bg.png;
#CDTITLE:cdtitle.png;
#SAMPLESTART:40.641;
#SAMPLELENGTH:29.538;
#SELECTABLE:YES;
#OFFSET:-0.025;
#BPMS:0.000=130.000;
#STOPS:;
#DISPLAYBPM:130.000;
#BGCHANGES:;
#FGCHANGES:;

//--------------- dance-single - tikal. ----------------
#NOTEDATA:;
#STEPSTYPE:dance-single;
#DESCRIPTION:tikal.;
#DIFFICULTY:Hard;
#METER:13;
#RADARVALUES:0,0,0,0,0;
#NOTES:
0000
0000
0000
0000
,
0000
0000
0000
0000
,
0000
0000
0000
0000
,
0000
0000
0000
0000
,
0002
0100
0000
0100
,
2003
0100
0000
0100
,
3020
0001
0000
1000
,
0230
0000
0010
0300
0110
0000
0000
0000
,
0002
0000
0010
0000
0013
0000
0200
0000
0310
0000
0001
1000
0010
0000
1000
0001
,
2000
0010
3010
0200
0310
0001
0020
0000
,
2030
0000
0100
0000
3100
0000
0020
0000
0130
0000
1000
0001
0100
0000
0001
1000
,
0002
0100
0103
0020
0130
1000
0200
0000
,
0301
0000
0010
0100
0010
0000
0010
0000
0100
0000
1000
0000
0100
0000
0001
0000
,
0000
0000
0100
0010
0100
0000
0100
0000
0010
0000
1000
0000
0010
0000
0001
0000
,
0000
0000
0100
0010
0100
0000
0100
0000
0010
0000
0001
0000
0010
0000
1000
0000
,
0000
0000
0001
0000
0010
0000
1000
0000
0010
0000
0001
1000
0010
0000
0100
0000
,
1001
0001
0100
0001
0020
0000
0230
0000
,
0300
1000
0100
1000
0020
0000
0230
0000
,
0300
0001
0010
0001
0200
0000
0320
0000
,
0030
1000
0010
1000
0200
0000
0020
0000
,
0000
0000
0000
0000
,
0300
0000
0000
1030
0010
0001
0100
0100
,
0110
0000
1000
0100
0000
0100
0010
0000
0001
0000
0100
0000
0110
0000
0000
0000
,
1001
0000
0001
0100
0010
0000
0001
0000
0010
0000
1000
0000
1001
0000
0000
0000
,
0110
0000
0001
0100
0000
0100
0010
0000
1000
0000
0100
0000
0110
0000
0000
0000
,
1001
0000
1000
0100
0010
0000
1000
0000
0010
0000
0001
1000
0001
0100
0000
0010
,
0100
0000
0001
0010
0000
0010
0100
0000
1000
0000
0010
0000
0110
0000
0000
0000
,
1001
0000
1000
0010
0100
0000
1000
0000
0100
0000
0001
0000
1001
0000
0000
0000
,
0110
0000
1000
0010
0000
0010
0100
0000
0001
0000
0010
0000
0110
0000
0000
0000
,
1001
0000
0000
0000
0000
0000
0001
0000
0000
0010
0000
0000
0100
0000
0000
1000
0000
0000
0000
0000
0000
0001
0000
0000
1000
0000
0000
0000
0010
0000
0000
0000
0100
0000
0000
0000
0001
0000
0000
0000
0000
0000
1000
0000
0000
0000
0000
0000
,
0100
0000
0010
0001
0000
1000
0001
0000
0400
0000
0000
0000
1000
0000
0000
0000
,
0001
0000
0000
0310
0100
1001
0011
0000
,
0010
0000
0100
1000
0000
0001
1000
0000
0040
0000
0000
0000
0001
0000
0000
0000
,
1000
0000
0000
0000
0000
0000
0130
0000
0010
1000
0001
0000
0100
0000
0000
0000
,
0010
0000
0100
0001
0000
1000
0001
0000
0040
0000
0000
0000
1000
0000
0000
0000
,
0001
0000
0000
0130
0010
1001
0101
0000
,
0100
0000
0010
1000
0000
0001
1000
0000
0400
0000
0000
0000
0001
0000
0000
0000
,
1000
0000
0000
0000
0000
0000
0000
0000
0000
0310
0000
0000
0001
0000
0100
0000
0010
0000
1000
0000
0000
0001
0000
0000
,
2000
0010
0000
0010
,
3002
0010
0000
0010
,
0203
1000
0000
0001
,
0320
0001
2030
3200
,
0310
0000
0000
0001
0000
0000
0001
0000
0000
0000
0011
0000
0011
0000
0000
0000
,
0001
0000
0000
0100
0000
0000
0100
0000
0000
0000
0101
0000
0101
0000
0100
0000
,
0010
0000
0000
1000
0000
0000
1000
0000
0000
0000
1010
0000
1010
0000
0000
0000
,
1000
0000
0000
0100
0000
0000
0100
0000
0001
0000
0100
0000
1000
0000
0010
0000
,
0110
0101
0110
0101
,
1100
0000
0110
0000
1100
0000
0110
0010
,
1001
1010
0110
1010
,
0011
0000
0000
0000
0000
0000
0000
0000
0000
0000
0000
0000
0110
0000
0000
0000
0000
0000
0000
0000
0000
0000
0000
0000
0001
0000
0000
1000
0000
0000
0001
0000
0000
1000
0000
0000
0001
0000
0000
0000
0100
0000
0000
0000
0010
0000
0000
0000
,
0110
0000
1000
0100
0010
0000
0100
0000
0001
0000
0100
0000
1000
0000
1001
0000
,
0000
0000
0001
0100
0010
0000
0100
0000
1000
0000
0100
0000
0001
0000
1001
0000
,
1000
0000
0001
0010
0100
0000
0010
0000
1000
0000
0010
0000
0001
0000
1001
0000
,
1000
0010
0001
0100
1000
0000
0000
0000
,
0001
0000
0010
0100
0000
0100
1000
0000
0001
0000
0100
0000
0120
0000
0000
0000
,
1030
0000
0010
0100
0000
0100
0001
0000
1000
0000
0100
0000
0110
0000
0001
0000
,
0001
0000
0100
0010
0000
0010
1000
0000
0001
0000
0010
0000
0210
0000
0000
0000
,
1300
0000
0001
0100
1000
0100
0001
1000
,
0100
0000
1000
0001
0000
1000
0010
0000
0100
0000
0001
0000
0011
0000
0000
0000
,
1000
0000
0010
1000
0000
0001
1000
0000
0100
0000
0010
0000
0110
0000
0001
0000
,
0001
0000
0010
0001
0000
1000
0001
0000
0100
0000
0010
0000
0110
0000
0000
0000
,
0100
0000
0000
0000
0000
0000
0000
0000
0000
0100
0000
0000
0010
0000
0000
0000
0000
0000
0100
0000
0000
0000
0000
0000
0010
0000
0000
1000
0000
0000
0001
0000
0000
0000
0000
0000
0100
0000
0000
0000
0001
0000
0000
0000
1000
0000
0000
0000
,
0200
0000
0000
0000
0000
000M
0000
0000
0000
0000
0000
000M
0000
0000
0000
0000
0000
0000
0000
0000
0000
0000
0000
0000
000M
0000
0000
0000
0000
0000
0000
0000
,
00M0
0000
0000
0000
0000
00M0
0000
0000
0000
0000
0000
00M0
0000
0000
0000
0000
0000
0000
0000
0000
0000
0000
0000
0000
00M0
0000
0000
0000
0000
0000
0000
0000
,
0000
0000
0000
0000
0000
M000
0000
0000
0000
0000
0000
M000
0000
0000
0000
0000
0000
0000
0000
0000
0000
0000
0000
0000
M300
0000
0000
0000
0000
0000
0000
0000
,
0M00
0000
0000
0000
0000
0M00
0000
0000
0000
0000
0000
0M00
0000
0000
0000
0000
0000
0000
0000
0000
0000
0000
0000
0000
0M00
0000
0000
0000
0000
0000
0000
0000
;

//--------------- dance-single - tikal. vs MEGAtive ----------------
#NOTEDATA:;
#STEPSTYPE:dance-single;
#DESCRIPTION:tikal. vs MEGAtive;
#DIFFICULTY:Challenge;
#METER:16;
#RADARVALUES:0,0,0,0,0;
#OFFSET:-0.025;
#BPMS:0.000=130.000
,30.000=65.000
,30.500=130.000
,31.000=260.000
,32.000=130.000
,90.500=260.000
,90.750=130.000
,90.875=65.000
,91.000=520.000
,91.500=130.000
,91.625=65.000
,92.000=130.000
,94.500=260.000
,94.750=130.000
,94.875=65.000
,95.000=520.000
,95.500=130.000
,95.625=65.000
,96.000=130.000
,98.500=260.000
,98.750=130.000
,98.875=65.000
,99.000=520.000
,99.500=130.000
,99.625=65.000
,100.000=130.000
,106.500=260.000
,106.750=130.000
,106.875=65.000
,107.000=520.000
,107.500=130.000
,107.625=65.000
,108.000=130.000
,110.500=260.000
,110.750=130.000
,110.875=65.000
,111.000=520.000
,111.500=130.000
,111.625=65.000
,112.000=130.000
,114.500=260.000
,114.750=130.000
,114.875=65.000
,115.000=520.000
,115.500=130.000
,115.625=65.000
,116.000=130.000
,184.000=260.000
,184.375=130.000
,184.563=65.000
,184.750=130.000
,192.000=260.000
,192.375=130.000
,192.563=65.000
,192.750=130.000
,200.000=260.000
,200.250=130.000
,200.375=65.000
,200.500=130.000
,216.000=260.000
,216.250=130.000
,216.375=65.000
,216.500=130.000
,219.000=520.000
,219.500=130.000
,219.625=65.000
,220.000=130.000
,223.000=260.000
,223.250=130.000
,223.375=65.000
,223.500=130.000
,227.000=520.000
,227.500=130.000
,227.625=65.000
,228.000=130.000
,235.000=520.000
,235.500=130.000
,235.625=65.000
,236.000=130.000
,239.000=260.000
,239.250=130.000
,239.375=65.000
,239.500=130.000
,243.000=520.000
,243.500=130.000
,243.625=65.000
,244.000=130.000
;
#NOTES:
0000
0000
0000
0000
,
0000
0000
0000
0000
,
0000
0000
0000
0000
,
0000
0000
0000
0000
,
0001
0000
0000
0001
0000
0001
0010
0000
0000
0100
0000
0100
1000
0000
0010
0000
,
1000
0000
0000
1000
0000
1000
0010
0000
0000
0100
0000
0100
0001
0000
0010
0000
,
0001
0000
0000
0001
0000
0001
0010
0000
0000
0100
0000
0100
1000
0000
0010
0000
,
1000
0000
0000
1000
0000
1000
0010
0000
0110
0000
0000
0000
0000
0000
0000
0000
,
0102
0000
1003
0000
1000
0000
0014
0000
1003
0000
004M
M000
0001
M000
010M
M030
,
0012
1003
1000
0104
2003
3010
1010
1001
,
2100
0000
3001
0000
0001
0000
4010
0000
3001
0000
M040
000M
1000
000M
M100
003M
,
2010
3001
0001
4100
3002
0013
0011
1001
,
0101
0000
0001
1000
010M
0000
M100
0000
0010
0000
0100
0001
0010
0000
0110
0000
,
0000
0000
1000
0001
M010
0000
001M
0000
0100
0000
0010
1000
0100
0000
0110
0000
,
0000
0000
0001
1000
001M
0000
M010
0000
0100
0000
0010
0001
0100
0000
0110
0000
,
0000
0000
0000
0000
1000
0000
0010
0000
0100
0000
0000
0M00
1000
0000
0010
0000
0100
0000
0001
0000
0010
0000
0100
0000
0010
0000
0001
0000
1000
0000
0000
0000
,
1001
0000
0001
0100
0000
0100
0001
0000
0000
1000
0000
0100
1000
0100
0010
0000
,
0001
0000
1000
0100
0000
0100
1000
0000
0000
0001
0000
0100
0001
0100
0010
0000
,
1000
0000
0001
0010
0000
0010
0001
0000
0000
1000
0000
0010
1000
0010
0100
0000
,
0001
0000
1000
0010
0000
0010
1000
0000
0000
0001
0000
0010
0000
0100
0010
0000
,
0000
0000
0000
0000
0004
4000
0400
0040
0000
0000
0000
0000
0000
0000
0000
0000
,
0000
0000
0300
0030
0003
3000
010M
010M
0010
1000
0100
0010
0001
0100
0010
0000
,
1010
0000
1000
0001
0000
1000
0100
0000
0010
0000
1001
0000
0101
0000
0000
0000
,
1100
0000
0100
1000
0010
0100
0001
0000
0010
0000
1001
0000
0101
0000
0000
0000
,
0011
0000
0001
1000
0000
0001
0100
0000
0010
0000
1001
0000
1100
0000
0000
0000
,
0101
0000
0000
0000
0100
0000
0001
0000
0010
0000
0100
0000
1000
0000
0001
0000
1000
0000
0010
0000
0100
0001
0100
0000
0001
0000
0010
0000
1000
0000
0010
0000
,
0001
0000
1000
0100
0000
1000
0010
0000
0100
0000
1001
0000
1010
0000
0000
0000
,
0101
0000
0001
0100
0010
1000
0100
0000
0010
0000
1001
0000
1010
0000
0000
0000
,
1000
0000
0001
0100
0000
0001
0010
0000
0100
0000
1001
0000
0011
0000
0000
0000
,
1100
0000
0000
0000
0000
0000
0000
0000
0000
0000
0000
0000
1000
0000
0000
0000
0000
0000
0001
0000
0000
0010
0000
0000
0001
0000
0000
0000
0000
0000
1000
0000
0000
0000
0000
0000
0100
0000
0000
0000
0000
0000
1000
0000
0000
0000
0000
0000
001M
0000
0000
0000
0000
0000
0000
0000
M010
0000
0000
0000
0000
0000
0000
0000
001M
0000
0000
0000
0000
0000
0000
0000
M010
0000
0000
0000
0000
0000
0000
0000
0000
0000
0000
0000
0001
0000
0000
0000
0000
0000
0000
0000
0000
0000
0000
0000
,
1000
0000
0100
001M
0000
0010
1000
0000
0400
0000
0010
0000
M000
0000
M000
0000
,
0010
M000
0001
M000
M000
0310
0001
4000
,
3001
0000
0010
M100
0000
0100
0001
0000
0040
0001
0M00
0M00
1000
0M00
0M00
0001
,
1000
0100
000M
0100
1000
000M
0100
000M
1030
0001
0100
0010
1000
0000
0400
0000
,
1300
0000
0000
0000
0000
0000
0010
0000
0000
010M
0000
0000
0000
0000
0000
0100
0000
0000
1000
0000
0000
0000
0000
0000
0M40
0000
0000
0000
0M00
0000
0000
0000
0001
0000
0000
0000
0M00
0000
0000
0000
0M00
0000
0000
0000
1000
0000
0000
0000
,
0001
0000
0M00
0000
0M00
0000
0M00
0000
0M00
0000
1000
0000
0031
0000
0000
0010
0000
0000
0100
0000
0000
4000
0000
0000
,
3001
0000
0010
M100
0000
0100
0001
0000
0040
0000
0100
0000
000M
0000
000M
0000
,
0100
0000
0000
000M
0000
0000
1000
0000
0000
000M
0000
0000
M130
0000
010M
0000
M100
0000
010M
0000
0000
1000
0000
0000
,
0001
0000
0010
0000
0001
0000
0100
0000
001M
0000
0000
0M10
0000
0000
0001
0000
,
0M20
0030
001M
0000
2000
0000
0000
0000
3200
0000
0000
0000
0310
0000
0001
0000
,
M200
0300
0000
010M
0000
0000
0000
1000
001M
0000
0000
M010
0000
0000
0001
0000
,
2000
3000
1000
0000
0020
0000
0030
0000
0110
0000
0000
0000
0101
0000
0000
0000
,
2001
3000
0000
1000
0100
0000
1000
0000
0010
0000
1000
0010
1000
0000
0000
0000
,
0120
0030
0010
1000
0001
0000
1000
0000
0200
0000
1000
0000
1300
0000
0001
0000
,
0201
0300
0000
0001
0100
0000
0001
1000
0000
1000
0001
0000
0001
0000
0010
0000
,
0012
0000
0000
0003
0000
0000
0000
0000
0000
0001
0000
0000
0000
0000
0000
0000
0000
0000
0001
0000
1000
0000
0001
0000
1000
0000
0000
0010
0000
0000
0001
0000
0000
0010
0000
0000
0100
0000
0000
0001
0000
0000
0010
0000
0000
0100
0000
0000
,
1000
0000
0000
0010
0200
0000
1300
0100
0010
1000
0001
0010
0100
0000
1000
0001
,
0010
0000
0000
0100
0020
0000
1030
0010
0001
0000
0100
0010
1000
0000
1000
0000
,
1001
0000
0000
1000
0200
0000
0301
0100
0010
0001
1000
0010
0100
0000
0001
1000
,
0010
0000
0000
0000
0000
0000
0000
0000
0000
0100
0000
0000
0020
0000
0000
0000
0000
0000
0031
0000
0000
0010
0000
0000
1000
0000
0000
0001
0000
0000
1000
0000
0000
0100
0000
0000
0010
0000
0000
0000
0001
0000
0000
0000
1000
0000
0000
0000
,
1010
0000
0M10
0010
0001
0000
0M10
0000
0010
0000
0100
0001
0010
0000
0100
0000
,
1100
0000
01M0
0100
0001
0000
01M0
0000
0100
0000
0010
0001
0100
0000
0010
0000
,
1010
0000
0M10
0010
0001
0000
0M10
0000
0010
0000
0100
0001
0010
0000
0100
0000
,
1000
0001
0100
0010
1000
0001
0010
0100
1000
0010
0100
0001
0010
0100
0010
0001
,
2000
0000
3001
0100
1000
0100
0010
0000
1000
0000
0100
0010
0012
0000
0000
0000
,
2003
0000
3001
0010
1000
0010
0100
0000
1000
0000
0010
0100
0101
0000
0001
0000
,
0002
0000
1003
0100
0001
0100
0010
0000
0001
0000
0100
0010
2010
0000
0000
0000
,
340M
M000
0001
1000
000M
M000
0301
1000
0010
0100
0010
0100
0001
0000
1000
0000
,
0002
0000
1003
0100
0001
0100
0010
0000
0001
0000
0100
0010
2010
0000
0000
0000
,
3002
0000
1003
0010
0001
0010
0100
0000
0001
0000
0010
0100
1100
0000
1000
0000
,
2000
0000
3001
0100
1000
0100
0010
0000
1000
0000
0100
0010
0012
0000
0000
0000
,
1003
0000
0000
0000
0000
0000
0000
0000
0000
1000
0000
0000
0001
0000
0000
0000
0000
0000
1000
0000
0000
0000
0000
0000
0001
0000
0000
0010
0000
0000
0100
0000
0000
1000
0000
0000
001M
0000
0000
0000
M010
0000
0000
0000
001M
0000
0000
0000
,
0200
0000
0000
0000
0000
M000
0000
0000
0000
0000
0000
M000
0000
0000
0000
0000
0000
0000
0000
0000
0000
0000
0000
0000
M000
0000
0000
0000
0000
0000
0000
0000
,
00M0
0000
0000
0000
0000
00M0
0000
0000
0000
0000
0000
00M0
0000
0000
0000
0000
0000
0000
0000
0000
0000
0000
0000
0000
00M0
0000
0000
0000
0000
0000
0000
0000
,
0000
0000
0000
0000
0000
000M
0000
0000
0000
0000
0000
000M
0000
0000
0000
0000
0000
0000
0000
0000
0000
0000
0000
0000
030M
0000
0000
0000
0000
0000
0000
0000
,
0M00
0000
0000
0000
0000
0M00
0000
0000
0000
0000
0000
0M00
0000
0000
0000
0000
0000
0000
0000
0000
0000
0000
0000
0000
0M00
0000
0000
0000
0000
0000
0000
0000
;
