#VERSION:0.83;
#TITLE:Last Judgement;
#SUBTITLE:;
#ARTIST:Laur vs Juggernaut.;
#TITLETRANSLIT:;
#SUBTITLETRANSLIT:;
#ARTISTTRANSLIT:;
#GENRE:;
#CREDIT:;
#MUSIC:Last Judgement.ogg;
#BANNER:Last Judgement-bn.png;
#BACKGROUND:Last Judgement-bg.png;
#CDTITLE:;
#SAMPLESTART:115.561;
#SAMPLELENGTH:15.000;
#SELECTABLE:YES;
#OFFSET:1.010;
#BPMS:0.000=210.000;
#STOPS:;
#SPEEDS:0.000=0.500=0.000=0,
36.000=1.000=4.000=0,
152.000=0.500=0.000=0,
152.021=2.000=3.100=0,
153.000=0.650=0.000=0,
153.021=2.000=2.800=0,
154.000=0.800=0.000=0,
154.021=2.000=2.500=0,
155.000=0.950=0.000=0,
155.021=2.000=2.200=0,
156.000=1.100=0.000=0,
156.021=2.000=1.900=0,
157.000=1.250=0.000=0,
157.021=2.000=1.600=0,
158.000=1.400=0.000=0,
158.021=2.000=1.300=0,
159.000=1.550=0.000=0,
159.021=2.000=1.000=0,
312.000=1.000=0.000=0,
312.021=4.000=3.100=0,
313.000=1.300=0.000=0,
313.021=4.000=2.800=0,
314.000=1.600=0.000=0,
314.021=4.000=2.500=0,
315.000=1.900=0.000=0,
315.021=4.000=2.200=0,
316.000=2.200=0.000=0,
316.021=4.000=1.900=0,
317.000=2.500=0.000=0,
317.021=4.000=1.600=0,
318.000=2.800=0.000=0,
318.021=4.000=1.300=0,
319.000=3.100=0.000=0,
319.021=4.000=1.000=0,
344.000=5.000=0.000=0,
344.021=4.000=2.000=0
;
#SCROLLS:0.000=1.000,
68.000=0.000,
68.125=2.000,
68.250=0.000,
68.375=2.000,
68.500=0.000,
68.625=2.000,
68.750=0.000,
68.875=2.000,
69.000=0.000,
69.125=2.000,
69.250=0.000,
69.375=2.000,
69.500=0.000,
69.625=2.000,
69.750=0.000,
69.875=2.000,
70.000=0.000,
70.125=2.000,
70.250=0.000,
70.375=2.000,
70.500=0.000,
70.625=2.000,
70.750=0.000,
70.875=2.000,
71.000=0.000,
71.125=2.000,
71.250=0.000,
71.375=2.000,
71.500=0.000,
71.625=2.000,
71.750=0.000,
71.875=2.000,
72.000=1.000,
136.000=0.500,
296.000=0.250,
344.000=0.000,
344.500=0.500,
345.000=0.250
;
#ATTACKS:TIME=97.275:LEN=0.143:MODS=*1000 -15% flip :TIME=97.418:LEN=0.143:MODS=*0.530 no flip :TIME=97.275:LEN=0.286:MODS=*1000 15% confusion :TIME=97.561:LEN=0.286:MODS=*1000 no confusion :TIME=97.275:LEN=0.286:MODS=*1000 50% stealth :TIME=97.561:LEN=0.286:MODS=*1000 no stealth :TIME=97.561:LEN=0.143:MODS=*1000 200% beat :TIME=97.704:LEN=0.143:MODS=*1000 no beat
;
#BGCHANGES:;
#FGCHANGES:;

//--------------- dance-single - ----------------
#NOTEDATA:;
#STEPSTYPE:dance-single;
#DESCRIPTION:;
#DIFFICULTY:Medium;
#METER:15;
#RADARVALUES:0,0,0,0,0;
#CREDIT:Talkion;
#NOTES:
0000
0000
0000
0000
,
0000
0000
0000
0000
,
0000
0000
0000
0000
,
0000
0000
0000
0000
,
0000
0000
0000
0000
,
0000
0000
0000
0000
,
0000
0000
0000
0000
,
0000
0000
0000
0000
,
0000
0000
0000
0000
,
0000
0000
0000
0000
,
2010
0000
3001
0000
0010
0000
0100
0010
,
0000
0100
0010
0000
0100
1000
0001
0000
,
0012
0000
1003
0000
0010
0000
0100
0010
,
0000
0100
0010
0000
0100
0001
2000
0000
,
3100
0010
0000
0010
,
2001
3010
0000
0010
,
0100
0001
1000
0001
0010
0100
1000
0000
,
0001
0100
0001
0100
0001
0100
0001
0100
,
0010
0010
1000
0000
0001
0010
0200
0000
,
0001
0000
0010
0000
1300
0001
0010
0001
,
0100
0100
0010
0000
1000
0010
0200
0000
,
1000
0000
0010
0000
0301
1000
0010
1000
,
0100
0100
0010
0000
0001
0010
0100
0000
,
1010
0000
0011
0000
1010
0000
0001
1000
,
0010
0010
0100
0000
0001
0100
0010
0000
,
1100
0101
1100
0101
,
1002
0000
0000
0000
0013
0100
0010
0100
,
1000
0001
0100
0110
0000
0110
0000
0001
,
0010
0010
0100
0000
1100
1100
0000
0101
,
0000
0001
0100
0010
1000
0000
1001
0000
,
0001
0010
0100
0010
0001
0100
0010
0100
,
0001
0010
0100
0010
0001
0100
0010
1000
,
0001
0010
0001
0010
0001
0010
0001
0010
,
0100
1000
0010
0100
0001
0010
0100
1000
,
0002
0000
0000
0100
0000
0000
0203
0000
,
0000
0000
0010
0000
,
0301
0000
0000
0000
1000
0000
0000
0100
,
0000
0000
0010
0100
0010
0000
0000
0000
0001
0000
1000
0000
0010
0000
0100
0000
,
0001
1000
0100
0010
,
0001
1000
0010
0100
,
0001
1000
0010
1000
0001
1000
0100
0010
,
0100
0100
0002
0000
0003
0000
0000
0000
,
1001
0000
0100
0000
1001
1000
0010
0200
,
0000
0301
0100
0001
1000
0000
0110
0000
,
1002
0000
0013
0100
0001
0000
0100
1000
,
0001
1000
0010
0100
1000
0000
0100
0001
,
1000
0001
0010
0100
0001
0000
0100
1000
,
0001
0000
1000
0000
0010
0000
0200
0000
1000
0000
0000
0010
0000
0000
0301
0000
,
2000
0000
3100
0200
0001
0000
1000
0000
,
0301
0100
0010
0001
1000
0000
0001
0100
,
1000
0000
0000
1000
0000
0000
1000
0000
0100
0000
0010
0000
0100
0000
0001
0000
,
1000
0000
0000
1000
0000
0000
1000
0000
0100
0000
0010
0000
0100
0000
0010
0000
,
0001
1000
0010
1000
0100
0010
0001
1000
,
0100
1000
0001
0100
0001
0010
0100
1000
,
0001
0010
0001
1000
0010
1000
0001
0010
,
0001
0000
0100
0000
0010
0000
1000
0000
0001
0000
0000
0001
0000
0000
0001
0000
,
0010
0000
0000
0001
0010
0000
0000
1000
0100
0000
0000
0001
0010
0000
0000
1000
,
0100
0000
0000
0001
0100
0000
0000
1000
0010
0000
0000
0001
0100
0000
0000
1000
,
0010
0010
0100
0001
1000
0100
0010
0100
,
0002
0000
0000
0000
0103
0100
1000
0001
,
0200
0000
0010
0000
1300
0100
0002
0000
,
1000
1000
0013
0000
,
1200
0000
0010
0000
0301
0100
2000
0000
,
0001
0001
3010
0000
,
0201
0000
0010
0000
1300
0100
0002
0000
,
1000
0000
1000
0000
0013
0100
0000
0020
,
0100
0001
0100
0001
,
0230
0000
1300
1001
,
0001
0100
0001
0100
0010
1000
0100
1000
,
0001
0100
0001
1000
0001
0100
0010
0000
,
1000
0010
1000
0010
0100
0001
0010
0001
,
1000
0100
1000
0001
1000
0100
0010
0000
,
0001
0100
0010
1000
0100
0010
0001
0100
,
0010
1000
0100
0010
0001
0100
1000
0000
,
1200
0000
0000
0000
0310
0000
0000
1000
,
0000
1000
1000
0000
0001
0000
0000
0000
,
0010
0010
0100
0000
1000
0000
0000
0001
,
0000
0000
0100
0010
0100
0000
0000
0000
0001
0000
1000
0000
0100
0000
0010
0000
,
0001
1000
0010
0100
,
0001
1000
0100
0010
,
0001
1000
0100
1000
0001
1000
0010
0100
,
0010
0010
0002
0000
0003
0000
0000
0000
,
0120
0000
1030
0100
0001
0000
0100
1000
,
0001
1000
0010
0100
1000
0000
0100
0001
,
1000
0001
0010
0001
1000
0001
0010
0100
,
0002
2003
3010
2001
,
3010
0000
0101
0010
1000
0000
0001
0010
,
1000
0010
0001
0010
1000
0010
0100
1000
,
0001
0001
0001
0100
1000
0100
0010
0010
,
0010
0000
0000
0000
1000
0001
0000
1000
0002
0000
0000
0000
0023
0000
0000
0000
,
0130
1000
0010
1000
0100
1000
0010
1000
,
0002
0000
0000
0000
0103
0000
0000
0010
1000
0000
0000
0010
1000
0000
0000
0000
,
0001
0010
0001
0010
0100
1000
0010
1000
,
0001
0100
0001
1000
0001
0010
0010
0010
,
0100
1100
0101
1100
,
0101
0000
1100
0000
0101
0000
2001
3100
,
0010
0011
1010
0011
,
1002
0000
0000
0000
0103
0100
0010
0000
,
1000
0010
0100
0001
0000
0010
0100
0001
,
0000
0100
0010
0001
0000
0100
0010
0100
,
0010
1000
0001
0010
0100
0010
2000
0000
,
3010
0001
0100
1000
0100
0010
1000
0001
,
0010
0100
0001
0100
0010
0100
1000
0001
,
0100
0010
0001
1000
0100
0010
1000
0001
,
0010
1000
0010
0100
1000
0001
0100
0010
,
0001
0010
0100
0001
1000
0100
0010
0001
,
1001
0000
1100
0000
1000
0001
0100
0010
,
1000
0000
1010
1010
0000
0101
0000
1002
,
0000
0000
0013
0000
0001
0010
0100
0010
,
1000
0000
0000
0101
0000
0000
1100
0000
0000
0000
1000
0000
0001
0000
1000
0000
,
0020
0000
0130
0000
0001
1000
0001
0010
,
1000
0000
1010
0000
0010
0001
1000
0001
,
0100
0010
0100
0001
1000
0100
0010
0100
,
0001
1000
0010
0100
1000
0001
0100
0010
,
0001
0000
0011
0000
0010
1000
0001
1000
,
0100
0010
0001
1000
0010
0001
1000
0001
,
0010
0001
1000
0001
0010
0100
0010
1000
,
0001
0010
0100
0010
2000
0000
0000
0000
,
3001
0100
0010
0002
0000
0103
0010
0002
,
0000
0013
0100
0002
0000
0013
0100
0002
,
0000
0103
0010
0002
0000
1003
0010
0002
,
0000
2003
0000
3200
0000
0302
0000
1003
;

//--------------- dance-single - ----------------
#NOTEDATA:;
#STEPSTYPE:dance-single;
#DESCRIPTION:;
#DIFFICULTY:Hard;
#METER:17;
#RADARVALUES:0,0,0,0,0;
#CREDIT:Talkion;
#NOTES:
0000
0000
0000
0000
,
0000
0000
0000
0000
,
0000
0000
0000
0000
,
0000
0000
0000
0000
,
0000
0000
0000
0000
,
0000
0000
0000
0000
,
0000
0000
0000
0000
,
0000
0000
0000
0000
,
0000
0000
0000
0000
,
0000
0000
0000
0000
,
0201
0000
0310
0000
1000
1000
0001
0020
,
0000
0031
0010
0100
1000
1000
0001
0000
,
0100
0100
0200
0000
0310
1000
0010
0200
,
0000
0301
0001
1000
0100
0010
0002
0000
,
1003
0010
0000
0010
,
1002
0000
0000
0000
0013
0000
0000
0000
0000
0000
0000
0000
0010
0100
1000
0000
,
0001
0001
0100
0100
0010
1000
0001
0020
,
0100
0100
0100
0100
0100
0100
0130
1000
,
0001
0000
0001
0000
0010
0000
0000
0000
0001
0000
0000
0000
1000
0010
0100
0000
,
0001
0000
0100
0010
1000
0000
0001
0000
0010
0000
0010
0000
0200
0000
0000
0000
,
1300
1000
0001
0000
0100
0000
0110
0110
,
0000
0000
0001
1000
0100
0000
0010
0000
0010
0000
0001
1000
0100
0000
0000
0000
,
0010
0001
1000
0001
0010
0000
0000
0000
0001
0000
0000
0000
1000
0100
0010
0000
,
0001
0000
0010
0100
1000
0000
0001
0000
0100
0000
0100
0000
0020
0000
0000
0000
,
1030
1000
0001
0000
0010
0000
0110
0110
,
0000
0000
0001
1000
0010
0000
0100
0000
0100
0000
0001
1000
0010
0000
0000
0000
,
0210
0000
0000
0000
0000
0000
0000
0000
0301
1000
0001
1000
0001
1000
0001
1000
,
0100
0000
1000
0100
1000
0000
0011
0000
0000
0000
0011
0000
2000
0000
0000
0000
,
3010
0010
0100
0000
0101
0101
0000
1010
,
0000
0000
1000
0001
0010
0000
0100
0000
0100
0000
1000
0001
0010
0000
0000
0000
,
0001
0010
1000
0010
0001
0010
1000
0010
,
0001
0000
1000
0000
0100
0000
1000
0000
0010
0100
0001
0000
1001
0000
0000
0000
,
1000
0010
1000
0010
0100
0000
0001
0010
0100
0000
1000
0010
0100
0000
0001
0000
,
1000
0100
1000
0100
0010
0001
0010
0001
1000
0100
0010
0001
2000
0000
0000
0000
,
3020
0000
0000
0100
0000
0000
0230
0000
,
0000
0000
0001
0000
,
0310
0000
0000
0000
1000
0000
0000
0001
,
0000
0000
0010
0100
0010
0000
0000
0000
0001
0000
1000
0000
0010
0000
0100
0000
,
0001
1000
0100
0010
,
0001
1000
0010
0100
,
0001
0000
1000
0000
0100
0000
0010
0000
0001
1000
0001
1000
0001
1000
0010
0000
,
1000
0000
0001
0100
2000
0000
0000
0000
3000
0000
0000
0000
0000
0000
0000
0000
,
1001
0000
0100
0000
1002
0013
0100
2000
,
0000
0000
3001
0000
0100
0010
0100
0010
1000
0000
0000
0000
0001
0000
0000
0000
,
0021
0000
0000
0000
0130
0000
0010
0100
0001
0000
0000
0000
0100
0000
1000
0000
,
0001
1000
0001
0000
0100
0000
0010
0100
1000
0000
0000
0000
0100
0000
0001
0000
,
1000
0001
1000
0000
0100
0000
0010
0100
0001
0000
0000
0000
0100
0000
1000
0000
,
0001
0000
0100
0010
0100
0010
1000
0000
0001
0000
1000
0100
0000
0100
1000
0000
,
0002
0000
1003
0100
0002
0000
0103
0100
,
1000
0001
1000
0010
0001
0000
0010
0010
,
2000
0000
0000
3001
0000
0000
0010
0000
1000
0000
0010
0000
0000
0000
0010
0000
,
0002
0000
0000
1003
0000
0000
0010
0000
0001
0000
0010
0000
0010
0000
0010
0000
,
1000
0000
0001
0010
0100
0000
1000
0000
0010
0100
0001
0000
1000
0000
0100
0000
,
0010
0100
0010
0000
0001
0000
1000
0010
0100
0000
0001
0000
1000
0100
1000
0000
,
0001
0100
0001
0000
1000
0000
0100
0010
0001
0000
0100
0010
1000
0000
0001
1000
,
0001
0000
0010
0000
0100
0000
1000
0000
0001
0100
0000
0100
0000
0100
0010
0000
,
1000
0000
0000
0001
0010
0000
0000
1000
0100
0000
0000
0001
0010
0000
0000
1000
,
0100
0000
0000
0001
0100
0000
0000
1000
0010
0000
0000
0001
0100
0000
0000
1000
,
0010
0000
0010
0000
0100
0000
0001
0000
1000
0001
1000
0001
0010
0001
1000
0001
,
0200
0000
0000
0000
0010
0010
0310
0100
,
2000
0000
0001
0000
3100
0001
1000
0100
,
0002
1000
0103
0010
,
2000
0000
0001
0000
3010
0001
1000
0010
,
0002
1000
0013
0100
,
2000
0000
0001
0000
3100
0001
1000
0100
,
0002
0000
1000
0000
0103
1000
0000
0200
,
1000
0010
1000
0010
,
0302
0000
0103
1001
,
1000
0010
1000
0000
0001
0010
0001
0000
1000
0010
0100
0001
0010
0001
1000
0000
,
0001
0100
0001
0000
1000
0100
1000
0000
0001
0100
0010
1000
0100
0000
1000
0000
,
0001
0010
0001
0000
1000
0010
1000
0000
0001
0010
0100
1000
0010
1000
0001
0000
,
1000
0100
1000
0000
0001
0100
0001
0000
1000
0100
0010
0001
0100
0000
0000
0000
,
0010
0000
0010
0000
0010
0000
0010
0000
0010
0000
0010
0000
0010
1000
0000
0001
,
0010
0000
0001
0010
0001
0000
1000
0000
0100
0000
0010
0100
0001
0000
0000
0000
,
0201
0000
0000
0000
0310
0000
0000
0001
,
0000
0001
0001
0000
1000
0000
0000
0000
,
0010
0010
0010
0000
1000
0000
0000
0001
,
0000
0000
0010
0100
0010
0000
0000
0000
0001
0000
1000
0000
0010
0000
0100
0000
,
0001
1000
0100
0010
,
0001
1000
0010
0100
,
0001
0000
1000
0000
0100
0000
0010
0000
0001
1000
0001
1000
0001
1000
0100
0000
,
1000
0000
0001
0010
2000
0000
0000
0000
3000
0000
0000
0000
0000
0000
0000
0000
,
0210
0000
0000
0000
1300
0000
0010
0100
1000
0000
0000
0000
0100
0000
0001
0000
,
1000
0001
1000
0000
0100
0000
0010
0100
0001
0000
0000
0000
0100
0000
1000
0000
,
0001
0100
0010
1000
0100
0010
0001
0100
,
0010
0000
0000
0000
0110
0000
0000
0000
1000
0010
0100
0000
2001
0000
0000
0000
,
3100
0000
1100
0001
1001
0000
1100
1000
,
0101
0001
1100
1000
0102
0000
1003
0100
,
0010
0100
0010
0100
0010
0000
0001
0000
1001
0000
0000
0000
1010
0000
0101
0000
,
1010
0000
0000
0000
1000
0100
1000
0001
0020
0000
0000
0000
0230
0000
0000
0000
,
1300
0000
0011
0100
0011
0000
1010
0100
,
2010
0000
0000
0000
3001
0010
0100
0010
0001
0000
1000
0000
0100
0000
0000
0000
,
1000
0100
1000
0000
0001
0100
0001
0000
1000
0100
0010
0001
0100
0001
1000
0000
,
0001
0010
0001
0000
1000
0010
1000
0000
0001
0000
0100
0010
0100
0010
0100
0010
,
1000
0101
1100
0101
,
1100
0000
0010
0000
1001
0000
0000
0000
0110
0000
0000
0000
1001
0000
0001
0100
,
0010
0000
1010
0000
0011
0000
1010
0100
,
2001
0000
0000
0000
0000
0000
0000
0000
3100
0010
0100
0010
0001
0000
0010
0001
,
1000
0010
0010
0001
1000
0100
0100
0001
,
1000
0010
0010
0001
1000
0100
0100
0001
,
1000
0000
0100
0000
0010
0000
0001
0000
1000
0010
0100
0010
2000
0000
0000
0000
,
3001
0000
0010
0100
1000
0000
0001
0000
1000
0000
0010
0000
1000
0000
0001
0000
,
0010
0000
0001
0010
0100
0010
1000
0000
0020
0000
0031
0000
2000
0000
3100
0000
,
0002
0103
2000
3100
0002
0103
1000
1000
,
1000
0001
0010
0000
0002
0000
0103
0000
0010
0000
0100
0010
1000
0000
0001
1000
,
0100
1000
0001
0000
0100
0000
0010
0000
1000
0000
1000
0000
1000
0000
0001
0000
,
0011
0000
0000
0000
1100
0000
0000
0000
1000
0100
1000
0000
0001
0000
0100
0000
,
1000
0000
0000
0000
1100
0000
1100
0000
0000
0000
0101
0000
0000
0000
0100
0010
,
2000
0000
0000
0000
3001
0000
0000
0000
1000
0000
0100
0010
0001
0000
1000
0001
,
1000
0000
0000
0110
0000
0000
1001
0000
0000
0000
0001
0000
0010
0000
0001
0000
,
0200
0000
0000
0000
0310
0000
0000
0000
1000
0010
0100
0000
0011
0000
1100
0000
,
0011
0000
0000
0000
1001
0000
0000
0000
1000
0010
0100
0000
0001
0000
0001
0000
,
0001
0000
1000
0100
0010
0100
0001
0000
0200
0000
1300
0000
0001
0000
0001
0100
,
0010
1000
0001
0000
0010
0000
0100
0000
0010
0000
0100
1000
0001
0000
0100
0010
,
1000
0000
0000
0000
1001
0000
0000
0000
0001
0010
0100
1000
0001
0100
0010
0000
,
0110
0000
1000
0001
0010
0000
0100
0000
0001
0000
0001
0000
0001
0000
0100
1000
,
0001
0000
0100
0000
0100
0000
0010
0100
0001
0000
0010
0100
1000
0000
0001
0100
,
0010
0100
0010
0100
0001
0000
0001
0000
2000
0000
0000
0000
0000
0000
0000
0000
,
3100
0001
0100
0020
0000
0031
0100
0020
,
0000
0031
0010
0200
0000
0301
0010
0200
,
0000
0301
0100
0020
0000
0031
0100
2000
,
0000
3002
0000
0023
0000
2030
0000
3001
;

//--------------- dance-single - ----------------
#NOTEDATA:;
#STEPSTYPE:dance-single;
#DESCRIPTION:;
#DIFFICULTY:Challenge;
#METER:19;
#RADARVALUES:0,0,0,0,0;
#CREDIT:Talkion;
#NOTES:
0000
0000
0000
0000
,
0000
0000
0000
0000
,
0000
0000
0000
0000
,
0000
0000
0000
0000
,
0000
0000
0000
0000
,
0000
0000
0000
0000
,
0000
0000
0000
0000
,
0000
0000
0000
0000
,
0000
0000
0000
0000
,
0M00
0000
0000
0M00
0000
0000
0M00
0000
,
1002
0000
0000
0000
0103
0000
0010
0100
0010
0000
1000
0000
0001
0000
0020
0000
,
0000
0000
0031
0000
0010
0000
0100
1000
0100
0000
1000
0000
0001
0000
0000
0000
,
0100
0100
0200
0000
0310
1000
0001
0010
,
0010
0000
0010
0000
0020
0000
0000
0000
0130
0000
1000
0000
0001
0100
0001
0100
,
0020
1030
0000
1000
,
2001
0000
0000
0000
3100
0000
0000
0000
0000
0000
0000
0000
0100
0010
0001
0000
,
1000
0000
1000
0000
0010
0000
0010
0000
0100
0000
0001
0000
1000
0000
0100
0010
,
0001
1000
0100
1000
0001
1000
0100
0010
0001
1000
0001
0100
0001
1000
0001
0100
,
0010
0000
0010
0000
1000
0000
0000
0000
0001
0000
0000
0000
0100
0001
0010
0000
,
0001
0000
0010
0001
0100
0000
0010
0000
1000
0000
1000
0000
0001
1000
0010
1000
,
0100
0010
0001
0000
1000
0000
0000
0000
0010
0000
0000
0000
0100
0000
0100
0000
,
0010
0000
0000
0000
0000
0000
1000
0000
0001
0000
1000
0000
0001
0000
0000
0000
0000
0000
0010
0000
0000
0000
0000
0000
0010
0000
0000
0000
0000
0000
0100
0000
0000
1000
0000
0000
0001
0000
0000
0000
0000
0000
0000
0000
0000
0000
0000
0000
,
0100
0010
1000
0010
0100
0000
0000
0000
0001
0000
0000
0000
0010
0001
0100
0000
,
0001
0000
0100
0001
0010
0000
0100
0000
1000
0000
1000
0000
0001
1000
0100
1000
,
0010
0100
0001
0000
1000
0000
0000
0000
0100
0000
0000
0000
0010
0000
0010
0000
,
0100
0000
0000
0000
0000
0000
1000
0000
0001
0000
1000
0000
0001
0000
0000
0000
0000
0000
0100
0000
0000
0000
0000
0000
0100
0000
0000
0000
0000
0000
0010
0000
0000
1000
0000
0000
0001
0000
0000
0000
0000
0000
0000
0000
0000
0000
0000
0000
,
1002
0000
0000
0000
0000
0000
0000
0000
0013
0100
0010
0100
0010
0100
0010
0100
,
1000
0000
0001
0100
0010
0000
1001
0000
0100
0000
1001
0000
0001
1000
0010
1000
,
0100
0010
0001
0000
0011
0000
0000
0000
1100
0000
1100
0000
0010
0000
1001
0000
,
0000
0000
0000
0000
0000
0000
0001
0000
1000
0000
0001
0000
1000
0000
0000
0000
0000
0000
0010
0000
0000
0000
0000
0000
0110
0000
0000
0000
0000
0000
0100
0000
0000
0001
0000
0000
1000
0000
0000
0000
0000
0000
0000
0000
0000
0000
0000
0000
,
0001
0000
0010
0000
0100
0000
1001
0000
0010
0000
1001
0000
0100
0000
1000
0100
,
0010
0000
0010
0000
0001
0000
1000
0000
0010
0100
0001
0010
0100
0000
1000
0000
,
0001
0100
0001
0100
0010
0100
0010
0100
0010
1000
0010
1000
0001
1000
0010
1000
,
0001
0100
0010
1000
0001
0010
0100
1000
0001
0100
0010
1000
0100
1000
0001
0010
,
0200
0000
0000
1000
0000
0000
2300
0000
,
0000
0000
0001
0000
,
3010
0000
0000
0000
0100
0000
0000
0001
,
0000
0000
1000
0100
1000
0000
0000
0000
0100
0000
0010
0000
0001
0000
1000
0000
,
0010
0100
0001
1000
,
0100
0000
0010
0000
0001
0000
1000
0001
,
1000
0010
0100
0010
1000
0000
0001
0000
0010
0001
1000
0001
0010
0001
1000
0100
,
0010
0000
0000
0000
0000
0000
0000
0000
0000
0000
0000
0000
0000
0000
0000
0000
0000
0000
0000
0000
0000
0000
0000
0000
0100
0000
0000
0000
0000
0000
0000
0000
0000
0000
0000
0000
0100
0000
0000
0000
0000
0000
0000
0000
0000
0000
0000
0000
0002
0000
0000
0000
0000
0000
0000
0000
0000
0000
0000
0000
0000
0000
0000
0000
0000
0000
0000
0000
0000
0000
0000
0000
0000
0000
0000
0000
0000
0000
0000
0000
0000
0000
0000
0000
0000
0000
0000
0000
0000
0000
0000
0000
0000
0000
0000
0003
000M
0000
0000
0000
0000
0000
0000
0000
0000
0000
0000
0000
0000
0000
0000
0000
0000
0000
0000
0000
0000
0000
0000
0000
0000
0000
0000
0000
0000
0000
0000
0000
0000
0000
0000
0000
0000
0000
0000
0000
0000
0000
0000
0000
0000
0000
0000
0000
0000
0000
0000
0000
0000
0000
0000
0000
0000
0000
0000
0000
0000
0000
0000
0000
0000
0000
0000
0000
0000
0000
0000
0000
0000
0000
0000
0000
0000
0000
0000
0000
0000
0000
0000
0000
0000
0000
0000
0000
0000
0000
0000
0000
0000
0000
0000
0000
,
1001
0000
0010
0000
1002
0013
0100
2000
,
0000
0000
3001
0000
0100
0010
0100
0010
1000
0000
0000
0000
0001
0000
1000
0001
,
0020
0000
0000
0000
0130
0000
0010
0100
0001
0000
0000
0000
0100
0000
1000
0000
,
0100
0100
0001
0000
1000
0000
0010
0100
1000
0000
0000
0000
0100
0000
0001
0000
,
0100
0100
1000
0000
0001
0000
0010
0100
0001
0000
0000
0000
0100
0000
1000
0000
,
0001
0000
0010
0100
1000
0001
0010
0001
1000
0000
0010
0010
0000
0100
0100
0000
,
0002
0000
1003
0100
0002
0000
0103
0100
,
1000
0001
1000
0010
0001
0000
0010
0010
,
2000
0000
0000
3001
0000
0000
0010
0000
1000
0000
0010
0000
0000
0000
0010
0000
,
0002
0000
0000
1003
0000
0000
0010
0000
0001
0000
0010
0000
0010
0000
0010
0000
,
1000
0000
0001
0010
0100
0000
1000
0001
0010
0001
0100
0000
0010
0000
1000
0000
,
0010
0010
0001
0000
1000
0000
0100
0010
0001
0000
1000
0000
0100
0100
0001
0000
,
0100
0000
0000
0100
0000
0000
1000
0000
0000
0000
0000
0000
0001
0000
0000
0000
0000
0000
0100
0000
0000
0010
0000
0000
1000
0000
0000
0000
0000
0000
0010
0000
0000
0010
0000
0000
0001
0000
0000
0000
0000
0000
0010
0000
0100
0000
0010
0000
,
0100
0000
0001
0000
0100
1000
0001
1000
0010
0100
0000
0100
0000
0100
0001
1000
,
0010
0000
0100
0010
1000
0000
0100
0010
0001
0000
0100
0010
1000
0000
0100
0010
,
0001
0000
1000
0100
1000
0000
0001
0100
0010
1000
0100
1000
0001
0000
0100
0000
,
0010
0000
0010
0000
0100
0000
0100
0000
0001
1000
0100
0010
0001
1000
0010
0100
,
0002
0000
0000
0000
0100
0100
0103
0110
,
0120
0000
1000
0030
M020
0100
0100
0000
,
1000
0000
0001
0030
002M
0000
0000
0000
,
0230
0000
0001
0300
020M
0010
0010
0000
,
0001
0000
1000
0300
M200
0000
0000
0000
,
0320
0000
1000
0030
M020
0100
0100
0000
,
1000
0000
0001
0030
001M
1000
0000
0020
,
1000
0100
1000
0100
,
0032
0000
0000
0000
0000
0000
0000
0000
0013
0100
0001
0000
1000
0100
0010
0000
,
0001
1000
0100
1000
0001
0100
0010
0100
0001
1000
0010
1000
0001
0010
0100
0010
,
0001
1000
0010
0100
0001
1000
0100
1000
0001
0100
0001
1000
0100
0010
0001
1000
,
0010
0100
0010
1000
0001
0010
0001
1000
0100
0010
0100
1000
0001
0100
0001
1000
,
0010
0100
0001
1000
0100
0010
0001
1000
0010
0100
0001
0000
1001
0000
0000
0000
,
1000
0001
0010
0001
1000
0001
0010
0001
1000
0001
0010
0001
1000
0001
0010
0001
,
0100
0010
1000
0001
0010
0100
1000
0001
0100
0010
1000
0001
0010
0000
0000
0000
,
2100
0000
0000
0000
3001
0000
0000
0100
,
0000
0100
0100
0000
0010
0000
0000
0000
,
0100
0100
0100
0000
0001
0000
0000
1000
,
0000
0000
0001
0010
0001
0000
0000
0000
0010
0000
0100
0000
1000
0000
0001
0000
,
0100
0010
1000
0001
,
0010
0000
0100
0000
1000
0000
0001
1000
,
0010
0100
0010
0000
1000
0000
0001
0000
0010
0001
1000
0001
0010
0001
1000
0001
,
0010
0000
0000
0000
0000
0000
0000
0000
0000
0000
0000
0000
0000
0000
0000
0000
0000
0000
0000
0000
0000
0000
0000
0000
0100
0000
0000
0000
0000
0000
0000
0000
0000
0000
0000
0000
0100
0000
0000
0000
0000
0000
0000
0000
0000
0000
0000
0000
0002
0000
0000
0000
0000
0000
0000
0000
0000
0000
0000
0000
0000
0000
0000
0000
0000
0000
0000
0000
0000
0000
0000
0000
0000
0000
0000
0000
0000
0000
0000
0000
0000
0000
0000
0000
0000
0000
0000
0000
0000
0000
0000
0000
0000
0000
0000
0003
000M
0000
0000
0000
0000
0000
0000
0000
0000
0000
0000
0000
0000
0000
0000
0000
0000
0000
0000
0000
0000
0000
0000
0000
0000
0000
0000
0000
0000
0000
0000
0000
0000
0000
0000
0000
0000
0000
0000
0000
0000
0000
0000
0000
0000
0000
0000
0000
0000
0000
0000
0000
0000
0000
0000
0000
0000
0000
0000
0000
0000
0000
0000
0000
0000
0000
0000
0000
0000
0000
0000
0000
0000
0000
0000
0000
0000
0000
0000
0000
0000
0000
0000
0000
0000
0000
0000
0000
0000
0000
0000
0000
0000
0000
0000
0000
,
2001
0000
0000
0000
3010
0000
0100
0010
0001
0000
0000
0000
0010
0000
1000
0000
,
0010
0010
0001
0000
1000
0000
0100
0010
1000
0000
0000
0000
0010
0000
0001
0000
,
0010
0010
1000
0000
0010
0010
0001
0000
0010
0010
1000
0000
0010
0010
0001
0000
,
0100
0010
1000
0000
0100
0010
0001
0000
0100
0010
1000
0000
2001
0000
0000
0000
,
3100
0000
1200
0310
1001
0000
0201
0310
,
1200
0310
0201
0310
1200
0310
0201
0310
,
0001
0010
0100
0010
1000
0000
0001
0000
0110
0000
1000
0000
0011
0000
1100
0000
,
0011
0000
0000
0000
0001
0010
1000
0001
0200
0000
0000
0000
2300
0000
0000
0000
,
3001
0000
0021
0130
1020
0130
0021
0130
,
1020
0000
0130
0000
1000
0100
0010
0100
0001
0000
1000
0100
0010
0000
0000
0000
,
0001
1000
0100
1000
0001
0100
0010
0100
0001
1000
0010
1000
0001
0010
0100
0010
,
0001
1000
0010
0100
0001
0000
1000
0000
0100
0000
0001
0100
0001
0100
0001
0100
,
1000
M1M1
11MM
M1M1
,
11MM
0000
0000
0000
0000
0000
M1M1
0000
0000
0000
0000
0000
11MM
0000
0000
0000
0000
0000
1MM1
0000
0000
0010
0100
0010
,
0100
0000
1M1M
0000
MM11
0000
1M1M
0100
,
2001
0000
0000
0000
0000
0000
0000
0000
3100
0010
0100
0010
0001
0000
0010
0001
,
1000
0010
0010
0001
1000
0100
0100
0001
,
1000
0010
0010
0001
1000
0100
0100
0001
,
1000
0000
0100
0000
0010
0000
0001
0000
1000
0010
0100
0010
0002
0000
0000
0000
,
0013
0000
0000
0000
0000
0000
0100
0000
0010
0000
0100
0000
0010
0000
0000
0000
0000
0000
1000
0000
0000
0000
0000
0000
0001
0000
0000
0010
0000
0000
0100
0000
0000
0010
0000
0000
0001
0000
0000
1000
0000
0000
0100
0000
0000
1000
0000
0000
,
0010
0000
1000
0010
0100
0010
0001
0000
0010
0100
0001
0000
0010
0100
0001
0000
,
0100
0010
0001
0000
0100
0010
0001
0000
0010
1000
0100
0000
0010
0000
0010
0000
,
0010
0001
1000
0000
0001
0100
0010
0000
1000
0000
0010
0100
0001
0000
1000
0001
,
0010
0100
0001
0000
0100
0000
1000
0000
0001
0000
0001
0000
0001
0000
0100
0000
,
1010
0000
0000
0000
0101
0000
0000
0000
0001
0100
0010
0000
1000
0000
0001
0000
,
0010
0000
0100
0010
1000
0000
1010
0000
0000
0000
0011
0000
0000
0000
0010
0100
,
2000
0000
0000
0000
0000
0000
0000
0000
0000
0000
0000
0000
3001
0000
0000
0000
0000
0000
0000
0000
0000
0000
0000
0000
1000
0000
0000
0000
0000
0000
0010
0000
0000
0100
0000
0000
0001
0000
0000
0000
0000
0000
1000
0000
0001
0000
1000
0000
,
0001
0000
0000
0110
0000
0000
1001
0000
0000
0000
1000
0010
0100
0000
0001
0000
,
1002
0000
0000
0000
0013
0000
0000
0000
0001
0010
0100
0000
1010
0000
0101
0000
,
2010
0000
0000
0000
3001
0000
0000
0000
1000
0010
0100
0000
0011
0000
1100
0000
,
0011
0000
1000
0100
0010
0100
0001
0000
0100
0010
0001
0000
1000
0001
0100
0010
,
0001
0000
0000
0010
0000
0000
0100
0000
0000
0010
0000
0000
0001
0000
0000
0010
0000
0000
0100
0000
0000
0000
0000
0000
0001
0000
0000
0000
0000
0000
1000
0000
0000
0100
0000
0000
0010
0000
0000
0000
0000
0000
0001
0000
1000
0000
0001
0000
,
1000
0000
0000
0000
1001
0000
0000
0000
0001
0010
0001
1000
0010
0100
1000
0000
,
1100
0000
0100
0001
1000
0001
0010
0000
0100
0010
1000
0000
1000
0000
0001
0100
,
1000
0000
0010
0000
0010
0000
0100
0010
1000
0000
0100
0010
0001
0000
1000
0100
,
1000
0001
0100
0010
0001
0000
0001
0000
1000
0100
1000
0100
1000
0100
1000
0100
,
0002
0000
0000
0000
,
0000
0000
0000
0000
,
0000
0000
0000
0000
,
0000
0000
0000
0000
,
0003
0000
0000
0000
;
