#TITLE:LASER CRUSTER;
#SUBTITLE:;
#ARTIST:L.E.D.;
#TITLETRANSLIT:;
#SUBTITLETRANSLIT:;
#ARTISTTRANSLIT:;
#GENRE:NU-SKOOL BREAKS;
#CREDIT:;
#MUSIC:LASER CRUSTER.ogg;
#BANNER:LASER CRUSTER.png;
#BACKGROUND:LASER CRUSTER-bg.png;
#CDTITLE:;
#SAMPLESTART:12.624;
#SAMPLELENGTH:15.000;
#SELECTABLE:YES;
#OFFSET:1.562;
#BPMS:0.000=152.000;
#STOPS:;
#BGCHANGES:0.000=LASER CRUSTER.avi=1.000=0=0=1,
99999.000=-nosongbg-=1.000=0=0=0=StretchNoLoop====
;
#FGCHANGES:;

//--------------- dance-single - forcednature ----------------
#NOTES:
     dance-single:
     forcednature:
     Beginner:
     6:
     0,0,0,0,0:
0000
0000
0000
0000
,
0000
0000
0000
0000
,
0000
0000
0000
0000
,
0000
0000
0000
0000
,
0000
0000
0000
0000
,
2002
0000
0000
0000
,
0000
0000
3003
0000
,
0010
0010
0010
0010
,
0100
0000
0000
0100
0000
0000
0100
0000
,
1001
1000
0000
0001
,
0100
0001
0000
0010
,
0100
1000
0000
0010
,
1000
0001
0100
0100
,
1001
0001
0000
1000
,
0100
0010
0000
0100
,
1000
0001
0000
0100
,
0010
1000
0001
0000
,
1001
0000
0001
0100
,
0010
0000
1000
0001
,
1000
0100
0100
1000
,
0001
0000
0100
0010
,
1001
1000
0010
0000
,
0100
0001
0010
0100
,
1001
0001
0100
0000
,
0010
0000
0000
0010
0000
0000
0100
0000
0000
0100
0000
0000
0010
0000
0000
0000
,
2002
0000
0000
0000
,
0000
0000
3003
0000
,
0220
0000
0330
0000
,
1000
0000
0000
0001
0000
0000
1000
0000
0000
0001
0000
0000
0100
0000
0000
0000
,
1001
0001
1000
0000
,
0010
0010
0010
0100
,
0001
1000
1000
0100
,
0010
0010
0100
0000
,
1001
0000
0001
0001
,
1000
0010
1000
1000
,
1000
1000
0100
0010
,
0001
0001
0001
0000
,
1001
0100
1000
0000
,
0001
0100
0001
0000
,
0010
0100
1000
0010
,
0100
0001
1000
0000
,
1001
0000
0001
1000
,
0001
0100
0001
0000
,
1000
1000
0100
0100
,
0010
0010
0010
0000
0100
0000
0000
0000
,
2002
0000
0000
0000
,
0000
0000
0000
0000
,
0000
0000
0000
0000
,
3003
0000
0000
0010
,
2002
0000
0000
0000
,
0000
0000
3003
0000
,
0100
0100
0100
0000
0100
0100
0100
0000
,
0010
0000
0000
0010
0000
0000
0010
0000
0000
0010
0000
0000
0010
0000
0000
0000
,
1001
0001
0100
0001
,
1000
0010
1000
0100
,
0010
0100
1000
0001
,
0100
0010
1000
0001
,
1001
0001
1000
0100
,
0010
0100
1000
0001
,
0100
0100
0010
1000
,
0001
0010
0100
0000
,
1001
0000
0001
0100
,
0001
1000
0010
1000
,
0100
0000
0010
0100
,
1000
0000
0001
0000
0100
0100
0100
0000
,
1001
0010
1000
0001
,
0010
0100
1000
0001
,
1001
0100
0010
1000
,
0001
0000
0000
1000
0000
0000
0001
0000
0000
1000
0000
0000
0010
0000
0000
0000
,
2002
0000
0000
0000
,
0000
0000
0000
0000
,
0000
0000
0000
0000
,
3003
0000
0000
0000
;

//--------------- dance-single - forcednature ----------------
#NOTES:
     dance-single:
     forcednature:
     Easy:
     10:
     0,0,0,0,0:
0000
0000
0000
0000
,
0000
0000
0000
0000
,
0000
0000
0000
0000
,
0000
0000
0000
0000
,
0000
0000
0000
0000
,
2002
0000
0000
0000
,
0000
0000
3003
0000
,
0100
0100
0100
0100
0100
0100
0100
0000
,
1000
0000
0000
0001
0000
0000
0100
0000
0000
0010
0000
0000
0100
0000
0000
0000
,
1001
0000
0001
0010
0000
0100
1000
0100
,
1000
0000
0001
0100
0000
0010
1000
0001
,
0010
0000
0100
0010
0000
0001
1000
0010
,
0100
0000
0000
0000
0001
0000
1000
0000
0100
0000
0000
1000
0000
0000
0001
0000
,
0101
0000
0001
1000
0000
0010
1000
0100
,
0010
0000
0100
1000
0000
0010
0100
0001
,
1000
0000
0100
0010
0000
0001
0100
0001
,
0000
0000
1000
0000
0010
0000
1000
0000
0001
0000
0000
0010
0000
0000
0100
0000
,
1002
0000
1003
0020
0000
1030
0001
0100
,
0002
0000
0013
0200
0000
1300
0010
1000
,
0002
0000
1003
0200
0000
0310
0001
1000
,
0002
0000
0000
0000
0103
0000
0010
0000
1000
0000
0000
0100
0000
0000
0010
0000
,
1001
0000
0001
0100
0000
0010
1000
0001
,
1000
0000
0100
0010
0000
0100
1000
0001
,
1001
0000
0001
0100
0000
0010
1000
0001
,
0010
0000
0000
0100
0000
0000
0110
0000
0000
0001
0000
0000
1000
0000
0000
0000
,
2001
0100
0100
0100
,
0100
0100
0100
3100
,
1002
0100
0100
0103
,
1001
0000
0000
1000
0000
0000
0110
0000
0000
0100
0000
0000
1001
0000
0000
0000
,
1000
0100
1000
0000
0010
0100
1000
0100
,
0001
0000
1000
0100
0001
0100
1000
0000
,
0001
0100
0010
0000
1000
1000
0001
0000
,
0110
0000
0001
0100
0001
1000
0010
0000
,
1001
0000
1000
0100
0010
0000
1000
0010
,
0001
0000
1000
0001
0100
1000
0100
0000
,
0001
0010
0100
0100
0010
0000
0001
1000
,
0000
0000
0010
0000
0100
0000
0001
0000
1000
0000
0000
0010
0000
0000
1000
0000
,
1001
0000
0001
0010
0000
0100
0001
0100
,
1000
0000
0010
1000
0010
0000
0100
0001
,
0100
0000
0010
1000
0000
0001
0010
0001
,
0100
0000
0000
0000
0010
0000
1000
0000
0001
0000
0000
0100
0000
0000
0010
0000
,
1001
0000
1000
0100
0000
0010
1000
0010
,
0001
0000
1000
0001
0100
1000
0100
0000
,
1001
0000
1000
0100
0000
1000
0010
1000
,
0001
0000
0000
0000
0100
0000
0001
0000
0010
0000
0000
0100
0000
0000
0010
0000
,
2002
0000
0000
0000
,
0000
0000
0000
0000
,
0000
0000
0000
0000
,
0000
0000
0000
0000
3003
0000
0010
0010
,
0220
0000
0000
0000
,
0000
0000
0330
0000
,
0100
0100
0100
0100
0100
0100
0100
0000
,
1001
0000
0000
0100
0000
0000
1001
0000
0000
0010
0000
0000
0100
0000
0000
0000
,
1001
0000
1000
0100
1000
0001
0100
0010
,
1000
0000
0001
0010
1000
0010
0100
1000
,
0001
0000
1000
0010
0100
0001
1000
0100
,
0010
0000
0100
1000
0001
0100
0010
1000
,
1001
0000
0001
0010
0001
0100
0010
0100
,
0001
0000
1000
0100
0010
0001
0100
1000
,
0100
0000
0001
0010
1000
0010
0100
1000
,
0001
0000
0000
0000
1000
0000
0010
0000
0100
0000
0000
0001
0000
0000
0010
0000
,
1002
0000
1003
0020
0000
1030
0001
0010
,
0200
0000
1300
0002
0000
0103
0001
1000
,
0020
0000
1030
0200
0000
0301
0100
1000
,
0002
0000
0000
0000
0103
0000
0010
0000
1000
0000
0000
0001
0000
0000
0010
0000
,
1001
0001
0100
0010
1000
0100
0010
0001
,
0100
1000
0100
0001
1000
0010
1000
0001
,
1001
1000
0100
0001
0100
0010
0001
1000
,
1001
0000
0000
0010
0000
0000
0110
0000
0000
1000
0000
0000
0100
0000
0001
0000
,
2002
0000
0000
0000
,
0000
0000
0000
0000
,
0000
0000
0000
0000
,
3003
0000
0000
0000
;

//--------------- dance-single - forcednature ----------------
#NOTES:
     dance-single:
     forcednature:
     Medium:
     13:
     0,0,0,0,0:
0000
0000
0000
0000
,
0000
0000
0000
0000
,
0000
0000
0000
0000
,
0000
0000
0000
0000
,
0000
0000
0000
0000
,
2002
0000
0000
0000
,
0000
0000
0000
3003
,
0001
0100
1000
0100
0001
0100
1000
0100
,
0010
0000
0000
1001
0000
0000
0100
0000
0000
1001
0000
0000
0010
0000
0000
0000
,
1000
0000
0000
0001
0100
0000
0001
0000
0000
1000
0100
0000
0010
0000
0100
0000
,
1000
0000
0000
0001
0100
0000
0001
0000
0000
1000
0010
0000
1000
0000
0100
0000
,
0010
0000
0000
0100
1000
0000
0010
0000
0000
0100
0001
0000
0010
0000
0100
0000
,
0010
0000
0000
0001
1000
0000
0010
0000
0100
0001
0000
1000
0010
0000
0010
0000
,
1000
0000
0000
0100
0010
0000
0100
0000
0000
1000
0001
0000
0100
0000
1000
0000
,
0100
0000
0000
0010
1000
0000
0001
0000
0000
0010
0001
0000
0100
0000
0010
0000
,
1000
0001
0000
1000
0100
0000
0010
0001
0010
0000
0000
0100
1000
0000
0001
0000
,
0000
0100
0001
0000
1000
0000
0010
0000
0010
1000
0000
0001
0010
0000
0100
0000
,
1001
0001
0100
1000
0001
0010
1000
0001
,
1000
0100
0001
1000
0010
0001
1000
0001
,
1000
0010
0001
1000
0100
0001
1000
0001
,
0010
0000
1000
0000
0001
0000
0100
0000
1000
0001
0000
1000
0010
0000
0100
0000
,
1001
0000
0000
0001
0100
0000
0010
0000
0000
1000
0001
0000
1000
0000
0100
0000
,
0010
0000
0000
1000
0010
0000
0001
0000
0000
1000
0001
0000
0100
0000
0010
0000
,
1001
0000
0000
0001
0100
0000
0010
0000
0000
1000
0100
0000
0010
0000
0100
0000
,
1100
0000
0000
0101
0000
0000
0011
0000
0000
1010
0000
0000
0100
0000
0010
0000
,
1000
0001
1000
0100
0010
0001
0100
0010
,
1000
0000
0000
0000
0001
0000
0010
0000
0100
0000
1000
0001
1000
0000
0010
0000
,
0100
0000
0100
0000
0001
0000
0010
0000
0100
0000
1000
0000
0010
0000
0100
0001
,
0100
0000
0000
1010
0000
0000
0110
0000
0000
0011
0000
0000
0100
0000
0010
0000
,
1001
0001
0100
0010
1000
0001
1000
0100
,
0010
0000
0000
0000
1000
0000
0001
0000
0100
0000
1000
0000
0001
0000
1000
0001
,
1000
0000
0010
0000
0001
0000
0010
0000
0100
0001
0100
0000
0010
1000
0010
0000
,
0100
0000
0100
0000
1001
0000
0001
0000
1000
0010
0000
1000
0001
0000
0010
0000
,
1001
1000
0100
0001
0100
0010
0001
1000
,
0010
0000
0000
0000
0100
0000
0001
0000
0100
0000
0100
0000
0010
0000
1000
0001
,
1000
0000
0100
0000
0010
0001
0010
0001
0100
0000
0100
0001
0001
0000
0010
0000
,
0000
0100
1000
0000
0001
0000
1000
0000
1000
0010
0000
1000
0001
1000
0001
0000
,
1000
0100
0001
0100
0010
1000
0010
0100
,
1000
0000
0000
0000
0010
0000
0100
0000
0001
0000
1000
0000
0010
0000
0000
0010
,
0100
0001
0100
0001
0100
0000
0010
0000
1000
0000
0001
1000
0001
0000
0010
0000
,
0000
0100
1000
0000
0001
0000
0010
0100
0010
0001
0000
1000
0010
1000
0010
0000
,
1001
0000
0000
0001
0100
0000
0010
0000
1000
0001
1000
0000
0100
0000
0010
0000
,
0100
0000
0000
1000
0001
0000
1000
0000
0010
0100
0010
0000
1000
0000
0100
0000
,
0110
0000
0000
0001
1000
0000
0010
0000
0100
0001
0100
0000
1000
0000
0100
0000
,
0000
0010
1000
0000
0001
0000
0010
0000
0010
0000
0001
1000
0001
1000
0001
0000
,
2000
0000
0000
0000
,
0000
0000
0000
0000
,
0000
0000
0000
0000
,
0000
0000
0000
0000
0000
0000
0000
0000
3000
0000
0000
0000
0001
1000
0001
1000
,
0002
0000
0000
0000
,
0000
0000
0000
0003
,
1000
0100
0001
0100
1000
0100
0001
0100
,
1000
0000
0000
0110
0000
0000
0101
0000
0000
1100
0000
0000
0001
0000
1000
0000
,
0001
0000
0000
0010
0100
0000
1000
0000
0000
0001
0100
0000
0010
0000
1000
0001
,
1000
0000
0000
0100
0010
0000
0100
0000
0000
1000
0001
0000
1000
0000
0010
0100
,
0001
1000
0001
1000
0001
0000
0010
0000
0000
0001
0100
0000
0010
1000
0010
1000
,
0010
0000
0010
0000
1001
0000
1000
0000
0001
0010
0000
0100
1000
0100
1000
0000
,
1001
0000
0000
0001
0100
0000
0010
0000
0000
1000
0100
0000
0010
0000
0001
0000
,
1000
0000
0000
0010
0100
0000
0001
0000
0000
0010
0100
0000
1000
0000
0001
0100
,
0001
0000
0010
0000
0001
1000
0001
1000
0010
0000
0000
0100
0001
0000
0100
0000
,
0000
0010
1000
0000
0001
0000
1000
0000
1000
0100
0000
0010
0001
0010
0001
0000
,
1001
1000
0100
0010
1000
0001
0100
0010
,
0001
1000
0010
0100
1000
0001
0010
0100
,
0001
1000
0100
0010
1000
0001
0100
0010
,
0001
0000
1000
0000
0010
0000
0100
0000
0001
1000
0000
0001
0100
0001
0100
0000
,
1001
0000
0001
1000
0100
0000
0010
0000
0001
0100
0010
0000
1000
0000
0001
0000
,
1000
0000
0100
0010
0100
0000
1000
0000
0001
0100
0010
0000
1000
0000
0001
0000
,
1001
0000
1000
0100
0010
0000
0100
0000
1000
0001
0100
0000
0010
1000
0010
1000
,
0010
0000
0000
0110
0000
0000
0101
0000
0000
1100
0000
0000
0010
0000
1000
0001
,
2000
0000
0000
0000
,
0000
0000
0000
0000
,
0000
0000
0000
0000
,
3000
0000
0000
0000
;

//--------------- dance-single - forcednature ----------------
#NOTES:
     dance-single:
     forcednature:
     Hard:
     15:
     0,0,0,0,0:
0000
0000
0000
0000
,
0000
0000
0000
0000
,
0000
0000
0000
0000
,
0000
0000
0000
0000
,
0000
0000
0000
0000
,
2002
0000
0000
0000
,
0000
0000
0000
3003
,
1000
0000
0001
1000
0001
1000
0001
1000
0001
1000
0001
1000
0001
1000
0001
1000
,
0001
0000
0000
0100
0001
0000
1001
0000
0000
0100
1000
0000
0001
0000
0100
0001
,
0100
0000
0001
1000
0100
0000
0010
0000
0100
1000
0010
0000
0100
0000
0001
0000
,
1000
0000
0100
0010
0100
0000
1000
0000
0001
0100
0010
0000
1000
0000
0001
0000
,
0010
0000
0100
0010
0001
0000
0100
0000
0010
1000
0001
0000
1000
0000
0100
0000
,
0001
0000
0100
0010
0001
0000
1000
0010
0100
0001
0000
1000
0100
1000
0100
0000
,
1001
0000
0001
0010
0100
0000
1000
0000
0010
0100
0001
0000
1000
0000
0100
0000
,
0010
0000
0100
1000
0001
0000
1000
0000
0010
0100
0001
0000
0010
0000
0100
0000
,
1000
0100
1000
0000
1001
0000
0001
0100
0001
0000
0010
0000
1000
0000
0010
0000
,
0100
1000
0010
0000
0100
0000
0010
0100
0001
1000
0000
0001
0010
0100
1000
0000
,
0001
0000
0000
0010
1000
0000
0001
0000
0000
0100
1000
0000
0010
0000
1000
0000
,
0001
0000
0000
0100
0010
0000
1000
0000
0000
0100
0010
0000
0100
1000
0100
0000
,
0010
0000
0000
0001
1000
0000
0010
0000
0000
1000
0001
0000
0100
0000
0001
0000
,
0010
0000
0000
0100
1000
0000
0010
1000
0010
1000
0000
0001
0010
0001
0010
0000
,
1001
0000
1000
0010
0100
0000
0001
0000
0010
0100
0010
0000
0001
0000
1000
0000
,
0010
0000
0001
0010
0100
0000
0001
0000
1000
0100
0010
0000
0100
0000
1000
0001
,
1000
0000
0010
0100
0001
0000
0010
0000
0100
1000
0010
0000
1000
0100
1000
0100
,
0010
0000
0000
0001
0100
0000
1001
0000
0000
1000
0100
0000
0010
0000
0001
1000
,
0002
2000
0000
0000
0000
0000
0000
0000
,
0000
0000
0000
3003
,
2000
0000
0002
0000
0000
0000
0000
0000
0000
0000
0000
0000
3003
0000
1000
0001
,
1000
0000
0000
0010
0100
0000
0101
0000
0000
0001
1000
0000
0100
0000
0010
0001
,
0010
0000
0100
0000
0001
0000
0100
0000
1000
0000
0010
0000
0001
0000
0010
1000
,
0010
0000
0100
0000
1000
0000
0100
0000
0001
0100
0001
0000
0010
0000
0100
1000
,
0100
0000
0001
0000
0100
0000
0010
0000
0001
1000
0001
0000
0100
0001
1000
0010
,
0100
0000
0001
0000
1001
0000
1000
0000
0100
1000
0000
0001
1000
0010
1000
0010
,
1000
0000
0100
0000
0001
0000
0100
0000
0010
0000
1000
0000
0010
0000
0001
1000
,
0001
0000
0100
0000
0010
0000
1000
0000
0100
0010
0100
0000
1000
0000
0001
0100
,
0001
0000
0010
0000
0010
0100
0010
0100
0010
0000
0100
1000
0001
0000
0100
0000
,
0010
0000
1000
0000
0100
1000
0100
0000
0010
0000
0000
0001
1000
0001
1000
0001
,
1000
0000
0010
0000
0001
0000
0010
0000
0100
0000
0001
0000
1000
0000
0100
0010
,
0100
0000
1000
0000
0010
0000
0100
0000
0001
0010
0001
0000
0100
0000
1000
0000
,
0100
0001
0100
0001
0010
0000
0100
0000
1000
0001
1000
0000
0100
0000
0010
0000
,
0001
0000
0100
0000
0001
0010
0100
1000
0010
0000
0000
1000
0001
1000
0001
1000
,
0001
0000
0010
0000
1000
0000
0010
0000
0100
0000
1000
0000
0001
0000
1000
0010
,
1000
0000
0001
0000
0100
0000
0010
0000
1000
0100
1000
0000
0010
0000
0100
0000
,
1001
0000
0001
0000
0010
0100
0010
0100
1000
0001
1000
0000
0010
0000
0100
0000
,
0001
0000
0100
0000
0110
0000
1001
0000
0001
0010
0000
0100
1000
0100
1000
0100
,
2000
0000
0000
0000
,
0000
0000
0000
0000
,
0000
0000
0000
0000
,
0000
0000
0000
0000
0000
0000
0000
0000
0000
0000
0000
0000
3001
1000
0001
1000
,
0002
0000
0000
0000
,
0000
0000
0000
0000
,
1003
0000
0001
1000
0001
1000
0001
1000
0001
1000
0001
1000
0001
1000
0001
1000
,
0001
0000
0000
0010
0001
0000
1001
0000
0000
1000
0010
0000
0100
0000
0001
1000
,
0001
0000
1000
0010
0100
0000
0001
0000
0010
0100
0001
0000
0100
0000
1000
0001
,
1000
0000
0001
0100
0010
0000
0001
0000
0010
1000
0001
0000
1000
0000
0100
0010
,
0100
0000
1000
0001
0100
0000
1000
0000
0100
0001
0010
0000
0100
1000
0010
0100
,
0001
0000
0100
0010
1000
0000
0001
0010
0100
1000
0000
0010
0100
0010
0100
0000
,
1001
0000
1000
0010
0100
0000
1000
0000
0100
0001
1000
0000
0100
0000
0010
0001
,
0010
0000
0100
1000
0010
0000
0100
0000
0001
0010
0100
0000
1000
0001
1000
0001
,
0100
0000
0101
0000
0001
0010
0001
0010
0100
0000
1000
0001
1000
0000
0010
0000
,
0100
0001
0010
0000
0110
0000
0100
1000
0001
0100
0000
0010
1000
0001
0010
0000
,
1001
0000
0000
1000
0010
0000
0100
0000
0000
0010
0001
0000
0010
0000
1000
0000
,
0001
0000
0000
0010
1000
0000
0010
0000
0000
0100
0010
0000
0001
1000
0001
0000
,
0100
0001
0100
0001
1000
0000
0010
0000
0000
0001
0010
0000
0100
0000
0101
0000
,
0001
0000
0000
0010
0100
0000
1000
0001
1000
0001
0000
0100
0010
0100
0010
0000
,
1001
0000
0001
0010
0100
0000
0001
0000
0100
1000
0010
0000
0001
0000
0010
0100
,
0010
0000
1000
0001
0010
0000
0100
0000
1000
0010
0100
0000
0001
0000
1000
0100
,
1000
0000
0010
0100
0001
0000
0010
0000
0100
1000
0001
0000
0100
0001
0100
0001
,
0010
0000
0000
0100
1000
0000
1001
0000
0000
0100
0001
0000
1000
0000
0010
0100
,
0002
0000
0000
0000
,
0000
0000
0000
0000
,
0000
0000
0000
0000
,
0003
0000
0000
0000
;

//--------------- dance-single - forcednature ----------------
#NOTES:
     dance-single:
     forcednature:
     Challenge:
     17:
     0,0,0,0,0:
0000
0000
0000
0000
,
0000
0000
0000
0000
,
0000
0000
0000
0000
,
0000
0000
0000
0000
,
0000
0000
0000
0000
,
2002
0000
0000
0000
,
0000
0000
0000
3003
,
0001
0000
1000
0001
1000
0001
1000
0001
1000
0001
1000
0001
1000
0001
1000
0001
,
1000
0000
0001
0100
0001
0100
0010
0000
1000
0100
1000
0100
0010
0000
0001
1000
,
0001
0100
0001
0000
0010
0000
0100
1000
0100
0000
0010
0000
0001
0000
0100
0010
,
1000
0001
1000
0000
0010
0000
0100
0001
0100
0000
0010
0000
1000
0000
0001
0000
,
0010
0100
0010
0000
0001
0000
1000
0010
1000
0001
1000
0100
1000
0000
0001
0100
,
0010
1000
0001
0000
1010
0000
1000
0100
0010
0001
1000
0001
0100
0010
1000
0100
,
0010
0001
0010
0000
0100
0000
1000
0010
1000
0000
0001
0000
0100
0000
0010
0100
,
0001
0010
0001
0000
1000
0000
0100
0001
0100
0010
0100
1000
0100
0000
0010
0000
,
0001
1000
0001
0000
0010
0000
0100
1000
0100
0010
0001
0000
0100
0000
0010
1000
,
0100
0010
0100
0000
0010
0001
1000
0001
0100
0010
1000
0001
1000
0100
1000
0010
,
0100
0001
0100
0001
0100
0000
0010
1000
0010
1000
0010
0000
1000
0100
1000
0100
,
0010
0001
0010
0001
0010
0000
0100
1000
0100
1000
0001
0010
0001
1000
0010
0000
,
0100
0010
0100
0000
0101
0000
0001
0010
0100
1000
0010
0000
0010
0000
0100
0001
,
0010
0100
1000
0001
1000
0000
0010
0001
0010
0100
0010
1000
0001
1000
0100
0010
,
0001
0100
0001
0000
1000
0000
0100
0010
0100
0000
1000
0000
0010
0000
0100
0001
,
1000
0000
0000
0100
0000
0000
1000
0000
0000
0000
0000
0000
0010
0000
0000
0000
0000
0000
0010
0000
0000
0100
0000
0000
0001
0000
0000
1000
0000
0000
0001
0000
0000
0000
0000
0000
0100
0000
0000
0000
0000
0000
0001
0000
1000
0000
0001
0000
,
1000
0001
1000
0000
0010
0000
0100
0001
0010
0100
1000
0010
1000
0100
1000
0100
,
0010
0000
0001
0100
0010
1000
0100
0000
0010
0001
1000
0010
0100
0010
1000
0001
,
1000
2000
0000
0000
0000
0000
0000
0000
,
0000
0000
0000
0000
,
0001
0000
0000
0002
0000
0000
0000
0000
0000
0000
0000
0000
0000
0000
0000
0000
0000
0000
3003
0000
0000
0001
1000
0001
,
1000
0000
0001
0100
0001
0100
0010
0000
1000
0100
1000
0100
0010
0001
1000
0100
,
0010
0000
0001
0000
0100
0000
1000
0000
0100
0000
0001
0000
0010
0000
0100
1000
,
0010
0000
0000
0000
0000
0000
0100
0000
0000
0000
0000
0000
1000
0000
0000
0000
0000
0000
0100
0000
0000
0001
0000
0000
0100
0000
0000
0001
0000
0000
0100
0000
0000
0000
0000
0000
0010
0000
0000
0000
0000
0000
1000
0000
0100
0000
1000
0000
,
0100
0000
0000
0010
0000
0000
0001
0000
0000
0100
0000
0000
0010
0000
0000
0100
0000
0000
0001
0010
0001
1000
0100
1000
,
0100
0000
0000
0000
0000
0000
0010
0000
0000
0000
0000
0000
1001
0000
0000
0000
0000
0000
0001
0000
1000
0000
0001
0000
1000
0000
0000
0010
0000
0000
0100
0000
0000
0001
0000
0000
0010
0000
0000
0001
0000
0000
0010
0000
0000
0100
0000
0000
,
1000
0000
0010
0000
0100
0000
0001
0000
0010
0000
1000
0000
0010
0000
0100
1000
,
0010
0000
0000
0000
0000
0000
0100
0000
0000
0000
0000
0000
1000
0000
0000
0000
0000
0000
0100
0000
0000
0000
0000
0000
0001
0000
0000
0010
0000
0000
0001
0000
0000
1000
0000
0000
0100
0000
0000
0000
0000
0000
1000
0000
0001
0000
1000
0000
,
0001
0000
0000
0000
0000
0000
0001
0000
0000
0000
0000
0000
1000
0000
0010
0000
1000
0000
0010
0000
0100
0000
0001
0000
0100
0000
0000
0001
0000
0000
1000
0000
0000
0100
0000
0000
0010
0000
0000
0000
0000
0000
0001
0000
0000
0000
0000
0000
,
0100
0010
0100
0000
0001
0000
1000
0100
1000
0001
0010
0001
0100
0010
1000
0001
,
0010
0000
0100
0000
0001
0000
0100
1000
0100
0010
0001
0000
0100
0000
0010
1000
,
0001
0000
0010
0000
0100
1000
0100
0000
0010
0001
0010
0000
0100
0000
1000
0001
,
1000
0000
0100
0000
1000
0000
0001
0000
0010
0000
0001
0000
1000
0000
0000
0000
0000
0000
0001
0000
0000
0000
0000
0000
0100
0000
0000
0010
0000
0000
0100
0000
0000
0001
0000
0000
0010
0000
0000
0000
0000
0000
0100
0000
0000
1000
0000
0000
,
0100
0010
0001
0000
1000
0010
0001
0010
0100
0000
0001
0010
0100
1000
0010
0100
,
0001
0000
1000
0100
1000
0000
0010
0100
0001
0010
0001
0000
1000
0010
1000
0000
,
0001
0100
0010
0100
0010
0000
1000
0100
1000
0001
1000
0000
0010
0100
0010
0000
,
0100
0001
1000
0001
0010
0000
0100
1000
0100
0010
0001
0000
1000
0010
0100
0000
,
0010
1000
0001
1000
0100
0000
0100
0000
0010
0001
1000
0100
1000
0100
1000
0010
,
0200
0000
0000
0000
,
0000
0000
0000
0000
,
0000
0000
0000
0000
,
0000
0000
0000
0000
0000
0000
0000
0000
0000
0000
0000
0000
0301
0010
0100
1000
,
0200
0000
0000
0000
,
0000
0000
0000
0000
,
1300
0000
0001
1000
0001
1000
0001
1000
0001
1000
0001
1000
0001
1000
0001
1000
,
0001
0000
1000
0100
1000
0100
0010
0000
0001
0100
0001
0100
0010
0000
1000
0001
,
1000
0010
1000
0000
0001
0000
0010
0100
0010
0000
0001
0000
1000
0000
0001
0100
,
0010
0000
0000
1000
0000
0000
0010
0000
0000
0000
0000
0000
1000
0000
0000
0000
0000
0000
0100
0000
0000
0010
0000
0000
0100
0000
0000
1000
0000
0000
0001
0000
0000
0000
0000
0000
1000
0000
0000
0000
0000
0000
0001
0000
0100
0000
0001
0000
,
0100
0000
0000
0001
0000
0000
0100
0000
0000
0000
0000
0000
0010
0000
0000
0000
0000
0000
1000
0000
0000
0100
0000
0000
1000
0000
0000
0010
0000
0000
0100
0000
0000
0000
0000
0000
0001
0000
0010
0000
0001
0000
1000
0000
0100
0000
1000
0000
,
0001
1000
0001
0000
0101
0000
0001
0010
0100
1000
0001
1000
0010
1000
0010
0100
,
0001
0010
0001
0000
0100
0000
0010
1000
0010
0000
0100
0000
0001
0000
1000
0100
,
0010
0000
0000
0001
0000
0000
0010
0000
0000
0000
0000
0000
0100
0000
0000
0000
0000
0000
1000
0000
0000
0001
0000
0000
1000
0000
0000
0010
0000
0000
1000
0000
0000
0000
0000
0000
0001
0000
0000
0100
0000
0000
0001
0000
1000
0000
0001
0000
,
1000
0000
0000
0100
0000
0000
1000
0000
0000
0000
0000
0000
0001
0000
0100
0000
0001
0000
1000
0000
0010
0000
1000
0000
0001
0000
0000
0000
0000
0000
0010
0000
0000
0100
0000
0000
1000
0000
0000
0000
0000
0000
1001
0000
0000
0000
0000
0000
,
1000
0010
1000
0000
0100
1000
0001
0100
1000
0100
0010
0100
0001
0100
0001
0010
,
0100
1000
0100
1000
0010
0000
0100
0001
0100
0001
0010
0000
0001
1000
0001
1000
,
0001
0010
0001
0010
0100
0000
1000
0001
1000
0100
0010
0100
0001
0100
0010
0100
,
1000
0000
0100
0000
1000
0000
0001
0000
0100
0000
0001
0000
1000
0000
0000
0000
0000
0000
0010
0000
0000
0100
0000
0000
0001
0000
0000
1000
0000
0000
0100
0000
0000
0000
0000
0000
0010
0000
0000
0000
0000
0000
0010
0000
0000
0001
0000
0000
,
0010
0000
0000
0100
0000
0000
1000
0000
0000
0010
0000
0000
0100
0000
0001
0000
0100
0000
0010
0000
1000
0000
0010
0000
0100
0000
0000
0001
0000
0000
1000
0000
0000
0100
0000
0000
0010
0000
0000
0100
0000
0000
0010
0000
0000
0001
0000
0000
,
1000
0001
1000
0000
0010
0000
0100
0001
0100
0000
0010
0000
1000
0000
0100
0010
,
0001
1000
0010
0000
0100
0000
0100
0001
0100
0010
1000
0000
0100
0000
0010
0001
,
0010
0100
0010
0000
0001
0000
0100
0010
1000
0001
1000
0100
0001
0100
0010
0001
,
0010
0000
0100
1000
0010
0100
0010
0000
0100
0001
0010
0100
0010
0000
0001
1000
,
0002
0000
0000
0000
,
0000
0000
0000
0000
,
0000
0000
0000
0000
,
0003
0000
0000
0000
;

//--------------- dance-double - forcednature ----------------
#NOTES:
     dance-double:
     forcednature:
     Easy:
     10:
     0,0,0,0,0:
00000000
00000000
00000000
00000000
,
00000000
00000000
00000000
00000000
,
00000000
00000000
00000000
00000000
,
00000000
00000000
00000000
00000000
,
00000000
00000000
00000000
00000000
,
00022000
00000000
00000000
00000000
,
00000000
00000000
00000000
00033000
,
00001000
00010000
00001000
00010000
00001000
00010000
00001000
00010000
,
00100000
00000000
00000000
10000000
00000000
00000000
00010000
00000000
00000000
10000000
00000000
00000000
01000000
00000000
00000000
00000000
,
00100000
00000000
00001000
00010000
00000000
00100000
00010000
00001000
,
00000010
00000000
00000100
00001000
00000000
00000001
00000100
00001000
,
00010000
00000000
00000100
00010000
00000000
00001000
01000000
00010000
,
10000000
00000000
01000000
00010000
00000000
00001000
00000010
00001000
,
00010000
00000000
00100000
00010000
00000000
00001000
00000100
00000010
,
00001000
00000000
00000001
00000010
00000000
00000100
00010000
00000010
,
00010000
00000000
00100000
00010000
00000000
00001000
00010000
01000000
,
10000000
00000000
00000000
00000000
00010000
00000000
10000000
00000000
00000000
00100000
00000000
00000000
10000000
00000000
01000000
00000000
,
00020000
00000000
00031000
00000020
00000000
00001030
00010000
00100000
,
02000000
00000000
03010000
20000000
00000000
31000000
00010000
00001000
,
00000020
00000000
00000130
00002000
00000000
00003001
00000100
00000010
,
00000200
00000000
00000000
00000000
00001300
00000000
00010000
00000000
00100000
00000000
00000000
01000000
00000000
00000000
00010000
00000000
,
10000000
00000000
01000000
00100000
00000000
01000000
10000000
00010000
,
01000000
00000000
00100000
00010000
00000000
00000010
00010000
00001000
,
00000010
00000000
00000001
00001000
00000000
00000010
00000100
00001000
,
00010000
00000000
00000000
01000000
00000000
00000000
00100000
00000000
00000000
00010000
00000000
00000000
10000000
00000000
00000000
00000000
,
20020000
00000000
00000000
00000000
,
00000000
00000000
00000000
30030000
,
00022000
00000000
00000000
00000000
00000000
00000000
00033000
00010000
,
00001000
00000000
00000000
00000010
00000000
00000000
00000100
00000000
00000000
00001000
00000000
00000000
00000001
00000000
00000000
00000000
,
00001001
00000000
00000001
00000100
00000010
00000000
00000100
00001000
,
00010000
00000000
00100000
01000000
00010000
10000000
01000000
00000000
,
00010000
00000000
01000000
00100000
00001000
00000000
00100000
00001000
,
00010000
00000000
00100000
00010000
00000010
00010000
00001000
00000000
,
00011000
00000000
00001000
00000010
00000100
00000000
00001000
00000001
,
00000100
00000000
00000010
00001000
00000100
00000010
00000001
00000000
,
00000100
00000000
00001000
00010000
01000000
00000000
10000000
00010000
,
01000000
00000000
00100000
10000000
01000000
00100000
00010000
00000000
,
10010000
00000000
00010000
10000000
00100000
10000000
01000000
00010000
,
01000000
00000000
00100000
00001000
00010000
00100000
00010000
00001000
,
00000010
00000000
00000100
00001000
00000001
00001000
00000010
00000100
,
00000001
00000000
00000000
00000000
00000010
00000000
00000100
00000000
00001000
00000000
00000000
00000001
00000000
00000000
00000100
00000000
,
00001001
00000000
00000001
00000010
00000100
00001000
00000010
00010000
,
00001000
00000000
01000000
00001000
00100000
00010000
10000000
00100000
,
10000000
00000000
01000000
00010000
00001000
00000100
00000001
00000010
,
00000100
00000000
00000000
00000000
00001000
00000000
00001000
00000000
00000000
00000001
00000000
00000000
00000100
00000000
00001000
00000000
,
00020000
00000000
00000000
00000000
,
00000000
00000000
00000000
00000000
,
00000000
00000000
00000000
00000000
,
00000000
00000000
00000000
00000000
00000000
00000000
00031000
00100000
,
00020000
00000000
00000000
00000000
,
00000000
00000000
00000000
00000000
,
01030000
01000000
01000000
01000000
01000000
01000000
01000000
01000000
,
00100000
00000000
00000000
00010000
00000000
00000000
00000010
00000000
00000000
00010000
00000000
00000000
00001000
00000000
00000000
00000000
,
00000010
00000001
00001000
00000100
00000010
00001000
00010000
00000000
,
00100000
01000000
00010000
10000000
00100000
00010000
00001000
00000000
,
00100000
00001000
00010000
00000100
00010000
00001000
01000000
00000000
,
00010000
10000000
01000000
00010000
01000000
00100000
00001000
00000000
,
00010000
00100000
00010000
00000010
00010000
00001000
00000010
00000000
,
00000001
00001000
00000010
00000100
00000001
00000010
00000100
00000000
,
00001000
00000001
00000100
00001000
00010000
00000100
00010000
00000000
,
00001000
00000000
01000000
00000000
00001000
00000000
00100000
00000000
00000000
00010000
00000000
00000000
10000000
00000000
00100000
00000000
,
00020000
00000000
00031000
00000020
00000000
00001030
00010000
00100000
,
02000000
00000000
03010000
20000000
00000000
31000000
00010000
00001000
,
00000200
00000000
00000301
00002000
00000000
00003100
00000010
00000100
,
00002000
00000000
00000000
00000000
00003001
00000000
00000100
00000000
00001000
00000000
00000000
00010000
00000000
00000000
01000000
00000000
,
10000000
00010000
10000000
00100000
10000000
01000000
00010000
00001000
,
00000100
00000010
00001000
00000001
00000010
00000100
00001000
00000001
,
00001000
00000010
00010000
00001000
00100000
00001000
00010000
00100000
,
01000000
00000000
00000000
00001000
00000000
00000000
00000010
00000000
00000000
00000100
00000000
00000000
00010000
00000000
00000000
00000000
,
00022000
00000000
00000000
00000000
,
00000000
00000000
00000000
00000000
,
00000000
00000000
00000000
00000000
,
00033000
00000000
00000000
00000000
;

//--------------- dance-double - forcednature ----------------
#NOTES:
     dance-double:
     forcednature:
     Medium:
     13:
     0,0,0,0,0:
00000000
00000000
00000000
00000000
,
00000000
00000000
00000000
00000000
,
00000000
00000000
00000000
00000000
,
00000000
00000000
00000000
00000000
,
00000000
00000000
00000000
00000000
,
00022000
00000000
00000000
00000000
,
00000000
00000000
00000000
00033000
,
00001000
00000000
00010000
00001000
00010000
00000000
00001000
00010000
00001000
00000000
00010000
00001000
00010000
00000000
00000000
00000000
,
00100000
00000000
00000000
01010000
00000000
00000000
00100000
00000000
00000000
11000000
00000000
00000000
00010000
00000000
10000000
00000000
,
01000000
00010000
01000000
00100000
00001000
00010000
00100000
00010000
,
00001000
00000010
00000100
00001000
00000001
00000100
00000010
00000100
,
00001000
00010000
00000100
00010000
01000000
00010000
00001000
00010000
,
00100000
00000000
10000000
00000000
00010000
00000000
10000000
00000000
01000000
00000000
00000000
00010000
00001000
00010000
00001000
00000000
,
00000010
00000100
00001000
00000001
00001000
00000010
00010000
00100000
,
00010000
00001000
00010000
01000000
10000000
00010000
10000000
00100000
,
00010000
00000010
00010000
00001000
00000010
00000001
00001000
00000010
,
00000100
00000000
00000001
00000000
00000010
00000000
00000100
00000000
00010000
00000000
00000000
00001000
00010000
00001000
00010000
00000000
,
00100000
01000000
00010000
10000000
01000000
00010000
00000100
00010000
,
00001000
00000100
00000001
00001000
00000100
00000010
00001000
00010000
,
00100000
01000000
00010000
10000000
00100000
00010000
00000100
00010000
,
00001000
00000000
00000010
00000000
00000100
00000000
00001000
00000000
00000001
00000000
00000000
00000100
00001000
00000100
00001000
00000000
,
00010000
01000000
00010000
00001000
00100000
00010000
00100000
10000000
,
00100000
01000000
10000000
00100000
00010000
00001000
00000010
00000001
,
00001000
00000010
00010000
00100000
00010000
00000010
00010000
00001000
,
00000010
00000000
00000000
00000101
00000000
00000000
00000010
00000000
00000000
00001100
00000000
00000000
00010000
00000000
00001000
00010000
,
00002000
00020000
00000000
00000000
00000000
00000000
00000000
00000000
,
00000000
00000000
00000000
00000000
,
00000000
00000000
00000000
00000000
00000000
00000000
00000000
00000000
00000000
00000000
00000000
00000000
00033000
00000000
00001000
00010000
,
00001000
00000000
00000000
00010100
00000000
00000000
00011000
00000000
00000000
01001000
00000000
00000000
00001000
00000000
00010000
00000000
,
00100000
10000000
01000000
00010000
01000000
00001000
00000100
00010000
,
00001000
00000100
00000001
00001000
00000100
00000010
00001000
00010000
,
00100000
00010000
00000010
00010000
00000100
00000010
00000001
00001000
,
00000010
00000000
00010000
00000000
00100000
00000000
10000000
00000000
01000000
00000000
00000000
00010000
00001000
00010000
00001000
00000000
,
00000010
00000100
00001000
00000001
00001000
00000010
00010000
01000000
,
00010000
00001000
01000000
00010000
10000000
00100000
00010000
00000010
,
00010000
00001000
00000010
00000100
00001000
00000001
00001000
00000010
,
00010000
00000000
00000100
00000000
00000001
00000000
00000100
00000000
00001000
00000000
00000000
00000010
00010000
00000010
00010000
00000000
,
00100000
00010000
00001000
00100000
01000000
10000000
00010000
10000000
,
00100000
01000000
00001000
00000010
00000100
00001000
00000001
00000100
,
00000010
00010000
00100000
01000000
00010000
10000000
01000000
00010000
,
00001000
00000000
00000010
00000000
00001000
00000000
00100000
00000000
00001000
00000000
00000000
00000100
00000001
00000100
00000001
00000000
,
00000010
00000100
00001000
00000001
00001000
00000010
00010000
01000000
,
00100000
00010000
10000000
00100000
10000000
00010000
01000000
00010000
,
00100000
00001000
00000100
00000001
00000010
00000100
00001000
00000001
,
00000100
00000000
00001000
00000000
00010000
00000000
01000000
00000000
10000000
00000000
00000000
00010000
01000000
00010000
01000000
00000000
,
00022000
00000000
00000000
00000000
,
00000000
00000000
00000000
00000000
,
00000000
00000000
00000000
00000000
,
00000000
00000000
00000000
00000000
00033000
00000000
00001000
00010000
,
00022000
00000000
00000000
00000000
,
00000000
00000000
00000000
00033000
,
00001000
00000000
00010000
00001000
00010000
00000000
00001000
00010000
00001000
00000000
00010000
00001000
00010000
00000000
00001000
00010000
,
00001000
00000000
00000000
00000101
00000000
00000000
00000010
00000000
00000000
00001100
00000000
00000000
00001000
00000000
00000001
00001000
,
00000001
00000010
00001000
00010000
00100000
10000000
00010000
01000000
,
00001000
00000100
00001000
00010000
01000000
00100000
00010000
10000000
,
00100000
00010000
00000010
00010000
00001000
00000010
00000100
00001000
,
00000001
00000000
00001000
00000000
00000010
00000000
00010000
00000000
01000000
00000000
00000000
10000000
00010000
10000000
00010000
00000000
,
00100000
00001000
00000010
00001000
00010000
00000100
00001000
00000001
,
00000100
00000010
00000100
00010000
01000000
00001000
00100000
00010000
,
10000000
00100000
10000000
00010000
00100000
01000000
00010000
00001000
,
00000010
00000000
00010000
00000000
00000010
00000000
00000001
00000000
00001000
00000000
00000000
00000010
00010000
00000010
00010000
00000000
,
00001000
01000000
00010000
00001000
00010000
01000000
00100000
10000000
,
00010000
00100000
00001000
00000010
00000100
00001000
00000001
00000100
,
00001000
00010000
00000100
00000001
00000100
00010000
00000010
00010000
,
00100000
00000000
01000000
00000000
00010000
00000000
10000000
00000000
01000000
00000000
00000000
00010000
00001000
00010000
00001000
00000000
,
00000010
00000100
00001000
00000001
00001000
00010000
00100000
00001000
,
00010000
00100000
01000000
00001000
00000010
00000100
00001000
00000001
,
00001000
00000010
00010000
01000000
00100000
00010000
10000000
00100000
,
00010000
00000000
00000000
00001100
00000000
00000000
00000001
00000000
00000000
00000101
00000000
00000000
00000010
00000000
00010000
00001000
,
00020000
00000000
00000000
00000000
,
00000000
00000000
00000000
00000000
,
00000000
00000000
00000000
00000000
,
00030000
00000000
00000000
00000000
;

//--------------- dance-double - forcednature ----------------
#NOTES:
     dance-double:
     forcednature:
     Hard:
     15:
     0,0,0,0,0:
00000000
00000000
00000000
00000000
,
00000000
00000000
00000000
00000000
,
00000000
00000000
00000000
00000000
,
00000000
00000000
00000000
00000000
,
00000000
00000000
00000000
00000000
,
00022000
00000000
00000000
00000000
,
00000000
00000000
00000000
00033000
,
00010000
00000000
00001000
00010000
00001000
00010000
00001000
00010000
00001000
00010000
00001000
00010000
00001000
00010000
00001000
00010000
,
00001000
00000000
00000000
00000100
00000001
00000000
00001001
00000000
00000000
00000001
00000010
00000000
00001000
00000000
00010000
00001000
,
00010000
00000000
00100000
10000000
01000000
00000000
00100000
00000000
00010000
01000000
00001000
00000000
00010000
00000000
00000100
00000000
,
00000010
00000000
00000001
00001000
00000001
00000000
00000100
00000000
00000010
00001000
00000100
00000000
00010000
00000000
00001000
00000000
,
00100000
00000000
01000000
10000000
00100000
00000000
01000000
00000000
00001000
00010000
00000100
00000000
00000010
00000000
00000001
00000000
,
00000100
00000000
00000010
00010000
00001000
00000000
00100000
00010000
00100000
01000000
00000000
10000000
00010000
10000000
00010000
00000000
,
01010000
00000000
01000000
00001000
00010000
00000000
00000100
00000000
00000010
00000001
00000100
00000000
00000010
00000000
00010000
00000000
,
00001000
00000000
01000000
00010000
10000000
00000000
01000000
00000000
00100000
00010000
01000000
00000000
00001000
00000000
00010000
00000000
,
00000100
00001000
00000100
00000000
00000110
00000000
00000010
00000001
00000010
00000000
00000100
00000000
00010000
00000000
00001000
00000000
,
01000000
00010000
00100000
00000000
01000000
00000000
10000000
00010000
01000000
00100000
00000000
10000000
01000000
00100000
00010000
00000000
,
01000000
00000000
00000000
00001000
00010000
00000000
00000100
00000000
00000000
00010000
00001000
00000000
00000010
00000000
00000001
00000000
,
00000100
00000000
00000000
00000010
00010000
00000000
00001000
00000000
00000000
00000010
00000100
00000000
00010000
00001000
00010000
00000000
,
00100000
00000000
00000000
10000000
00010000
00000000
00100000
00000000
00000000
00001000
00010000
00000000
00000100
00000000
00000010
00000000
,
00000001
00000000
00000000
00000100
00001000
00000000
00010000
00100000
00010000
00100000
00000000
10000000
00010000
10000000
00010000
00000000
,
11000000
00000000
10000000
00100000
01000000
00000000
00010000
00000000
00100000
00001000
00010000
00000000
00000100
00000000
00001000
00000000
,
00000001
00000000
00000100
00000010
00010000
00000000
00001000
00000000
01000000
00100000
10000000
00000000
01000000
00000000
00100000
00010000
,
00100000
00000000
00001000
00010000
00000010
00000000
00010000
00000000
00000100
00001000
00000001
00000000
00000100
00001000
00000100
00001000
,
00010000
00000000
00000000
01000000
10000000
00000000
10010000
00000000
00000000
00010000
01000000
00000000
00100000
00000000
00010000
00001000
,
00020000
00002000
00000000
00000000
00000000
00000000
00000000
00000000
,
00000000
00000000
00000000
00033000
,
00000002
00000000
00000200
00000000
00000000
00000000
00000000
00000000
00000000
00000000
00000000
00000000
00000303
00000000
00000001
00001000
,
00000001
00000000
00000000
00000010
00000100
00000000
00010100
00000000
00000000
00010000
00001000
00000000
01000000
00000000
00100000
10000000
,
00100000
00000000
01000000
00000000
00010000
00000000
00001000
00000000
00000010
00000000
00010000
00000000
00001000
00000000
00000010
00000001
,
00000010
00000000
00000100
00000000
00010000
00000000
00001000
00000000
01000000
00010000
01000000
00000000
00100000
00000000
10000000
01000000
,
10000000
00000000
00100000
00000000
00010000
00000000
00001000
00000000
00000010
00000100
00000010
00000000
00000001
00001000
00000010
00000100
,
00000001
00000000
00000010
00000000
00000110
00000000
00000100
00000000
00010000
00001000
00000000
01000000
00010000
10000000
00010000
10000000
,
00010000
00000000
00100000
00000000
00001000
00000000
00000010
00000000
00000100
00000000
00001000
00000000
00000001
00000000
00001000
00000010
,
00001000
00000000
00010000
00000000
01000000
00000000
00100000
00000000
10000000
00010000
10000000
00000000
01000000
00000000
00100000
00010000
,
00100000
00000000
01000000
00000000
00010000
00001000
00010000
00001000
00010000
00000000
00000010
00001000
00000100
00000000
00000010
00000000
,
00000001
00000000
00000100
00000000
00001000
00010000
00001000
00000000
00100000
00000000
00000000
00010000
10000000
01000000
10000000
01000000
,
10000000
00000000
00100000
00000000
00010000
00000000
00001000
00000000
00000010
00000000
00000001
00000000
00000100
00000000
00000010
00001000
,
00000010
00000000
00000100
00000000
00000001
00000000
00000010
00000000
00000100
00001000
00000100
00000000
00010000
00000000
00001000
00000000
,
00100000
00010000
00100000
00010000
01000000
00000000
01000000
00000000
00100000
10000000
00100000
00000000
01000000
00000000
00010000
00000000
,
00001000
00000000
00000010
00000000
00000100
00000001
00001000
00000100
00000010
00000000
00000000
00000001
00001000
00000001
00001000
00000001
,
00001000
00000000
00000100
00000000
00010000
00000000
00001000
00000000
01000000
00000000
00010000
00000000
10000000
00000000
01000000
00100000
,
01000000
00000000
10000000
00000000
00010000
00000000
01000000
00000000
00001000
00010000
00001000
00000000
00000010
00000000
00000100
00000000
,
00001001
00000000
00000001
00000000
00000010
00001000
00000010
00001000
00010000
00001000
00010000
00000000
00100000
00000000
01000000
00000000
,
00010000
00000000
10000000
00000000
11000000
00000000
01010000
00000000
00010000
01000000
00000000
00001000
00010000
00001000
00010000
00001000
,
00020000
00000000
00000000
00000000
,
00000000
00000000
00000000
00000000
,
00000000
00000000
00000000
00000000
,
00000000
00000000
00000000
00000000
00000000
00000000
00000000
00000000
00000000
00000000
00000000
00000000
00031000
00010000
00001000
00010000
,
00002000
00000000
00000000
00000000
,
00000000
00000000
00000000
00000000
,
00013000
00000000
00001000
00010000
00001000
00010000
00001000
00010000
00001000
00010000
00001000
00010000
00001000
00010000
00001000
00010000
,
00001000
00000000
00000000
00100000
00010000
00000000
10010000
00000000
00000000
10000000
00100000
00000000
00010000
00000000
00001000
00000100
,
00001000
00000000
00010000
00000100
00001000
00000000
00000001
00000000
00000100
00000010
00001000
00000000
00010000
00000000
01000000
00100000
,
10000000
00000000
01000000
00100000
00010000
00000000
00001000
00000000
00000100
00000010
00000001
00000000
00000100
00000000
00000010
00001000
,
00000010
00000000
00000100
00000001
00001000
00000000
00000100
00000000
00010000
00001000
00100000
00000000
01000000
10000000
00010000
01000000
,
00100000
00000000
00010000
00001000
00010000
00000000
00000100
00001000
00000001
00000100
00000000
00001000
00010000
00001000
00010000
00000000
,
00011000
00000000
01000000
00010000
10000000
00000000
01000000
00000000
00100000
00001000
00010000
00000000
00100000
00000000
00010000
00001000
,
00000010
00000000
00000100
00001000
00000001
00000000
00000100
00000000
00000010
00001000
00000100
00000000
00010000
00001000
00010000
00001000
,
00100000
00000000
00110000
00000000
00010000
01000000
00010000
01000000
00100000
00000000
10000000
00010000
10000000
00000000
01000000
00000000
,
00010000
00001000
00010000
00000000
00010100
00000000
00000100
00001000
00000100
00000010
00000000
00000001
00000100
00000010
00001000
00000000
,
00001001
00000000
00000000
00000001
00000100
00000000
00001000
00000000
00000000
00010000
01000000
00000000
10000000
00000000
00010000
00000000
,
01000000
00000000
00000000
00100000
00010000
00000000
00001000
00000000
00000000
00000010
00000001
00000000
00001000
00000010
00001000
00000000
,
00010000
01000000
00010000
01000000
00100000
00000000
10000000
00000000
00000000
01000000
00100000
00000000
00001000
00000000
00011000
00000000
,
00010000
00000000
00000000
00000100
00001000
00000000
00000001
00000100
00000001
00000100
00000000
00001000
00010000
00001000
00010000
00000000
,
01001000
00000000
01000000
00010000
10000000
00000000
01000000
00000000
00010000
00001000
00100000
00000000
00001000
00000000
00010000
00000010
,
00001000
00000000
00000100
00000010
00000001
00000000
00000100
00000000
00001000
00010000
00100000
00000000
00010000
00000000
00001000
00100000
,
00010000
00000000
00100000
01000000
10000000
00000000
00100000
00000000
01000000
00001000
00010000
00000000
00000100
00001000
00000100
00001000
,
00000010
00000000
00000000
00000100
00000001
00000000
00001001
00000000
00000000
00001000
00000100
00000000
00010000
00000000
00001000
01000000
,
00002000
00000000
00000000
00000000
,
00000000
00000000
00000000
00000000
,
00000000
00000000
00000000
00000000
,
00003000
00000000
00000000
00000000
;

//--------------- dance-double - forcednature (Warning - dumb) ----------------
#NOTES:
     dance-double:
     forcednature (Warning - dumb):
     Challenge:
     18:
     0,0,0,0,0:
00000000
00000000
00000000
00000000
,
00000000
00000000
00000000
00000000
,
00000000
00000000
00000000
00000000
,
00000000
00000000
00000000
00000000
,
00000000
00000000
00000000
00000000
,
00022000
00000000
00000000
00000000
,
00000000
00000000
00000000
00033000
,
00001000
00000000
00000100
00000001
00000100
00000001
00000100
00001000
00000100
00001000
00010000
00001000
00010000
00001000
00010000
01000000
,
10000000
00000000
00010000
01000000
00100000
10000000
01000000
00000000
00100000
00010000
00100000
00001000
00010000
00000000
00000100
00001000
,
00000100
00000010
00000001
00000000
00000100
00000000
00000010
00001000
00000010
00000000
00000100
00000000
00001000
00000000
00010000
01000000
,
10000000
00010000
10000000
00000000
00100000
00000000
01000000
00010000
01000000
00000000
00001000
00000000
00010000
00000000
00000010
00000000
,
00000100
00000001
00000100
00000000
00000010
00000000
00001000
00000100
00010000
00001000
00010000
00100000
01000000
00000000
00010000
01000000
,
00001000
00010000
00001000
00000000
00010100
00000000
00000100
00001000
00000001
00000100
00001000
00000100
00000010
00010000
00001000
01000000
,
00100000
10000000
01000000
00000000
00100000
00000000
00001000
00010000
00000010
00000000
00000100
00000000
00001000
00000000
00000100
00000001
,
00001000
00000100
00000010
00000000
00001000
00000000
00010000
00100000
00010000
00001000
00010000
00000100
00010000
00000000
01000000
00000000
,
10000000
00010000
10000000
00000000
00100000
00000000
00010000
00001000
00010000
00000010
00001000
00000000
00000100
00000000
00000010
00000001
,
00000100
00001000
00010000
00000000
01000000
00010000
00001000
00010000
00000100
00010000
00001000
01000000
00010000
10000000
01000000
00100000
,
00001000
00010000
00001000
00010000
00001000
00000000
00000100
00000001
00000100
00000001
00000100
00000000
00000010
00010000
00000010
00010000
,
00001000
01000000
00001000
01000000
00001000
00000000
00100000
00010000
00100000
00010000
10000000
01000000
10000000
00100000
01000000
00000000
,
00010000
01000000
00010000
00000000
01001000
00000000
00001000
00010000
00000100
00001000
00000010
00000000
00000010
00000000
00000100
00000001
,
00001000
00000100
00000010
00000100
00010000
00000000
01000000
00010000
00001000
00010000
00000100
00001000
00000100
00000001
00000100
00000010
,
00000001
00000100
00000001
00000000
00000010
00000000
00000100
00001000
00000100
00000000
00010000
00000000
00100000
00000000
01000000
00010000
,
10000000
00000000
00000000
01000000
00000000
00000000
10000000
00000000
00000000
00000000
00000000
00000000
00100000
00000000
00000000
00000000
00000000
00000000
00100000
00000000
00000000
00010000
00000000
00000000
00001000
00000000
00000000
00010000
00000000
00000000
00001000
00000000
00000000
00000000
00000000
00000000
00000010
00000000
00000000
00000000
00000000
00000000
00000100
00000000
00001000
00000000
00000100
00000000
,
00001000
00000100
00001000
00000000
00000010
00000000
00000100
00000001
00001000
00000100
00010000
00001000
00010000
00100000
00010000
00100000
,
01000000
00000000
00010000
00100000
01000000
10000000
00010000
00000000
01000000
00001000
00010000
00001000
00010000
00000100
00000010
00000001
,
00000100
00000200
00000000
00000000
00000000
00000000
00000000
00000000
,
00000000
00000000
00000000
00000000
,
00000010
00000000
00000000
00000020
00000000
00000000
00000000
00000000
00000000
00000000
00000000
00000000
00000000
00000000
00000000
00000000
00000000
00000000
00000330
00000000
00000000
00000001
00001000
00000001
,
00001000
00000000
00000100
00010000
00001000
00010000
01000000
00000000
10000000
00010000
10000000
00010000
00100000
00001000
00010000
00000010
,
00010000
00000000
00100000
00000000
00010000
00000000
00000010
00000000
00001000
00000000
00000001
00000000
00000010
00000000
00000100
00001000
,
00000010
00000000
00000000
00000000
00000000
00000000
00000100
00000000
00000000
00000000
00000000
00000000
00001000
00000000
00000000
00000000
00000000
00000000
00010000
00000000
00000000
01000000
00000000
00000000
00010000
00000000
00000000
01000000
00000000
00000000
00010000
00000000
00000000
00000000
00000000
00000000
00001000
00000000
00000000
00000000
00000000
00000000
01000000
00000000
00010000
00000000
01000000
00000000
,
00010000
00000000
00000000
10000000
00000000
00000000
00100000
00000000
00000000
00010000
00000000
00000000
00000100
00000000
00000000
00010000
00000000
00000000
00000010
00001000
00000010
00000100
00000001
00000100
,
00000010
00000000
00000000
00000000
00000000
00000000
00010000
00000000
00000000
00000000
00000000
00000000
00011000
00000000
00000000
00000000
00000000
00000000
00001000
00000000
01000000
00000000
00001000
00000000
01000000
00000000
00000000
00100000
00000000
00000000
10000000
00000000
00000000
00010000
00000000
00000000
10000000
00000000
00000000
01000000
00000000
00000000
00100000
00000000
00000000
00010000
00000000
00000000
,
01000000
00000000
00001000
00000000
00000010
00000000
00000001
00000000
00000100
00000000
00000010
00000000
00000100
00000000
00001000
00010000
,
00100000
00000000
00000000
00000000
00000000
00000000
10000000
00000000
00000000
00000000
00000000
00000000
01000000
00000000
00000000
00000000
00000000
00000000
00100000
00000000
00000000
00000000
00000000
00000000
01000000
00000000
00000000
10000000
00000000
00000000
00010000
00000000
00000000
01000000
00000000
00000000
00100000
00000000
00000000
00000000
00000000
00000000
00010000
00000000
00001000
00000000
00010000
00000000
,
00001000
00000000
00000000
00000000
00000000
00000000
00000010
00000000
00000000
00000000
00000000
00000000
00000001
00000000
00000100
00000000
00000010
00000000
00001000
00000000
00000010
00000000
00000100
00000000
00000001
00000000
00000000
00001000
00000000
00000000
00000100
00000000
00000000
00000010
00000000
00000000
00000100
00000000
00000000
00000000
00000000
00000000
00010000
00000000
00000000
00000000
00000000
00000000
,
00001000
01000000
00001000
00000000
00100000
00000000
00010000
10000000
00010000
00100000
01000000
10000000
00100000
01000000
00100000
00010000
,
00001000
00000000
00000010
00000000
00000100
00000000
00001000
00000001
00000100
00000010
00000100
00000000
00001000
00000000
00010000
01000000
,
00100000
00000000
01000000
00000000
10000000
00010000
10000000
00000000
00100000
01000000
00010000
00000000
00100000
00000000
00001000
00010000
,
00000100
00000000
00001000
00000000
00000100
00000000
00000010
00000000
00000001
00000000
00000010
00000000
00000100
00000000
00000000
00000000
00000000
00000000
00001000
00000000
00000000
00000000
00000000
00000000
00000010
00000000
00000000
00010000
00000000
00000000
00001000
00000000
00000000
01000000
00000000
00000000
00010000
00000000
00000000
00000000
00000000
00000000
00100000
00000000
00000000
01000000
00000000
00000000
,
10000000
00010000
01000000
00000000
00100000
00010000
00001000
00000100
00001000
00000000
00010000
01000000
00010000
00001000
00000010
00000100
,
00001000
00000000
00000001
00000100
00000001
00000000
00000010
00001000
00010000
00001000
00010000
00000000
00100000
10000000
00100000
00000000
,
01000000
00010000
00100000
00010000
00100000
00000000
01000000
10000000
00010000
01000000
00010000
00000000
00100000
00001000
00100000
00000000
,
00001000
00010000
00001000
00010000
00000010
00000000
00000100
00000001
00001000
00000100
00000010
00000000
00000100
00001000
00000001
00000000
,
00000100
00001000
00010000
00001000
00100000
00000000
00010000
00000000
10000000
01000000
00010000
00001000
00010000
00001000
00000100
00000001
,
00000020
00000000
00000000
00000000
,
00000000
00000000
00000000
00000000
,
00000000
00000000
00000000
00000000
,
00000000
00000000
00000000
00000000
00000000
00000000
00000000
00000000
00000000
00000000
00000000
00000000
00000130
00010000
00001000
01000000
,
00200000
00000000
00000000
00000000
,
00000000
00000000
00000000
00000000
,
01300000
00000000
00010000
10000000
00010000
10000000
01000000
00010000
01000000
00010000
00001000
00000010
00001000
00000010
00000001
00001000
,
00000001
00000000
00000100
00001000
00000100
00001000
00010000
00000000
01000000
00010000
01000000
00010000
00001000
00000000
01000000
00010000
,
01000000
00100000
10000000
00000000
01000000
00000000
00100000
00001000
00010000
00000000
00100000
00000000
00010000
00000000
00001000
00000010
,
00000100
00000000
00000000
00001000
00000000
00000000
00000100
00000000
00000000
00000000
00000000
00000000
00000010
00000000
00000000
00000000
00000000
00000000
00000001
00000000
00000000
00001000
00000000
00000000
00000001
00000000
00000000
00000100
00000000
00000000
00000010
00000000
00000000
00000000
00000000
00000000
00010000
00000000
00000000
00000000
00000000
00000000
00001000
00000000
01000000
00000000
00001000
00000000
,
01000000
00000000
00000000
00001000
00000000
00000000
01000000
00000000
00000000
00000000
00000000
00000000
00100000
00000000
00000000
00000000
00000000
00000000
10000000
00000000
00000000
01000000
00000000
00000000
00100000
00000000
00000000
00010000
00000000
00000000
00100000
00000000
00000000
00000000
00000000
00000000
00001000
00000000
00010000
00000000
00000100
00000000
00010000
00000000
00000100
00000000
00001000
00000000
,
00000001
00000100
00000001
00000000
00001001
00000000
00001000
00000100
00010000
00001000
01000000
00010000
01000000
10000000
01000000
00100000
,
01000000
00010000
00100000
00000000
01000000
00000000
00010000
00001000
00010000
00000000
00000010
00000000
00000100
00000000
00000001
00001000
,
00000100
00000000
00000000
00000010
00000000
00000000
00000100
00000000
00000000
00000000
00000000
00000000
00010000
00000000
00000000
00000000
00000000
00000000
00001000
00000000
00000000
01000000
00000000
00000000
00100000
00000000
00000000
10000000
00000000
00000000
00010000
00000000
00000000
00000000
00000000
00000000
00100000
00000000
00000000
00001000
00000000
00000000
00010000
00000000
00001000
00000000
00010000
00000000
,
00001000
00000000
00000000
00010000
00000000
00000000
00000010
00000000
00000000
00000000
00000000
00000000
00000100
00000000
00000001
00000000
00001000
00000000
00000100
00000000
00001000
00000000
00000001
00000000
00000100
00000000
00000000
00000000
00000000
00000000
00000010
00000000
00000000
00010000
00000000
00000000
00001000
00000000
00000000
00000000
00000000
00000000
00101000
00000000
00000000
00000000
00000000
00000000
,
00100000
01000000
10000000
00000000
00010000
01000000
00010000
00100000
00001000
00010000
00001000
00000010
00000100
00001000
00000100
00000010
,
00000001
00000100
00001000
00010000
00100000
00000000
10000000
01000000
00010000
00001000
00000010
00000000
00000001
00001000
00000001
00001000
,
00000100
00010000
00001000
00010000
01000000
00000000
00010000
00001000
00000100
00000010
00000100
00000001
00000100
00001000
00010000
00001000
,
01000000
00000000
00010000
00000000
10000000
00000000
01000000
00000000
10000000
00000000
00010000
00000000
01000000
00000000
00000000
00000000
00000000
00000000
00100000
00000000
00000000
10000000
00000000
00000000
01000000
00000000
00000000
00100000
00000000
00000000
00010000
00000000
00000000
00000000
00000000
00000000
01000000
00000000
00000000
00000000
00000000
00000000
01000000
00000000
00000000
00001000
00000000
00000000
,
00010000
00000000
00000000
00000100
00000000
00000000
00001000
00000000
00000000
00000100
00000000
00000000
00000010
00000000
00000001
00000000
00000010
00000000
00000100
00000000
00001000
00000000
00000100
00000000
00000010
00000000
00000000
00000001
00000000
00000000
00000100
00000000
00000000
00000010
00000000
00000000
00000100
00000000
00000000
00001000
00000000
00000000
00010000
00000000
00000000
00100000
00000000
00000000
,
10000000
00010000
10000000
00000000
01000000
00000000
00100000
00010000
00100000
00000000
00001000
00000000
00010000
00000000
00000010
00001000
,
00000010
00000100
00000001
00000000
00000010
00000000
00000010
00000100
00010000
00001000
00100000
00000000
01000000
00000000
10000000
00010000
,
10000000
00100000
01000000
00000000
00010000
00000000
00100000
00001000
00010000
00000100
00000010
00000100
00001000
00000100
00000001
00000100
,
00000010
00000000
00000100
00010000
00001000
01000000
00001000
00000000
00010000
01000000
00100000
01000000
10000000
00000000
00010000
01000000
,
00002000
00000000
00000000
00000000
,
00000000
00000000
00000000
00000000
,
00000000
00000000
00000000
00000000
,
00003000
00000000
00000000
00000000
;
