#TITLE:Kura Kura;
#SUBTITLE:;
#ARTIST:TWICE;
#TITLETRANSLIT:;
#SUBTITLETRANSLIT:;
#ARTISTTRANSLIT:;
#GENRE:;
#CREDIT:;
#BANNER:Kura Kura.png;
#BACKGROUND:Kura Kura-bg.png;
#LYRICSPATH:;
#CDTITLE:;
#MUSIC:Kura Kura.ogg;
#OFFSET:0.000458;
#SAMPLESTART:49.400002;
#SAMPLELENGTH:13.913000;
#SELECTABLE:YES;
#BPMS:0.000000=130.998993
;
#STOPS:
;
#BGCHANGES:0.000=Kura Kura.mp4=1.000=0=0=1=====,
99999=-nosongbg-=1.000=0=0=0 // don't automatically add -songbackground-
;
#KEYSOUNDS:;
#ATTACKS:;

//---------------dance-single - ----------------
#NOTES:
     dance-single:
     :
     Hard:
     12:
     0.492496,0.596923,0.329850,0.532017,0.452214,324.000000,293.000000,31.000000,50.000000,0.000000,0.000000,0.492496,0.596923,0.329850,0.532017,0.452214,324.000000,293.000000,31.000000,50.000000,0.000000,0.000000:
// measure 0
0000
0000
0000
0000
,  // measure 1
0000
0000
0000
0000
,  // measure 2
0000
0000
0000
0000
,  // measure 3
0000
0000
0000
0000
,  // measure 4
0000
0000
0000
0000
,  // measure 5
0000
0000
0000
0000
,  // measure 6
0012
0000
0000
2003
0000
0000
3020
0000
,  // measure 7
0130
0000
0000
0110
0000
0000
0000
0000
0001
0000
0000
0000
1000
0000
0000
0000
,  // measure 8
2100
0000
0000
3002
0000
0000
0013
0000
,  // measure 9
0000
0100
0200
0000
0300
1000
0001
0100
,  // measure 10
0010
0000
0000
0010
0000
0000
1000
0000
0000
1000
0000
0000
0200
0000
0000
0000
,  // measure 11
0310
0000
0000
0000
0000
0000
0000
0000
0000
0010
0000
0000
1000
0000
0000
0000
0000
0000
0010
0000
0000
0000
0000
0000
0001
0000
0000
0000
0000
0000
0000
0000
0010
0000
0000
0000
0100
0000
0000
0000
0000
0000
0000
0000
1000
0000
0000
0000
,  // measure 12
0010
0000
0120
0000
0000
0000
1030
0000
0100
0010
0000
0001
,  // measure 13
0100
0000
0000
0000
0120
0000
0000
0000
0000
0000
0000
0000
1030
0000
0000
0100
0000
0000
0001
0000
0000
0100
0000
0000
,  // measure 14
1000
0000
0000
0010
0000
0000
0001
0000
0000
0010
0000
0000
0200
0000
0000
0000
,  // measure 15
0310
0000
0000
0000
0000
0000
0000
0000
0000
0010
0000
0000
0001
0000
0000
0000
0000
0000
0010
0000
0000
0000
0000
0000
1000
0000
0000
0000
0000
0000
0000
0000
0100
0000
0000
0000
0010
0000
0000
0000
0000
0000
0000
0000
1000
0000
0000
0000
,  // measure 16
0010
0000
0021
0000
0000
0000
0031
0000
0100
0010
0000
0001
,  // measure 17
0010
0000
0000
0000
1020
0000
0000
0000
0000
0000
0000
0000
0130
0000
0000
0010
0000
0000
1000
0000
0000
0100
0000
0000
,  // measure 18
0020
0000
0000
0032
0000
0000
2003
0000
0000
0000
3001
0000
0200
0000
0010
0000
,  // measure 19
0000
0000
0301
0000
0020
0000
0000
0000
0031
0100
0000
0010
0000
0000
1000
0000
,  // measure 20
0001
0000
0000
0010
0000
0000
0100
0000
0001
0000
0000
0100
0000
0000
1000
0000
,  // measure 21
0020
0000
0030
0100
0010
1000
0100
1000
,  // measure 22
0002
0000
0000
0023
0000
0000
0230
0000
0000
0000
1300
0000
0020
0000
0100
0000
,  // measure 23
0000
1030
0002
0000
1003
0100
0010
0002
,  // measure 24
0000
1003
0020
0000
0130
1000
0100
0002
,  // measure 25
0000
0013
0100
0010
0002
0000
2003
0000
,  // measure 26
3000
0000
0000
0000
1000
0010
0001
0020
0000
0000
1030
0000
0001
0000
0000
0000
,  // measure 27
1100
0000
0000
0001
0010
0000
0100
0000
0001
0000
0100
0000
0010
0000
0001
0000
,  // measure 28
1000
0000
0010
0000
0001
0000
0010
0000
0100
0001
0000
0010
0000
0001
1000
0000
,  // measure 29
0001
0100
0000
0001
0100
0000
0010
1000
0000
0010
1000
0000
1001
0000
0000
0000
,  // measure 30
1000
0100
0001
0200
0000
1300
0001
0000
0100
0000
0010
0000
0010
0000
1000
0000
,  // measure 31
1010
0000
0000
1000
0100
0000
0010
0000
1000
0000
0010
0000
0001
0000
1000
0000
,  // measure 32
0010
0000
0100
0000
1000
0000
0100
0000
0010
0100
0000
0001
0000
0010
0100
0000
,  // measure 33
1000
0010
0000
1000
0010
0000
0100
0001
0000
0100
0001
0000
1001
0000
0000
0000
,  // measure 34
0001
0010
1000
0020
0000
0031
1000
0000
0010
0000
0100
0000
0000
0010
0000
0000
,  // measure 35
2010
0000
0000
3001
0000
0000
1000
0000
0100
0000
0010
0000
0000
0001
0000
0000
,  // measure 36
0012
0000
0000
1003
0000
0000
0001
0000
0100
0000
0010
0000
0000
1000
0000
0000
,  // measure 37
2010
0000
0000
3001
0000
0000
1000
0000
0100
0000
0001
0000
0000
0100
0000
0000
,  // measure 38
0120
0000
0000
0031
0000
0000
1000
0000
0001
0000
0100
0000
0010
0000
1000
0000
,  // measure 39
1100
0000
0000
0001
0010
0000
0100
0000
0001
0000
1000
0000
0010
0000
0001
0000
,  // measure 40
0100
0000
1000
0000
0100
0000
0001
0000
1000
0100
0000
0010
0000
0100
1000
0000
,  // measure 41
0001
0100
0000
0010
0100
0000
1000
0100
0000
0010
0100
0000
0001
0000
0000
0000
,  // measure 42
1000
0100
0000
0010
0100
0000
0001
0100
0000
0010
0100
0000
1000
0000
0010
0000
,  // measure 43
0120
0000
0000
1030
0000
0000
2100
0000
0000
3001
0000
0000
0012
0000
0000
0000
,  // measure 44
1003
0000
0000
1001
0000
0000
0000
0000
1000
0000
0000
0000
0010
0000
0000
0000
,  // measure 45
0210
0000
0000
0301
0000
0000
0012
0000
0000
1003
0000
0000
2100
0000
0000
0000
,  // measure 46
3001
0000
0000
0001
0100
0001
0000
2000
0000
0000
3010
0000
0001
0000
0010
0000
,  // measure 47
0210
0000
0000
0301
0000
0000
0012
0000
0000
1003
0000
0000
0120
0000
0000
0000
,  // measure 48
0130
0000
0000
1001
0000
0000
0000
0000
0001
0000
0000
0000
1000
0000
0000
0000
,  // measure 49
2010
0000
0000
3100
0000
0000
0012
0000
0000
0103
0000
0000
1002
0000
0000
0000
,  // measure 50
0103
0000
0000
0110
0000
0000
0000
0000
1000
0001
0000
1000
0020
0000
0200
0000
,  // measure 51
0330
0000
0000
0000
;

//---------------dance-single - ----------------
#NOTES:
     dance-single:
     :
     Medium:
     9:
     0.323770,0.434126,0.074482,0.425613,0.175566,213.000000,206.000000,7.000000,40.000000,0.000000,0.000000,0.323770,0.434126,0.074482,0.425613,0.175566,213.000000,206.000000,7.000000,40.000000,0.000000,0.000000:
// measure 0
0000
0000
0000
0000
,  // measure 1
0000
0000
0000
0000
,  // measure 2
0000
0000
0000
0000
,  // measure 3
0000
0000
0000
0000
,  // measure 4
0000
0000
0000
0000
,  // measure 5
0000
0000
0000
0000
,  // measure 6
2000
0000
0000
3002
0000
0000
0203
0000
,  // measure 7
0310
0000
0000
0100
0000
0000
0000
0000
0010
0000
0000
0000
1000
0000
0000
0000
,  // measure 8
0002
0000
0000
0023
0000
0000
0230
0000
,  // measure 9
0300
2000
0002
0000
3003
0000
0000
0000
,  // measure 10
1000
0000
0000
1000
0000
0000
0010
0000
0000
0010
0000
0000
0200
0000
0000
0000
,  // measure 11
0301
0001
1000
0100
,  // measure 12
0010
0000
0000
0010
0000
0000
0001
0000
0000
0001
0000
0000
2000
0000
0000
0000
,  // measure 13
3001
0000
0001
0000
0100
0010
1000
0000
,  // measure 14
0001
0000
0000
0001
0000
0000
0010
0000
0000
0010
0000
0000
0200
0000
0000
0000
,  // measure 15
1300
1000
0001
0100
,  // measure 16
0010
0000
0000
0010
0000
0000
1000
0000
0000
1000
0000
0000
0002
0000
0000
0000
,  // measure 17
1003
0000
1000
0000
0100
0010
0001
0000
,  // measure 18
0200
0000
0010
0000
,  // measure 19
0320
0000
1000
0000
,  // measure 20
1030
0000
0000
0100
0000
0000
1000
0000
0001
0000
0000
0010
0000
0000
0100
0000
,  // measure 21
2000
0000
0010
3010
,  // measure 22
0020
0100
1000
0100
,  // measure 23
0230
0010
0001
0010
,  // measure 24
0301
1000
0010
0000
0100
0010
0100
0000
,  // measure 25
0001
0010
0100
1000
0001
0000
1001
0000
,  // measure 26
0000
0000
0000
0000
0001
0000
0000
0100
0000
0000
0100
0000
0010
0000
0000
0000
,  // measure 27
1000
0000
0000
0100
0000
0000
0020
0000
0000
0000
0031
0000
0100
0000
0020
0000
,  // measure 28
0000
0000
1030
0000
0001
0000
0010
0000
0200
0000
0000
1300
0000
0000
0000
0000
,  // measure 29
0001
0000
0000
0001
0000
0000
0010
0000
0000
0010
0000
0000
1001
0000
0000
0000
,  // measure 30
1000
0000
0000
0100
0000
0000
0010
0000
0100
0000
1000
0000
0010
0000
0100
0000
,  // measure 31
0001
0000
0000
0001
0000
0000
2000
0000
0000
0000
3001
0000
0010
0000
0200
0000
,  // measure 32
0000
0000
1300
0000
0001
0000
0100
0000
0020
0000
0000
1030
0000
0000
0000
0000
,  // measure 33
1000
0000
0000
1000
0000
0000
0100
0000
0000
0100
0000
0000
1001
0000
0000
0000
,  // measure 34
0001
0000
0000
1000
0000
0000
0001
0000
0100
0000
0000
0000
0100
0000
0000
0000
,  // measure 35
1010
0000
0100
0001
1000
0100
0010
0000
,  // measure 36
0011
0000
1000
0001
0100
0010
1000
0000
,  // measure 37
1010
0000
0001
1000
0100
0010
0001
0000
,  // measure 38
0011
0000
1000
0001
0100
0010
1000
0000
,  // measure 39
0010
0000
0000
1000
0000
0000
0002
0000
0000
0000
1003
0000
0100
0000
0020
0000
,  // measure 40
0000
0000
0031
0000
0100
0000
0010
0000
2000
0000
0000
3001
0000
0000
0000
0000
,  // measure 41
0001
0000
0000
0001
0000
0000
0100
0000
0000
0010
0000
0000
0000
0000
0000
0000
,  // measure 42
1000
0000
0000
1000
0000
0000
0100
0000
0000
0010
0000
0000
0001
0000
0000
0000
,  // measure 43
0002
0000
0000
2003
0000
0000
3020
0000
,  // measure 44
0130
0000
0000
0100
0000
0000
0000
0000
0100
0000
0000
0000
0001
0000
0000
0000
,  // measure 45
0002
0000
0000
2003
0000
0000
3200
0000
,  // measure 46
0310
0000
0000
0010
0001
0000
0000
0001
0000
0000
1000
0000
0001
0000
0000
0000
,  // measure 47
2000
0000
0000
3020
0000
0000
0230
0000
,  // measure 48
0301
0000
0000
0001
0000
0000
0000
0000
0001
0000
0000
0000
0010
0000
0000
0000
,  // measure 49
0200
0000
0000
2300
0000
0000
3020
0000
,  // measure 50
0130
0000
0000
0100
0000
0000
0000
0000
0001
0000
0000
0000
0020
0000
0200
0000
,  // measure 51
0330
0000
0000
0000
;

//---------------dance-single - ----------------
#NOTES:
     dance-single:
     :
     Easy:
     6:
     0.226487,0.269998,0.063842,0.085123,0.000000,149.000000,143.000000,6.000000,8.000000,0.000000,0.000000,0.226487,0.269998,0.063842,0.085123,0.000000,149.000000,143.000000,6.000000,8.000000,0.000000,0.000000:
0000
0000
0000
0000
,
0000
0000
0000
0000
,
0000
0000
0000
0000
,
0000
0000
0000
0000
,
0000
0000
0000
0000
,
0000
0000
0000
0000
,
0001
0001
1000
0001
,
0100
0000
0010
0010
,
1000
1000
0001
1000
,
0000
0000
0000
0000
,
0100
0000
0010
0000
,
0001
0000
1000
0010
,
0100
0100
0001
0010
,
0100
0100
1000
0001
,
1000
0000
0010
0000
,
0001
0000
0010
0010
,
0100
0001
1000
0001
,
0010
0100
1000
0001
,
2000
0000
3010
0000
,
0200
0000
0301
0000
,
0002
0000
0013
0000
,
0200
0000
1300
0001
,
2000
0000
3100
0000
,
0002
0000
0013
0000
,
2000
0000
3010
0000
,
0002
0000
0103
0100
,
0000
0000
0000
0000
,
1001
0001
0100
0010
,
1000
0100
0010
0010
,
0001
1000
0001
1001
,
1000
0010
0100
0000
,
1001
1000
0010
0100
,
0001
0010
0100
0100
,
1000
0001
1000
1001
,
0001
0100
0010
0000
,
1000
0100
0001
0000
,
0001
0100
1000
0000
,
0001
0100
1000
0000
,
1000
0100
0001
0000
,
1001
0001
0100
0010
,
1000
0100
0010
0010
,
0001
1000
0001
1000
,
0010
0100
0010
0100
,
0001
0001
1000
0001
,
0010
0000
0100
0100
,
1000
0001
1000
0010
,
0100
0010
1000
0001
,
1000
1000
0001
0010
,
0100
0000
0010
0010
,
0001
0001
1000
0001
,
0100
0100
0010
0110
;
