#TITLE:Kiss Me More;
#SUBTITLE:;
#ARTIST:Doja Cat Ft. SZA;
#TITLETRANSLIT:;
#SUBTITLETRANSLIT:;
#ARTISTTRANSLIT:;
#CREDIT:;
#BANNER:Kiss Me More BN.png;
#BACKGROUND:;
#LYRICSPATH:;
#CDTITLE:;
#MUSIC:Kiss Me More.ogg;
#OFFSET:0.060;
#SAMPLESTART:25.800;
#SAMPLELENGTH:15.000;
#SELECTABLE:YES;
#BPMS:0.000=111.000;
#STOPS:;
#BGCHANGES:0.083=Kiss Me More.avi=1.000=1=1=0,
99999=-nosongbg-=1.000=0=0=0 // don't automatically add -songbackground-
;

//---------------dance-single - ----------------
#NOTES:
     dance-single:
     :
     Hard:
     11:
     0.421,0.450,0.144,0.352,0.076:
0000
0000
0000
0000
,
0000
0000
0000
0000
,
0000
0000
0000
0000
,
0000
0000
0000
0000
,
0000
0000
0000
2000
,
3001
0000
0001
0100
0000
0001
0100
0000
,
0010
0000
1000
0010
0000
1000
0020
0000
,
0230
0000
0001
0302
0000
0000
0000
0003
,
1001
0000
0110
0000
0000
0010
0200
0000
,
0302
0000
1003
2000
0000
3001
0100
0001
,
0200
0000
0010
0310
0000
0001
0010
0100
,
1000
0000
0000
0001
0000
0000
1001
0000
0000
0000
0000
0000
0000
0000
0000
0000
,
0110
0000
1010
0000
0101
0001
0200
0000
,
0301
0001
0100
0001
0000
0100
1000
0100
,
0010
0001
0010
0100
2000
0000
0010
0000
,
0010
0010
0000
0002
0000
0000
3003
0000
,
1001
0000
0110
0000
1000
0001
2000
0000
,
3001
0001
0010
0100
0000
0001
0100
0001
,
0010
0100
0010
0100
0020
0000
0100
0000
,
0001
0000
0001
0000
0000
0000
0002
0030
0000
0000
0000
0000
0000
0000
0000
0000
,
1003
1001
2000
3020
,
1030
0200
0302
0103
,
0020
0032
0013
2000
,
3020
0000
0000
0000
1030
0000
0000
0000
1000
0000
0000
0001
0000
0000
1000
0000
,
0001
0000
0000
0000
1001
0000
0000
0000
0000
0000
1000
0100
0000
0000
0100
0000
,
0010
0000
1000
0000
0010
0000
0100
0000
0000
0000
0001
0100
0000
0000
0100
0000
,
0010
0000
0100
0000
0010
0000
0100
0000
0001
0000
0100
0010
0000
0000
0100
0000
,
0001
0000
1000
0000
0010
0000
0100
0000
0000
0000
0010
0001
0000
0000
0100
0000
,
0001
0000
0100
0000
0001
0000
0010
0000
1000
0000
0000
0010
0000
0000
1000
0000
,
0001
0000
0100
0000
0002
0000
0000
0000
0103
0000
0010
0100
0000
0000
0100
0000
,
0001
0000
0100
0000
0010
0000
0100
0000
0001
0000
0000
0100
0000
0000
0001
0000
,
1000
0000
0001
0000
1000
0000
0001
0000
0000
0000
0100
0001
0000
0000
0010
0000
,
0100
0000
0010
0000
0100
0000
0001
0000
0000
0000
1000
0001
1000
0000
0100
0000
,
0001
0000
0100
0000
0010
0000
0100
0000
0010
0000
0100
0010
0100
0000
0001
0000
,
0100
0000
0001
0000
1000
0000
0010
1000
0010
0000
0100
0000
0001
0000
0010
0000
,
0100
0000
1000
0000
0010
0000
0100
0001
0100
0000
0010
0000
1000
0000
0100
0000
,
0001
0000
0100
0000
0010
0000
1000
0000
0001
0000
0100
0010
0100
0000
0001
0000
,
0100
0000
1000
0000
0001
0000
0100
0010
0100
0000
0010
0000
0001
0000
0010
0000
,
0100
0000
0001
0000
0100
0000
0001
1000
0001
0000
0100
0000
0010
0000
1000
0000
,
0001
0000
0100
0000
0010
0000
1000
0010
1000
0000
0100
0000
0001
0000
0010
0000
,
1010
0000
0110
0000
0010
1000
0020
0000
,
0031
0001
0010
0002
0000
0013
0100
1000
,
0100
0010
0001
0100
0002
0000
1000
0000
,
1000
1000
0000
0200
0000
0000
0000
0303
,
1001
0000
1010
0000
1000
0001
2000
0000
,
3010
0010
0001
0010
1000
0001
1000
0010
,
1000
0001
0010
0100
2000
0000
0001
0000
,
0001
0001
0000
0020
0000
0000
0000
3030
,
1001
0011
2000
3020
,
1030
0200
0302
0103
,
0020
0230
0310
0002
,
2003
0000
0000
0000
3001
0000
0000
0000
1000
0000
0000
0010
0000
0000
1000
0000
,
0010
1000
0010
1000
0010
0100
0010
0100
,
0001
0100
0001
0200
0000
0302
0000
2003
,
0000
3020
0000
1030
1000
0001
1000
0010
,
1000
0010
1000
0200
0000
0320
0000
1030
,
1001
0101
0000
0000
;

//---------------dance-single - ----------------
#NOTES:
     dance-single:
     :
     Medium:
     9:
     0.358,0.360,0.232,0.128,0.008:
0000
0000
0000
0000
,
0000
0000
0000
0000
,
0000
0000
0000
0000
,
0000
0000
0000
0000
,
0000
0000
0000
0000
0100
0010
0100
0000
,
0001
0000
1000
0000
0001
0100
0001
0000
,
1000
0000
0010
0000
0100
0001
0100
0000
,
0010
0000
1000
0000
0010
0100
0010
0000
,
0100
0000
0001
0000
0100
0010
0100
0000
,
0001
0000
1000
0000
0001
0100
0001
0000
,
0010
0000
1000
0000
0010
0100
0010
0000
,
0100
0000
0001
0000
0100
0010
0100
0000
,
0100
0000
0010
0000
0100
0001
0200
0000
,
0301
0000
0001
0100
0001
0000
0010
1000
,
0010
0100
0002
1000
,
0010
1000
0010
1003
,
0100
0010
0100
0000
0001
1000
0002
0000
,
1003
0000
0100
0010
0100
0000
0001
1000
,
0001
0100
0002
1000
,
0010
1000
0010
1000
,
0010
1003
2010
0001
,
3010
0102
1000
0103
,
0120
1000
0130
0102
,
1000
0000
0000
0000
0103
0000
0000
0000
1000
0000
0000
0001
0000
0000
1000
0000
,
1001
0000
1001
0000
0010
1000
0010
1000
,
0001
0000
1001
0000
0010
1000
0010
1000
,
0001
0000
1001
0000
0001
0010
0100
0010
,
1000
0000
1001
0000
0001
0100
0001
1000
,
0001
0000
0101
0000
0100
0010
0100
0001
,
0100
0000
0101
0000
0010
1000
0001
1000
,
0001
0000
0101
0000
0001
0100
0010
0100
,
0001
0000
0101
0000
0100
0001
0100
0010
,
0100
0000
0110
0000
1000
0001
1000
0001
,
1000
0000
1010
0000
0001
0100
0001
0100
,
0001
0000
0101
0000
0100
0010
0100
0010
,
0100
0000
0101
0000
1000
0010
1000
0010
,
1000
0000
1010
0000
0100
0001
0100
0001
,
0100
0000
0101
0000
0010
1000
0010
1000
,
0010
0000
1010
0000
0100
0010
0100
0010
,
0100
0000
0110
0000
1000
0001
1000
0001
,
1000
0000
1010
0000
1000
0010
2000
0000
,
3001
0000
0001
0100
0001
0000
0100
0010
,
0100
0010
2000
0010
,
0001
0010
0001
3010
,
1001
0000
1010
0000
1000
0001
2000
0000
,
3001
0000
0100
0010
0100
0000
0001
1000
,
0001
0100
2000
0010
,
0001
0010
3001
0001
,
0010
0100
0210
0001
,
0310
2010
0001
3010
,
0201
0010
0301
2001
,
0100
0000
0000
0000
3001
0000
0000
0000
0001
0000
0000
0010
0000
0000
0100
0000
,
0001
0100
0001
0000
0001
0100
0001
0000
,
1000
0000
0010
0000
0100
0010
0100
0000
,
0001
0000
0100
0000
1000
0010
1000
0000
,
0100
0000
0001
0000
1000
0001
1000
0000
,
0001
1001
0000
0000
;

//---------------dance-single - ----------------
#NOTES:
     dance-single:
     :
     Easy:
     5:
     0.205,0.225,0.088,0.080,0.000:
0000
0000
0000
0000
,
0000
0000
0000
0000
,
0000
0000
0000
0000
,
0000
0000
0000
0000
,
0000
0000
0010
0000
,
0010
0000
0100
0000
,
0100
0000
0001
0000
,
0001
0000
1000
0000
,
1000
0000
0010
0000
,
0010
0000
0100
0000
,
0100
0000
0001
0000
,
0001
0000
1000
0000
,
1001
0000
1000
0001
,
1000
0010
1000
0010
,
1000
0001
1000
0001
,
1000
0010
1000
0001
,
1000
0001
1000
0010
,
1000
0001
1000
0010
,
0001
1000
0010
0001
,
1000
0010
0001
1000
,
0010
0001
2000
0000
,
0000
3002
0000
0000
,
0203
0000
0000
0320
,
0000
0000
2000
0000
,
0000
3030
1000
1000
,
1001
0000
0001
0001
,
0101
0000
0010
0010
,
1010
0000
1000
1000
,
1001
0000
0010
0010
,
0110
0000
0001
0001
,
0011
0000
1000
1000
,
1010
0000
0100
0100
,
0110
0000
1000
0010
,
1000
0001
1000
0010
,
0001
1000
0001
0100
,
0001
0100
0010
1000
,
0001
0100
0010
1000
,
0001
0100
0010
1000
,
0001
0010
1000
0010
,
0001
0010
1000
0010
,
0110
0000
1000
0010
,
1000
0001
1000
0010
,
1000
0001
1000
0010
,
0001
1000
0010
0001
,
0001
1000
0001
0100
,
1000
0001
0100
1000
,
0001
0100
1000
0001
,
0100
1000
0001
0100
,
1000
0100
0020
0000
,
0000
2030
0000
0000
,
3002
0000
0000
0203
,
0000
0000
0020
0000
,
0000
0330
0100
0100
,
0100
0100
0000
0010
,
0000
0100
0001
0001
,
0001
0001
0000
1000
,
0001
1001
0000
0000
;

//---------------dance-single - ----------------
#NOTES:
     dance-single:
     :
     Beginner:
     2:
     0.139,0.180,0.000,0.016,0.000: // measure 1
0000
0000
0000
0000
,  // measure 2
0000
0000
0000
0000
,  // measure 3
0000
0000
0000
0000
,  // measure 4
0000
0000
0000
0000
,  // measure 5
0000
0000
1000
0000
,  // measure 6
0000
0000
1000
0000
,  // measure 7
0000
0000
0001
0000
,  // measure 8
0000
0000
0001
0000
,  // measure 9
0000
0000
0010
0000
,  // measure 10
0000
0000
0010
0000
,  // measure 11
0000
0000
0100
0000
,  // measure 12
0000
0000
0100
0000
,  // measure 13
1000
1000
0000
0001
,  // measure 14
0000
0001
0000
0001
,  // measure 15
0000
0001
0000
0001
,  // measure 16
0000
0001
0000
0000
,  // measure 17
0100
0100
0010
0000
,  // measure 18
0010
0000
0010
0000
,  // measure 19
0010
0000
0010
0000
,  // measure 20
0010
0000
0010
0000
,  // measure 21
0010
0000
1000
1000
,  // measure 22
1000
0001
0001
0001
,  // measure 23
1000
1000
1000
0001
,  // measure 24
0001
0001
2000
0000
,  // measure 25
0000
0000
3001
0000
,  // measure 26
0001
0001
0000
1000
,  // measure 27
1000
1000
0001
0000
,  // measure 28
0001
0001
0000
0100
,  // measure 29
0100
0100
1000
0000
,  // measure 30
1000
1000
0000
0001
,  // measure 31
0001
0001
0010
0000
,  // measure 32
0010
0010
0000
0100
,  // measure 33
0100
0100
1000
0000
,  // measure 34
1000
0000
0001
0000
,  // measure 35
0001
0000
1000
0000
,  // measure 36
1000
0000
0010
0000
,  // measure 37
0010
0000
0100
0000
,  // measure 38
0100
0000
0001
0000
,  // measure 39
0001
0000
1000
0000
,  // measure 40
1000
0000
0001
0000
,  // measure 41
0001
0001
0100
0000
,  // measure 42
0100
0000
0100
0000
,  // measure 43
0100
0000
0100
0000
,  // measure 44
0100
0100
0000
0100
,  // measure 45
0001
0001
1000
0000
,  // measure 46
1000
0000
1000
0000
,  // measure 47
1000
0000
1000
0000
,  // measure 48
1000
0000
1000
0000
,  // measure 49
1000
0000
0010
0010
,  // measure 50
0010
0100
0100
0100
,  // measure 51
0010
0010
0010
0100
,  // measure 52
0100
0100
0020
0000
,  // measure 53
0000
0030
0100
0000
,  // measure 54
0100
0000
0100
0000
,  // measure 55
0100
0000
0100
0000
,  // measure 56
0010
0000
0100
0000
,  // measure 57
0100
0100
0000
0000
;
