#TITLE:鬼華-修羅の舞-;
#SUBTITLE:;
#ARTIST:SOUND HOLIC Vs. BEMANI Sound Team "T.Kakuta" feat. Nana Takahashi;
#TITLETRANSLIT:Kikka-shura no mai-;
#SUBTITLETRANSLIT:;
#ARTISTTRANSLIT:;
#GENRE:;
#CREDIT:;
#MUSIC:Kikka-shura no mai-.ogg;
#BANNER:Kikka-shura no mai-.png;
#BACKGROUND:Kikka-shura no mai--bg.png;
#CDTITLE:;
#SAMPLESTART:68.233;
#SAMPLELENGTH:15.000;
#SELECTABLE:YES;
#OFFSET:1.702;
#BPMS:0.000=211.000;
#STOPS:;
#BGCHANGES:;
#FGCHANGES:;

//--------------- dance-single - forcednature ----------------
#NOTES:
     dance-single:
     forcednature:
     Beginner:
     8:
     0,0,0,0,0:
0000
0000
0000
0000
,
0000
0000
0000
0000
,
0000
0000
0000
0000
,
0000
0000
0000
0000
,
0000
0000
0000
0000
,
0000
0000
0000
0000
,
0001
0001
0100
0010
,
0000
1000
0001
0000
,
1000
1000
1000
0000
,
0001
0001
0001
0000
,
1000
1000
0100
0010
,
0000
0100
1000
0000
,
0010
0000
0000
0100
0000
0000
0010
0000
,
1001
0000
0000
0000
,
0100
0000
0100
0000
0000
0000
0000
0010
,
0000
0010
0000
0000
,
1000
0000
1000
0000
0000
0000
0000
0001
,
0000
0001
0000
0000
,
0010
0000
0010
0000
0000
0000
0000
0100
,
0000
0100
0000
0000
,
1000
0000
1000
0000
0000
0000
0000
0001
,
0000
0001
0000
0000
,
0100
0001
0000
0001
,
0000
0100
0000
0100
,
0000
0010
0000
0010
,
0000
1000
0000
1000
,
0100
0010
0000
0010
,
0000
0100
0000
0100
,
1000
0000
0000
0001
0000
0000
1000
0000
,
0001
0000
0100
0000
,
0010
0000
0010
0000
,
1000
0000
1000
0000
,
0100
0000
0100
0000
,
0010
0000
0010
0000
,
0001
0000
0001
0000
,
0100
0000
0100
0000
,
0010
0000
0010
0000
,
1000
0000
1000
0000
,
0010
0010
0010
0010
,
0100
0100
0100
0100
,
0220
0000
0330
0000
,
0001
1000
0001
0000
,
1000
0000
0000
0100
0000
0000
1000
0000
,
0000
0100
0000
0000
0010
0000
0010
0000
,
0001
0000
0000
0100
0000
0000
0001
0000
,
1000
1000
0001
0000
,
1001
0000
0110
0000
,
0000
0000
0110
0000
,
0001
0100
0001
0000
,
1000
0100
1000
0000
,
0010
0000
1001
0000
,
0000
0000
0110
0000
,
1001
0000
0100
0010
,
0000
0100
0010
0000
,
1000
0000
0100
1000
,
0001
0000
0100
0001
,
1000
0000
0010
1000
,
0001
0000
0010
0001
,
0100
0000
0000
0100
0000
0000
0010
0000
,
1000
0000
0000
1000
0000
0000
0001
0000
,
0010
0000
0000
0010
0000
0000
0100
0000
,
1001
0000
0100
0000
,
0010
1000
0001
0100
,
0001
1000
0010
1000
,
0001
0000
1000
0000
,
0100
0000
0010
0000
,
0100
1000
0001
0100
,
0001
1000
0010
1000
,
0001
0000
0010
0000
,
0100
1000
0010
0100
,
0001
0000
0000
1000
0000
0000
0001
0000
,
0100
0000
0000
0010
0000
0000
0100
0000
,
1001
0000
0000
0000
,
0010
0000
0100
0000
,
1000
0000
0000
1000
0000
0000
0001
0000
,
0000
0001
0000
0000
0000
0000
0010
0000
,
0000
0010
0000
0000
0100
0000
1000
0000
,
0000
0001
0000
0100
,
0100
0100
0001
0100
,
0100
0100
1000
0100
,
0100
0100
0010
1000
,
0001
0000
0001
1000
,
1000
0100
0010
0001
,
0001
0100
0010
1000
,
1000
0100
0010
0001
,
1000
0001
0000
0100
,
0000
0010
1000
0001
,
0100
0010
0000
1000
,
1000
0100
0000
0001
,
0001
0100
0000
0010
,
0000
0100
0000
0000
0010
0000
0001
0000
,
0000
1000
0000
0000
0001
0000
0100
0000
,
0000
0010
0000
0000
0100
0000
2002
0000
,
0000
3003
0000
0100
,
0100
0000
0000
0000
0000
0010
0000
0000
,
0110
0000
0000
1000
,
1000
0000
0000
0000
0000
0001
0000
0000
,
1001
0000
0000
0000
,
0100
0010
0100
0001
,
1000
0100
0010
0001
,
0000
1000
0000
0010
,
0100
0001
0100
0010
,
0000
1000
0000
0000
0010
0000
0100
0000
,
0000
0001
0000
0000
0100
0000
1001
0000
,
0000
0000
0000
0010
,
0010
0010
0000
1001
,
0000
0001
0000
0000
1001
0000
0000
1000
,
0000
0000
0000
0000
0110
0000
0000
0100
,
0000
0110
0010
0010
;

//--------------- dance-single - forcednature ----------------
#NOTES:
     dance-single:
     forcednature:
     Easy:
     12:
     0,0,0,0,0:
0000
0000
0000
0000
,
0000
0000
0000
0000
,
0000
0000
0000
0000
,
0000
0000
0000
0000
,
0000
0000
0000
0000
,
0000
0000
0000
0000
,
0001
0000
0100
0000
0010
0000
1000
0002
,
0000
1003
0100
0010
,
0001
0000
0100
0001
0000
1000
0010
0000
,
1000
0000
0100
0010
0000
0001
1000
0000
,
0001
0000
0100
0000
0010
0000
1000
0002
,
0000
1003
0100
1000
,
0110
0000
0000
0010
0000
0000
0100
0000
,
1001
0100
0020
0030
,
1001
0000
1001
0000
0000
0000
0000
0110
,
0000
0110
0000
0000
,
0101
0000
0101
0000
0000
0000
0000
1100
,
0000
1100
0000
0000
,
0011
0000
0011
0000
0000
0000
0000
1010
,
0000
1010
0000
0000
,
1001
0000
1001
0000
0000
0000
0000
0110
,
0000
0110
0000
0000
,
0110
0000
1000
0001
,
0100
0001
1000
0010
,
1001
0000
1000
0100
,
1000
0010
0100
0001
,
0010
0010
0010
0010
,
0100
0100
0100
0100
,
1001
0000
0000
0100
0000
0000
0010
0000
,
0220
0000
0330
0000
,
0001
0100
0001
1000
,
0010
1000
0100
0010
,
0100
1000
0100
0000
0010
0000
0001
0000
,
1000
0001
1000
0000
0010
0000
0100
0000
,
1001
0001
0100
0010
,
1000
0001
1000
0100
,
0010
0001
0010
0000
0100
0000
1000
0000
,
0001
0100
0001
0000
1000
0000
0010
0000
,
1000
1100
1000
1010
,
0001
0101
0001
0011
,
1001
0000
0000
0000
0100
0010
0100
0000
,
0010
0010
0010
0100
,
1001
0000
0000
0001
0000
0000
0100
0000
,
0000
0010
0000
0000
1000
0100
1000
0100
,
1000
0000
0000
0001
0000
0000
0100
0000
,
0010
0100
0001
1000
,
2001
0000
0100
0000
,
0000
0000
3100
0000
,
1000
0001
0100
0010
,
0100
0000
0001
1000
,
0010
1000
0001
0010
,
0000
0100
1000
0001
,
0100
0000
0001
0000
1000
0000
0010
0200
,
0000
0301
1000
1000
,
0100
1000
0100
1001
,
0100
0000
0001
0000
0100
0001
0000
0000
,
0010
0100
0010
1001
,
1000
0000
0100
0000
0010
0001
0010
0000
,
0110
0000
0000
1000
0000
0000
0001
0000
,
0110
0000
0000
0001
0000
0000
1000
0000
,
1001
0000
0000
0100
0000
0000
0010
0000
,
2002
3003
1000
0001
,
0100
0001
1000
0010
,
1000
0001
1000
0100
,
0010
0100
0010
0000
0100
0000
0010
0000
,
0100
0010
0100
0000
0010
0000
0100
0000
,
1000
0001
0100
0010
,
1000
0001
1000
0100
,
1000
0001
1000
0000
0001
0000
1000
0000
,
0001
1000
0001
0000
1000
0000
0010
0000
,
0110
0000
0000
0001
0000
0000
1000
0000
,
1001
0000
0000
0010
0000
0000
0100
0000
,
2002
3003
0000
0100
,
0200
0300
0010
0010
,
1001
0000
0000
0001
0000
0000
1100
0000
,
0000
0100
0000
0000
0000
0000
0011
0000
,
0000
0001
0000
0000
0101
0000
1000
0000
,
0010
1000
0001
1000
,
0100
1000
1100
0001
,
0100
0001
0101
1000
,
0010
1000
1010
0001
,
0011
0000
0010
0100
,
0100
0100
1001
0010
,
0010
0010
1001
1000
,
0100
0001
1001
0001
,
0100
0010
1000
0200
,
0000
1300
0001
0100
,
0010
1000
0000
0001
,
0001
0001
0010
1000
,
1000
1000
0010
0110
,
0000
1000
0000
0000
0000
0000
0110
0000
,
0000
0001
0000
0000
0000
0000
1001
0000
,
0000
0100
0000
0000
0010
0000
2002
0000
,
0000
3003
0000
1001
,
1001
0000
0000
0000
0000
0110
0000
0000
,
0110
0000
0000
0101
,
0101
0000
0000
0000
0000
1100
0000
0000
,
1100
0010
0100
0000
,
1001
0001
0100
0001
,
1000
0000
0100
0000
0010
0000
0100
1000
,
0100
0000
1000
0000
0100
0000
1000
0100
,
1000
0100
0010
1001
,
0000
0100
0000
0000
0010
0000
0110
0000
,
0000
1000
0000
0000
0001
0000
2002
0000
,
0000
3003
0000
0100
,
0100
0100
0000
1100
,
0000
0010
0000
0000
0101
0000
0000
0010
,
0000
0000
0000
0000
1010
0000
0000
0100
,
0000
0000
0011
0000
1000
0001
1000
0001
;

//--------------- dance-single - forcednature ----------------
#NOTES:
     dance-single:
     forcednature:
     Medium:
     15:
     0,0,0,0,0:
0000
0000
0000
0000
,
0000
0000
0000
0000
,
0000
0000
0000
0000
,
0000
0000
0000
0000
,
0000
0000
0000
0000
,
0000
0000
0000
0000
,
0001
0100
0010
1000
0001
1000
0100
0020
,
0000
0130
1000
0001
0100
0001
1000
0000
,
0010
0100
0001
0010
0100
1000
0100
0000
,
0010
0001
1000
0010
0001
0010
0100
0001
,
1000
0001
0100
0010
0100
1000
0100
0002
,
0000
0013
0100
0001
0100
1000
0010
0000
,
1001
0000
0000
0101
0000
0000
1100
0000
,
1000
0001
1000
0001
0200
0000
0310
0000
,
0110
0000
0110
0000
0010
0100
0000
0101
,
0000
0000
1100
0000
0000
0010
0100
0010
,
0110
0000
1001
0000
0010
1000
0000
1100
,
0000
0000
0101
0000
0010
0100
0010
0000
,
1010
0000
0011
0000
1000
0001
0000
0101
,
0000
0000
0000
0000
1100
0000
0000
0000
0100
1000
0000
0000
0001
0010
0000
0000
,
0110
0000
0110
0000
1000
0001
0000
0110
,
0000
1001
0200
0310
,
1001
0000
0001
0100
0010
0000
1000
0100
,
0010
0000
0100
1000
0000
0001
1000
0000
,
0010
0000
0100
0001
0010
0000
0100
1000
,
0001
0000
0100
0010
0000
1000
0001
0000
,
1000
0100
1000
0100
1000
0100
1000
0100
,
0010
0001
0010
0001
0010
0001
0010
0001
,
0100
0000
0000
0110
0000
0000
1001
0000
,
0110
0000
0020
0130
,
0110
0000
1000
0000
0001
0100
0010
1000
,
0002
0010
1000
0103
,
0001
0000
0100
0000
1000
0000
0100
0020
,
0000
1030
0001
1000
,
0100
0000
0010
0000
0100
1000
0010
0100
,
0020
0001
0100
1030
,
0010
0000
1000
0000
0001
0000
0010
0200
,
0000
1300
0001
1000
,
1010
1010
0101
0101
,
1100
1100
0011
0011
,
2002
0000
3003
0000
1000
1000
0001
0000
,
1000
0100
0000
0000
0010
0001
0000
0000
1000
0100
0000
0000
0010
0000
0000
0000
,
0001
0000
0100
0001
0000
1000
0010
0000
,
1000
0001
0000
1000
0100
1000
0100
1000
,
0001
0000
0100
0010
0000
1000
0001
0000
,
0010
0100
0010
0100
1000
0001
1000
0001
,
0200
0000
0010
0000
,
0000
0000
0010
0000
,
0301
0100
0010
1000
,
0001
0000
0000
1000
0000
0000
0100
0000
,
0010
0000
0100
0000
1000
0000
0001
0100
,
0000
0010
1000
0001
,
1001
0000
0001
0000
1000
0000
0010
0200
,
0000
0000
0301
0000
1000
0100
1000
0000
,
0001
0100
0001
0100
0001
0100
0001
0000
,
1000
0100
1000
0100
1000
0100
1000
0000
,
0010
0100
0010
0100
0010
0100
0010
0000
,
1000
0001
1000
0001
1000
0001
1000
0000
,
1001
0000
0000
0101
0000
0000
1100
0000
,
1001
0000
0000
0011
0000
0000
1010
0000
,
0001
0100
0001
0100
1000
0100
1000
0100
,
0020
0000
0000
0000
0030
0000
0000
0000
1000
0001
0000
0000
0001
1000
0000
0000
,
0001
0000
0100
0001
0010
0000
0100
0000
,
1000
0000
0010
0100
0000
0010
1000
0000
,
0200
0000
0310
0001
,
0010
0000
0000
0000
0100
0000
0000
0000
1000
0000
0000
0000
0001
0000
0000
0100
,
0001
0000
1000
0010
0100
0000
0001
0000
,
0010
0000
0100
1000
0000
0010
1000
0000
,
0200
0000
0310
0100
,
1000
0001
0100
0010
,
1001
0000
0000
0110
0000
0000
1001
0000
,
1000
0010
0100
0001
1000
0100
0010
0001
,
0200
0300
0000
0010
,
0010
0000
0000
0000
1000
0001
1000
0000
,
0001
0100
0010
1000
0100
0010
0001
0100
,
0010
1000
0100
0010
0000
0000
0001
1000
,
0100
1000
0001
0100
0001
1000
0100
0000
,
0110
0000
0000
0000
0000
0000
0001
0000
0000
1000
0000
0000
0001
0000
0000
0000
0000
0000
1000
0000
0000
0000
1000
0000
,
0100
0000
0100
0010
0000
0010
0001
0000
0000
0001
0000
0001
,
0100
0000
0100
0010
0000
0010
1000
0000
0000
2002
0000
0000
,
3003
0000
0000
1000
0000
0000
1010
0000
0000
0001
0100
0010
,
1000
0000
0000
0000
0000
0000
0000
0000
0000
0000
0000
0000
1000
0000
0000
0000
0100
0000
0000
0000
0010
0000
0000
0000
0001
0000
0000
0000
0000
0000
0000
0000
0000
0000
0000
0000
0100
0000
0000
0001
0000
0000
0000
0000
0000
0000
0000
0000
,
0100
0001
0000
0000
0100
0001
0000
0000
1001
0000
0000
0000
0100
1000
0000
0000
,
0100
1000
0000
0000
0100
1000
0000
0000
1001
0000
0000
0000
0220
0000
0000
0000
,
0330
0000
0000
0000
1000
0001
0000
0000
0001
1000
0000
0000
0100
0000
0000
0010
,
0000
0100
1000
0001
1000
0001
0200
0000
,
0000
0010
0310
1000
,
0001
0000
0010
0100
0010
0000
0100
0000
,
1000
0000
0001
0000
0100
0010
1000
0000
,
0001
0000
0010
0000
0010
0100
1100
0000
,
0000
0110
0000
0000
1001
0000
0101
0000
,
0000
1001
0000
0000
0110
0000
1000
0001
,
1000
0001
0010
0100
0010
0100
2000
0000
,
0000
3001
0000
0000
0100
0000
0110
0000
,
1001
0000
0001
0100
0001
0101
0000
0000
,
1010
0000
0000
0000
1000
0001
0000
0000
1000
0001
0000
0000
0011
0000
0000
0000
,
1100
0000
1000
0001
1000
1001
0000
0000
,
0101
0000
0000
0000
0001
0010
0000
0000
0100
1000
0000
0000
0000
0000
0000
0000
,
0010
1000
0010
0000
0100
0001
0100
0000
,
0010
1000
0000
0001
0010
0000
0200
0000
,
1000
0000
0310
0000
0100
0000
1000
0001
,
0100
0000
0001
1000
0100
0000
1001
0000
,
0000
0110
0000
0000
1001
0000
1000
0100
,
0010
0001
0100
0010
1000
0001
0200
0000
,
0010
0000
0000
0000
0010
0000
0000
0000
0310
0000
0000
0000
0100
0010
0000
0000
,
1000
0001
0000
0000
0010
0100
0000
0000
0000
0000
0000
0000
1000
0000
0001
0000
,
0010
0001
1000
0010
1000
0001
0010
0001
,
1000
0010
0000
0000
0100
0001
0010
0100
,
1000
0010
0100
0001
0010
0100
0010
0100
;

//--------------- dance-single - forcednature ----------------
#NOTES:
     dance-single:
     forcednature:
     Hard:
     18:
     0,0,0,0,0:
0000
0000
0000
0000
,
0000
0000
0000
0000
,
0000
0000
0000
0000
,
0000
0000
0000
0000
,
0000
0000
0000
0000
,
0000
0000
0000
0000
,
1000
0000
0001
0100
0010
1000
0001
0000
1000
0100
0010
0000
0100
0000
2000
0000
,
0000
0000
3001
0010
0100
1000
0010
0000
0100
0001
1000
0000
0100
0010
0001
0000
,
0100
0000
0010
1000
0010
1000
0010
0000
0100
0000
0001
0010
0001
0010
0001
0000
,
1000
0000
0010
0100
0010
1000
0010
0000
0100
0000
0001
0010
0100
0010
0001
0000
,
1000
0000
0001
0100
0001
0010
0100
0000
1000
0010
0100
0000
0001
0000
2000
0000
,
0000
0000
3100
1000
0001
1000
0010
0000
0100
0001
1000
0000
0100
0010
0001
0000
,
0100
0001
0100
0001
1000
0100
1000
0100
0010
0001
0010
0001
1000
0010
1000
0010
,
1000
0001
1000
0001
1000
0001
1000
0001
0200
0000
0000
0000
0310
0000
0000
0000
,
1001
0000
1001
0000
0001
0010
0100
1100
,
0000
0000
1000
0000
1010
0000
0000
0000
0000
0000
0001
0100
0001
0100
0001
0100
,
0010
0000
1010
0000
0001
0010
0100
0110
,
0000
0000
1000
0000
1001
0000
0000
0000
1000
0100
1000
0100
1000
0100
1000
0100
,
0010
0000
0000
0000
0110
0000
0000
0000
1000
0001
1000
0001
1000
0001
0100
0000
,
0000
0000
0010
0000
0110
0000
0000
0000
0001
0100
0001
0000
1000
0100
1000
0000
,
1001
0000
0000
0000
1001
0000
0000
0000
1000
0010
1000
0010
1000
0010
0100
0000
,
0000
0000
0001
0010
0001
0000
0000
0000
1000
0100
0010
0001
0100
0000
0000
0000
,
0010
1000
0001
0000
1000
0100
0010
0001
,
0000
0100
0010
0000
1000
0100
1000
0001
,
0100
1000
0100
0000
0010
1000
0001
0010
,
0000
1000
0010
0000
0100
1000
0001
0000
,
0100
0010
0100
0010
1000
0001
1000
0001
,
0010
0000
0100
0001
0000
0100
1000
0000
,
0010
0000
0100
0001
0100
0000
0010
0000
1000
0100
1000
0000
0010
0000
1000
0001
,
1000
0000
0000
0000
1000
0000
0000
0000
0001
0010
0100
1000
0001
0100
0010
1000
,
0002
0013
0001
0200
0310
1000
0200
0310
,
0100
2000
3010
0100
0002
2003
3002
2003
,
3200
0310
0100
2000
3010
0100
0002
1003
,
0100
0000
0020
0000
0031
0000
1000
0000
0200
0000
0310
0000
0002
0000
0013
0100
,
2000
3010
0100
0002
0013
0100
2000
3001
,
0100
0020
1030
0100
2000
3002
2003
3002
,
0203
0310
1000
0002
0013
0100
2000
3001
,
0100
0000
0020
0000
1030
0000
0001
0000
2000
0000
3100
0000
0020
0000
0031
0100
,
0010
0110
0110
0101
,
0101
1100
1100
0110
,
2002
0000
0000
0000
3003
0000
0000
0000
0001
0100
0010
1000
0001
0000
0000
0000
,
1000
0001
1000
0001
1000
0001
1000
0001
1000
0001
1000
0001
0010
0000
0000
0000
,
0200
1300
0010
0200
0301
0010
0002
0103
,
0010
2000
3001
1000
0200
0320
0230
0320
,
0032
0103
0010
2000
3100
0010
0200
1300
,
0001
0100
0001
0100
0010
1000
0010
0000
1000
0100
1000
0100
0010
0001
0010
0001
,
0200
0000
0000
0001
0001
0000
0000
1000
,
0000
0010
0301
0100
,
1001
2000
3200
0320
,
0032
0000
0000
0000
0000
0000
0000
0000
0000
0203
0000
0000
0010
0000
0000
0000
0010
0000
0000
0000
0010
0000
0000
0000
,
0302
0000
2003
0000
3200
0000
2300
3020
,
0000
0230
0302
0023
,
0230
0000
0302
0000
0203
0000
2300
3002
,
0000
0000
0000
0000
0203
0000
0000
0000
0310
1000
0010
1000
0010
0000
0000
0000
,
0100
1000
0100
1000
0100
1000
0001
0010
,
1000
0001
1000
0001
1000
0010
1000
0000
,
0100
0001
0100
0001
0100
0001
1000
0010
,
0001
1000
0001
1000
0001
0010
0001
0000
,
0100
0000
0001
1000
0001
0000
0010
0000
0100
1000
0100
0000
0010
0000
0001
0100
,
0001
0000
1000
0010
1000
0000
0001
0000
0010
0100
0010
0000
0001
0000
1000
0010
,
0100
0001
0100
0001
1000
0001
1000
0001
1000
0100
1000
0100
1000
0001
1000
0001
,
0200
0000
0000
0000
0300
0000
0000
0000
0001
1000
0001
1000
0001
1000
0001
1000
,
0100
0010
0001
0100
0010
1000
0001
1000
,
0100
1000
0001
0100
0010
0001
0010
1000
,
0200
0010
0001
1000
,
0010
0000
0000
0000
2300
0000
0000
0000
3002
0000
0000
0000
0013
0000
0100
1000
,
0010
1000
0001
0100
0001
1000
0010
1000
,
0001
0000
0100
0000
1000
0000
0100
0000
0001
0000
1000
0000
0100
0000
0010
0001
,
2000
0010
3002
0010
,
0203
0000
0000
0000
2300
0000
0000
0000
3200
0000
0000
0000
0301
0000
0100
0001
,
1000
0000
0100
0010
0100
0000
1000
0000
0001
0100
0001
0000
0010
0000
0100
1000
,
0001
0010
0001
0010
0001
1000
0001
1000
0010
1000
0010
1000
0001
1000
0001
1000
,
0200
0300
0000
0020
,
0032
0000
0000
0000
0003
0000
0000
0000
0100
0001
0100
0001
0100
0000
0000
0000
,
0110
0000
0001
0101
0000
1000
1100
0000
,
0001
0011
0000
1000
0010
0000
1001
0000
,
0100
0101
0000
0100
1100
0000
0110
0000
,
1001
0000
0000
0000
0000
0000
0000
0000
0000
0000
0000
0000
1000
0000
0000
0001
0000
0000
1000
0000
0000
0001
0000
0000
1000
0000
0000
0001
0000
0000
1000
0000
0000
0001
0000
0000
1000
0000
0000
0000
0100
0000
0000
0000
0010
0000
0000
0000
,
0100
1000
0001
0100
0010
1000
0001
0100
0010
1000
0100
0010
,
0100
0000
0000
0000
1000
0000
0000
0000
0001
0000
0000
0000
0010
0000
0000
0000
0001
0000
0000
0000
1000
0000
0000
0000
0001
0000
0000
0100
0000
0000
0001
0000
0000
0100
0000
0000
0020
0000
0000
0000
0000
0000
0000
0000
0000
0000
0000
0000
,
1030
0010
1000
0010
1000
0001
1000
0001
0010
0001
0010
0001
1000
0100
0010
0001
,
1000
0000
0002
0000
0000
0000
0000
0000
1003
0000
0000
0000
1000
0100
1000
0000
,
0100
1000
0100
0000
0010
0001
0010
0000
0001
0010
0001
0000
0100
0001
0100
0001
,
0100
0001
0100
0000
0010
1000
0010
1000
0001
1000
0100
0010
0002
0000
0000
0000
,
0000
0000
0103
0000
0001
1000
0001
0000
1000
0100
1000
0000
0001
0100
0001
2000
,
0000
3100
0010
0001
0100
0010
0100
0001
,
1000
0010
1000
0001
1000
0100
0010
0001
,
0100
0010
1000
0001
0000
0001
2000
0000
,
3200
0000
0320
0000
0130
2000
0010
0000
,
0010
0000
0000
0000
3001
0000
1000
0000
0001
0000
0100
0001
1000
0000
0100
0010
,
0100
0000
1000
0000
0001
0100
0001
0000
1000
0000
0010
0100
0010
0000
1000
0001
,
1000
0000
0010
0000
0100
0001
0100
0000
0010
0000
1000
0100
0010
0001
0010
0001
,
1000
0100
1000
0100
1000
0010
1000
0010
0100
0001
0100
0001
0020
0000
0000
0000
,
0000
0130
0000
0000
0010
0000
1001
0000
,
1001
0000
0000
0000
0001
0100
0001
0100
0001
0100
0010
0000
0000
0000
0100
0000
,
0110
0000
0000
0000
1000
0001
1000
0000
0001
1000
0001
0000
1001
0000
0000
0000
,
1001
0000
0000
0000
1000
0100
1000
0100
1000
0100
0010
0000
0000
0000
0100
0000
,
0110
0000
0000
0000
0001
1000
0001
0000
1000
0001
1000
0000
0000
0000
0000
0000
,
0001
0010
0100
0001
0100
1000
0010
1000
,
0100
0000
0010
0000
0001
0000
1000
0000
0010
0000
0100
0001
2000
0000
0000
0000
,
0100
3020
0001
2030
,
3200
0000
0000
0000
0302
0000
0000
0000
0103
0000
1000
0010
0100
0000
0001
0010
,
0001
0000
0100
0000
0010
1000
0010
0000
0100
0000
0001
1000
0100
1000
0100
1000
,
0001
0100
0001
0100
0010
1000
0010
1000
0001
0010
0001
0010
0200
0000
0000
0000
,
2300
0000
0000
0000
3020
0000
0000
0000
0230
0000
0000
0000
0301
1000
0001
1000
,
0001
1000
0001
1000
0001
1000
0001
1000
0100
0000
0000
0000
0110
0000
0000
0000
,
1000
1100
0000
0001
0101
0000
1000
1010
,
0000
0001
0010
0000
0110
0000
1000
1001
,
0000
0001
1001
0000
0100
0100
0100
0100
;

//--------------- dance-single - forcednature ----------------
#NOTES:
     dance-single:
     forcednature:
     Challenge:
     19:
     0,0,0,0,0:
0000
0000
0000
0000
,
0000
0000
0000
0000
,
0000
0000
0000
0000
,
0000
0000
0000
0000
,
0000
0000
0000
0000
,
0000
0000
0000
0000
,
1000
0000
0001
0010
0100
1000
0010
0000
1000
0001
0100
0000
0010
0000
2000
0000
,
0000
0000
3001
0010
0001
0100
0010
0000
1000
0100
0010
0000
0100
1000
0010
0000
,
0100
0000
0001
1000
0100
0010
0001
0000
0100
0000
0010
1000
0001
0100
0010
0000
,
1000
0000
0001
0010
0100
0010
0001
0000
0100
0000
0010
1000
0100
1000
0001
0000
,
0100
0000
0010
1000
0001
1000
0100
0000
0010
0001
1000
0000
0010
0000
0200
0000
,
0000
0000
0310
1000
0100
0010
0001
0000
0100
0001
1000
0000
0010
0100
0001
0000
,
0010
0100
1000
0001
0100
0001
0010
0100
0010
0001
1000
0010
0100
0001
1000
0100
,
1000
0001
1000
0001
1000
0001
1000
0001
0020
0000
0000
0000
0030
0000
0000
0000
,
0110
0000
1001
0000
0001
1000
0010
1010
,
0000
0000
0001
0000
0101
0000
0000
0000
1000
0000
0010
0100
0001
0100
0001
0100
,
0010
0000
1001
0000
0001
0010
0100
1100
,
0000
0000
1000
0000
1010
0000
0000
0000
0001
0100
0010
1000
0001
1000
0001
1000
,
0100
0000
0000
0000
1001
0000
0000
0000
0001
0100
0010
1000
0010
0100
0001
0000
,
0000
0000
1000
0000
1001
0000
0000
0000
1000
0100
0010
0000
0001
0100
0010
0000
,
0110
0000
0000
0000
1001
0000
0000
0000
1000
0100
1000
0010
0100
0001
0010
0000
,
0000
0000
0100
1000
0100
0000
0000
0000
0010
0001
1000
0010
0100
0000
0000
0000
,
0010
0100
0010
0001
0010
1000
0100
1000
,
0010
0100
0001
0000
1000
0001
0010
0100
,
1000
0001
0010
1000
0010
0100
1000
0010
,
0100
0001
1000
0000
0001
1000
0100
0010
,
0001
0001
0001
0001
0100
0100
0100
0100
,
0010
0010
0010
0010
1000
0001
1000
0100
,
0010
0000
0001
1000
0001
1000
0010
0000
1000
0001
1000
0001
0010
0000
0001
1000
,
0020
0000
0000
0000
0100
0000
0000
0000
0130
0001
1000
0100
0010
0001
1000
0010
,
1000
0000
0001
0000
0100
0001
0010
0000
0100
0000
1000
0000
0001
1000
0010
0000
,
0100
0000
0001
0000
1000
0100
0010
0000
1000
0000
0010
0000
0001
1000
0010
0000
,
0100
0001
0100
0010
1000
0000
0100
0010
0001
0100
0010
0000
1000
0000
0100
0000
,
1000
0010
0100
0001
0010
0000
0001
0100
0010
1000
0100
0000
0010
0000
0001
0000
,
0100
0000
0010
0000
1000
0001
0100
0000
0010
0000
0001
0000
0010
1000
0001
0000
,
1000
0000
0100
0000
0010
0001
1000
0000
0100
0000
0001
0000
0100
1000
0010
0000
,
0100
0001
0010
0100
0010
0000
0100
1000
0010
0100
0001
0000
0010
0000
0100
0000
,
1000
0001
0100
0001
1000
0000
0010
1000
0001
1000
0100
0000
0010
0001
0010
0000
,
0100
1000
0100
1000
0001
1000
0001
1000
0001
0100
0001
0100
0001
1000
0001
1000
,
0100
0010
0100
0010
0001
1000
0001
1000
0010
0100
0010
0100
0001
1000
0001
1000
,
0200
0000
0000
0000
0300
0000
0000
0000
0001
0100
0010
0100
1000
0000
0000
0000
,
0001
0100
0010
1000
0001
0100
0010
1000
0001
0100
0010
1000
0001
0000
0000
0000
,
0200
1300
0100
0002
1003
0001
0200
0310
,
1000
0200
0301
0100
0020
0032
0023
0032
,
0203
0310
0001
0020
1030
0100
0020
0130
,
1000
0100
1000
0001
0100
0001
1000
0001
0010
0100
1000
0100
0010
0001
1000
0001
,
0100
0000
0000
0000
0000
0000
0010
1000
0010
0000
0000
0000
0000
0000
0100
0000
,
0000
0000
0100
0000
0000
0000
0001
1000
0001
0000
0000
0000
0010
0000
0000
0000
,
0110
0100
1000
0001
,
0200
0000
0000
0000
0000
0000
0310
0000
0010
0000
0010
0000
,
1001
0000
0000
0000
1000
0000
0001
0010
0001
0000
0000
0000
0100
0000
0010
0000
,
0000
0000
1000
0000
0001
0000
1000
0010
1000
0000
0000
0000
0001
0000
0000
0000
,
2001
0000
3200
0000
0302
0000
0203
0320
,
0000
0000
0000
0000
0032
0000
0000
0000
0103
0001
0100
0001
0100
0000
0000
0000
,
0010
1000
0010
0100
0001
0010
0110
0100
,
1000
0000
0001
0000
0100
0000
0001
0000
1000
0000
0001
0010
0001
0000
0000
0000
,
1000
0010
0100
0010
0001
0010
0110
0100
,
0001
0000
1000
0000
0100
0000
0010
0000
0100
1000
0100
0010
0001
0000
0000
0000
,
0010
0000
0001
1000
0001
1000
0010
0000
1000
0001
1000
0001
0010
0000
0001
1000
,
0010
0100
0001
1000
0001
0100
0010
1000
0100
1000
0001
0100
0010
1000
0001
0010
,
0100
1000
0100
1000
0010
0100
0010
0100
0001
0010
0001
0010
0001
1000
0001
1000
,
0200
0000
0000
0000
0300
0000
0000
0000
1000
0100
0010
0001
0100
0010
1000
0001
,
0100
0000
0010
0000
1000
0100
0010
0000
0100
0000
1000
0000
0001
0100
0010
0000
,
1000
0000
0100
0000
0001
0100
0010
0000
0001
0000
1000
0000
0010
0100
0001
0000
,
1000
0100
0010
0000
0100
1000
0001
0000
1000
0010
0100
0000
0001
0010
0100
0000
,
0010
0001
1000
0000
0010
0100
0001
0000
0010
0100
1000
0000
0001
0100
0001
0100
,
0001
0000
0010
0000
0100
1000
0010
0000
0100
0000
1000
0000
0100
0001
1000
0000
,
0100
0000
0010
0000
0001
1000
0100
0000
0001
0000
0100
0000
0010
0001
1000
0000
,
0010
0100
0001
0000
1000
0100
0010
0000
0100
1000
0001
0000
0100
0001
0010
0000
,
0100
0010
0001
0000
1000
0010
0100
0000
0001
0100
0001
0100
0010
1000
0010
1000
,
0001
0010
0100
1000
0100
0010
0001
0100
0010
1000
0010
0100
0001
1000
0100
1000
,
0001
0100
0001
0100
0010
1000
0010
1000
0001
0010
0001
0010
0100
1000
0100
1000
,
0020
0030
0000
0200
,
0302
0000
0000
0000
0003
0000
0000
0000
1000
0100
1000
0100
0001
0000
0000
0000
,
0110
0001
1000
0110
1000
0001
0110
0001
,
1000
0110
1000
0001
0100
0000
1001
0100
,
0010
1001
0010
0100
1001
0010
1001
1000
,
1001
0000
0000
0000
0000
0000
0001
0000
0000
0000
0000
0000
1000
0000
0000
0100
0000
0000
1000
0000
0000
0100
0000
0000
0010
0000
0000
0001
0000
0000
0010
0000
0000
0001
0000
0000
0100
0000
0000
0000
0001
0000
0000
0000
0100
0000
0000
0000
,
0010
1000
0100
0010
1000
0010
0001
0100
0010
1000
0010
0001
,
0010
0000
0000
0000
0100
0000
0000
0000
0001
0000
0000
0000
1000
0000
0000
0000
0100
0000
0000
0000
0010
0000
0000
0000
0001
0000
0000
1000
0000
0000
0001
0000
0000
1000
0000
0000
0001
0000
0000
0100
0000
0000
0010
0000
0000
1000
0000
0000
,
0001
0000
0000
1000
0000
0000
0100
0000
0000
0010
0000
0000
0100
0000
0000
1000
0000
0000
0001
0000
0000
0100
0000
0000
0010
0000
0000
0100
0000
0000
0001
0000
0000
1000
0000
0000
0010
0000
0000
0000
1000
0000
0000
0000
0010
0000
0000
0000
,
0001
0000
0000
0000
0000
0000
0000
0000
0000
0000
0000
0000
0010
0000
0000
0000
1000
0000
0000
0000
0100
0000
0000
0000
0001
0000
0000
0000
0000
0000
0000
0000
0000
0000
0000
0000
0100
0000
0000
1000
0000
0000
0001
0000
0000
0100
0000
0000
,
0001
1000
0100
0010
0001
1000
0001
0100
1000
0000
0000
0000
0100
0010
1000
0001
,
0010
0001
1000
0010
0100
0001
1000
0010
0001
0010
0100
0010
2000
0000
0000
0000
,
3001
0000
1000
0000
0010
0100
0010
0100
0001
1000
0001
1000
0001
0010
0001
0010
,
0100
1000
0100
1000
0001
0100
0010
1000
0001
1000
0100
0010
0001
0000
0010
0000
,
0100
0010
0001
0000
1000
0000
0010
0000
0100
0001
0010
0000
0100
0000
0001
0000
,
0100
1000
0001
0000
0100
0000
0010
0000
1000
0100
0010
0000
0100
1000
0100
0000
,
0010
0001
0010
0000
0001
0100
0001
0000
1000
0000
0010
0000
1000
0001
1000
0000
,
0100
1000
0100
0000
0010
0001
0010
0000
0001
0000
0100
0000
0010
0000
1000
0001
,
1000
0001
0010
0000
0001
1000
0001
1000
0010
0000
1000
0001
0010
0000
0001
1000
,
0001
1000
0100
0000
1000
0001
1000
0001
0100
0000
0001
1000
0100
1000
0100
0010
,
0001
1000
0001
0100
0010
1000
0001
1000
0100
1000
0010
0100
0002
0000
0000
0000
,
0000
0013
0000
0000
0100
0000
1100
0000
,
1100
0000
0000
0000
1000
0100
0010
0001
0100
0010
0001
0000
0000
0000
0010
0000
,
0110
0000
0000
0000
0001
1000
0100
0000
1000
0001
0100
0000
0101
0000
0000
0000
,
0101
0000
0000
0000
0001
0100
0010
1000
0100
0010
1000
0000
0000
0000
0010
0000
,
0110
0000
0000
0000
1000
0001
0100
0010
1000
0001
0100
0010
0000
0000
0000
0000
,
0100
0001
0010
0000
0100
0000
1000
0000
0010
0100
0001
0000
0010
0000
1000
0000
,
0010
0100
1000
0000
0010
0000
0100
0000
0001
0010
0100
0000
1000
0001
0100
0000
,
0010
1000
0100
0000
0010
0001
0100
0000
0001
1000
0100
0000
0010
0100
1000
0000
,
0010
0100
0001
0000
1000
0100
1000
0100
0010
0001
0010
0001
0100
0010
1000
0001
,
1000
0100
0010
0001
1000
0001
0100
0010
1000
0100
1000
0010
0100
0001
0010
0100
,
1000
0010
1000
0100
0010
0001
0100
0001
1000
0010
0100
0001
0020
0000
0000
0000
,
0230
0000
0000
0000
2300
0000
0000
0000
3002
0000
0000
0000
1003
0100
0010
0001
,
1000
0100
0010
0001
1000
0100
0010
0001
0100
0000
0000
0000
0101
0000
1000
0000
,
0001
1100
0001
1000
0101
1000
0001
1100
,
0001
1000
0100
0000
0011
1000
0001
1010
,
0001
1000
0011
1000
1100
1001
0101
1001
;

//--------------- dance-double - forcednature ----------------
#NOTES:
     dance-double:
     forcednature:
     Easy:
     12:
     0,0,0,0,0:
00000000
00000000
00000000
00000000
,
00000000
00000000
00000000
00000000
,
00000000
00000000
00000000
00000000
,
00000000
00000000
00000000
00000000
,
00000000
00000000
00000000
00000000
,
00000000
00000000
00000000
00000000
,
00001000
00010000
01000000
10000000
,
00000000
00010000
01000000
00100000
,
10000000
01000000
00100000
00010000
,
01000000
00001000
00010000
00000100
,
00001000
00000001
00000100
00000010
,
00000000
00001000
00000100
00000010
,
00000100
00000000
00000000
00001000
00000000
00000000
00000010
00000000
,
00011000
00000000
00000000
00000000
,
00110000
00000000
00110000
00000000
00000000
00000000
00000000
11000000
,
00000000
11000000
00000000
00000000
,
01010000
00000000
01010000
00000000
00000000
00000000
00000000
00101000
,
00000000
00101000
00000000
00000000
,
00010100
00000000
00010100
00000000
00000000
00000000
00000000
00001001
,
00000000
00001001
00000000
00000000
,
00010010
00000000
00010010
00000000
00000000
00000000
00000000
01001000
,
00000000
01001000
00000000
00000000
,
10000000
00010000
10000000
01000000
,
00100000
00001000
00010000
00100000
,
00010000
00001000
00000010
00000100
,
00001000
00000001
00000100
00000000
,
00000010
00000010
00000010
00000010
,
00000100
00000100
00000100
00000100
,
00011000
00000000
00000000
00001000
00000000
00000000
00010000
00000000
,
00022000
00000000
00033000
00000000
,
00100000
00010000
01000000
00010000
,
10000000
00100000
10000000
01000000
,
00010000
00001000
00010000
00000100
,
00001000
00000001
00000100
00000010
,
00000100
00001000
00010000
01000000
,
00100000
00010000
10000000
00100000
,
10000000
01000000
00010000
00001000
,
00000100
00000001
00000000
00000010
,
00000110
00001000
00000001
00001000
,
00000010
00010000
00001000
00100000
,
00010000
00000000
10000000
10000000
,
00100000
00100000
00100000
00000000
,
10000000
00000000
00000000
00100000
00000000
00000000
10000000
00000000
,
00000000
01000000
00000000
00000000
00010000
00001000
00010000
00001000
,
00010000
00000000
00000000
00000100
00000000
00000000
00001000
00000000
,
00000001
00000100
00000001
00000000
,
00002001
00000000
00000100
00000000
,
00000000
00000000
00000100
00000000
,
00003010
00000000
00001000
00000100
,
00010000
00000000
00001000
00100000
,
00010000
10000000
00100000
00000000
,
01000000
00010000
00100000
01000000
,
00010000
00000000
00001000
00000000
00000010
00000000
00000010
00000200
,
00000000
00001300
00000001
00001000
,
00000010
00000010
00000010
00001010
,
00010000
00000000
00010000
00000000
00010000
00001000
00000000
00000000
,
01000000
01000000
01000000
01010000
,
10000000
00000000
10000000
00000000
10000000
01000000
00000000
00000000
,
00110000
00000000
00000000
00100000
00000000
00000000
00001000
00000000
,
00011000
00000000
00000000
00010000
00000000
00000000
00000010
00000000
,
00001010
00000000
00000000
00001000
00000000
00000000
00000001
00000000
,
00002002
00003003
00000001
00000100
,
00000001
00000010
00000100
00001000
,
00000010
00000000
00010000
00001000
00000000
00001000
01000000
00000000
,
00020000
00000000
10030000
01000000
,
10000000
00100000
00010000
00001000
,
00000010
00000100
00001000
00000001
,
00000100
00000000
00000010
00000100
00000000
00000100
00001000
00000000
,
00020000
00000000
01030000
00010000
,
00001000
00010000
00100000
10000000
,
10010000
00000000
00000000
00010000
00000000
00000000
10000000
00000000
,
01100000
00000000
00000000
01000000
00000000
00000000
00100000
00000000
,
00011000
00000000
00000000
00000100
,
00000200
00000300
00001000
00001000
,
00001010
00000000
00000000
00000100
00000000
00000000
00000011
00000000
,
00000000
00000100
00000000
00000000
00000000
00000000
00010100
00000000
,
00000000
00001000
00000000
00000000
01001000
00000000
00010000
00000000
,
00010000
10000000
10000000
01000000
,
01000000
01000000
01100000
00010000
,
00010000
00010000
01010000
00001000
,
00001000
00001000
00011000
00000100
,
00001100
00000000
00000010
00000100
,
00000100
00000100
00011000
01000000
,
01000000
01000000
00011000
00000010
,
00000010
00000010
00011000
00100000
,
01000000
10000000
00010000
02000000
,
00000000
03100000
00010000
00001000
,
00000010
00000000
00000100
00001000
00000100
00000000
00000010
00000000
,
00000001
00000100
00001000
00010000
,
00100000
10000000
00010000
11000000
,
00000000
00100000
00000000
00000000
00010000
00000000
00110000
00000000
,
00000000
01000000
00000000
00000000
00001000
00000000
00011000
00000000
,
00000000
00000100
00000000
00000000
00001000
00000000
00002002
00000000
,
00000000
00003003
00000000
00001010
,
00001010
00000000
00000000
00000000
00000000
00011000
00000000
00000000
,
00011000
00000000
00000000
00110000
,
00110000
00000000
00000000
00000000
00000000
00011000
00000000
00000000
,
00011000
00000000
00000000
00000000
,
00010000
00001000
00010000
01000000
,
10000000
00100000
00000000
00100000
01000000
00000000
00002000
00000000
,
00000000
00013000
00001000
00000100
,
00000001
00000010
00000100
00001100
,
00000000
00010000
00000000
00000000
00001000
00000000
01010000
00000000
,
00000000
00001000
00000000
00000000
00010000
00000000
00022000
00000000
,
00000000
00033000
00000000
00100000
,
00100000
00100000
00000000
10010000
,
00000000
01000000
00000000
00000000
00011000
00000000
00000000
00100000
,
00000000
00000000
00000000
00000000
00010100
00000000
00000000
00001000
,
00000000
00000000
00000101
00000000
00001000
00000001
00001000
00000001
;

//--------------- dance-double - forcednature ----------------
#NOTES:
     dance-double:
     forcednature:
     Medium:
     15:
     0,0,0,0,0:
00000000
00000000
00000000
00000000
,
00000000
00000000
00000000
00000000
,
00000000
00000000
00000000
00000000
,
00000000
00000000
00000000
00000000
,
00000000
00000000
00000000
00000000
,
00000000
00000000
00000000
00000000
,
00001000
00010000
00001000
01000000
00010000
10000000
01000000
00200000
,
00000000
00310000
01000000
00001000
00010000
00000100
00000010
00000100
,
00001000
00000001
00000100
00000001
00001000
00000010
00010000
00000100
,
00001000
00000010
00010000
00001000
00100000
01000000
10000000
00010000
,
01000000
00001000
00010000
00000100
00001000
00000001
00000100
00002000
,
00000000
00013000
01000000
00100000
00010000
10000000
00100000
01000000
,
01001000
00000000
00000000
00011000
00000000
00000000
00010100
00000000
,
00000010
00001000
00000000
00000001
00000200
00000000
00001300
00000000
,
00011000
00000000
00011000
00000000
00001000
01000000
00000000
01010000
,
00000000
00000000
10100000
00000000
00000000
10000000
01000000
00100000
,
00010000
00000000
01010000
00000000
00001000
00010000
00000000
00001100
,
00000000
00000000
00001001
00000000
00000001
00000100
00000010
00000000
,
00010010
00000000
01001000
00000000
00010000
10000000
00000000
11000000
,
00000000
00000000
00000000
00000000
00110000
00000000
00000000
00000000
00010000
01000000
00000000
00000000
00001000
00010000
00000000
00000000
,
00011000
00000000
00010100
00000000
00001000
00000001
00000000
00000110
,
00000000
00011000
02000000
03010000
,
00110000
00000000
01000000
10000000
00100000
00000000
01000000
00001000
,
00010000
00000000
00000100
00001000
00000000
00000001
00000100
00000000
,
00001000
00000000
00010000
00001000
00100000
00000000
01000000
10000000
,
00100000
00000000
01000000
00001000
00000000
00010000
00000100
00000000
,
00001000
00000001
00001000
00000001
00000100
00000010
00000100
00000010
,
00010000
00001000
00010000
00001000
00100000
01000000
00100000
01000000
,
10000000
00000000
00000000
11000000
00000000
00000000
00110000
00000000
,
00011000
00000000
00000200
00000310
,
00001001
00000000
00000001
00000000
00000100
00001000
00010000
00100000
,
00020000
00001000
00000010
00031000
,
00010000
00000000
01000000
00000000
10000000
00000000
00010000
00200000
,
00000000
00301000
00010000
00000100
,
00001000
00000000
00000001
00000000
00000010
00001000
00010000
01000000
,
00020000
00001000
00000100
00030010
,
00010000
00000000
00001000
00000000
01000000
00000000
00010000
20000000
,
00000000
31000000
00010000
00001000
,
00011000
01001000
00011000
00010100
,
00010010
00010010
00101000
00101000
,
00022000
00000000
00033000
00000000
00001000
00010000
00001000
00000000
,
01000000
00001000
00000000
00000000
00010000
00001000
00000000
00000000
00010000
00000100
00000000
00000000
00001000
00000000
00000000
00000000
,
00000001
00000000
00000100
00000010
00000000
00000100
00001000
00000000
,
00010000
00001000
00000000
00010000
01000000
10000000
01000000
10000000
,
00100000
00000000
01000000
00001000
00000000
00010000
00000100
00000000
,
00001000
00000001
00001000
00000001
00000100
00001000
00000100
00001000
,
00020000
00000000
00100000
00000000
,
00000000
00000000
00100000
00000000
,
00031000
00010000
01000000
10000000
,
00100000
00000000
00000000
00010000
00000000
00000000
00001000
00000000
,
00000010
00000000
00000100
00000000
00001000
00000000
00000001
00000100
,
00000000
00000010
00010000
00001000
,
00011000
00000000
00001000
00000000
00100000
00000000
01000000
20000000
,
00000000
00000000
30100000
00000000
01000000
00010000
01000000
00000000
,
00001000
00010000
00001000
00010000
00001000
00010000
00001000
00000000
,
00000100
00000001
00000100
00000001
00000100
00000001
00000100
00000000
,
00001000
00010000
00001000
00010000
00001000
00010000
00001000
00000000
,
01000000
00010000
01000000
00010000
01000000
00010000
01000000
00000000
,
01010000
00000000
00000000
00011000
00000000
00000000
00001100
00000000
,
00001010
00000000
00000000
00011000
00000000
00000000
00110000
00000000
,
10000000
00010000
10000000
00010000
00100000
00001000
00100000
00001000
,
00020000
00000000
00000000
00000000
00030000
00000000
00000000
00000000
00001000
00010000
00000000
00000000
00010000
00001000
00000000
00000000
,
00000100
00000000
00000001
00001000
00000100
00000000
00010000
00000000
,
00001000
00000000
01000000
00010000
00000000
00100000
01000000
00000000
,
20000000
00000000
30100000
10000000
,
01000000
00000000
00000000
00000000
00010000
00000000
00000000
00000000
00001000
00000000
00000000
00000000
00000010
00000000
00000000
00000001
,
00001000
00000000
00000010
00010000
00001000
00000000
01000000
00000000
,
00010000
00000000
10000000
01000000
00000000
00010000
00001000
00000000
,
00000200
00000000
00000301
00001000
,
00000100
00010000
00001000
01000000
,
01001000
00000000
00000000
00011000
00000000
00000000
00010010
00000000
,
00010000
00001000
00000100
00000010
00010000
00001000
00000010
00000100
,
00020000
00030000
00000000
01000000
,
01000000
00000000
00000000
00000000
10000000
00010000
10000000
00000000
,
00010000
01000000
00001000
00010000
00000100
00001000
00000010
00010000
,
00001000
00100000
00001000
00010000
00000000
00000000
00100000
10000000
,
01000000
00010000
00001000
00000100
00000001
00001000
00000100
00000000
,
00000110
00000000
00000000
00000000
00000000
00000000
00000100
00000000
00000000
00010000
00000000
00000000
00001000
00000000
00000000
00000000
00000000
00000000
01000000
00000000
00000000
00000000
01000000
00000000
,
00010000
00000000
00010000
00100000
00000000
00100000
01000000
00000000
00000000
10000000
00000000
10000000
,
00010000
00000000
00010000
01000000
00000000
01000000
00001000
00000000
00000000
00022000
00000000
00000000
,
00033000
00000000
00000000
00000100
00000000
00000000
00000110
00000000
00000000
00000001
00000010
00000100
,
00001000
00000000
00000000
00000000
00000000
00000000
00000000
00000000
00000000
00000000
00000000
00000000
00000010
00000000
00000000
00000000
00010000
00000000
00000000
00000000
00001000
00000000
00000000
00000000
01000000
00000000
00000000
00000000
00000000
00000000
00000000
00000000
00000000
00000000
00000000
00000000
00001000
00000000
00000000
00100000
00000000
00000000
00000000
00000000
00000000
00000000
00000000
00000000
,
00001000
00100000
00000000
00000000
00001000
00100000
00000000
00000000
00011000
00000000
00000000
00000000
00010000
00000010
00000000
00000000
,
00010000
00000010
00000000
00000000
00010000
00000010
00000000
00000000
00011000
00000000
00000000
00000000
00020200
00000000
00000000
00000000
,
00030300
00000000
00000000
00000000
00000100
00010000
00000000
00000000
00010000
00001000
00000000
00000000
00001000
00000000
00000000
01000000
,
00000000
00010000
10000000
01000000
10000000
01000000
00200000
00000000
,
00000000
00010000
00310000
01000000
,
00001000
00000000
00010000
00000100
00001000
00000000
00000001
00000000
,
00000100
00000000
00000010
00000000
00010000
00001000
00100000
00000000
,
01000000
00000000
10000000
00000000
00010000
01000000
00010000
00000000
,
00000000
00011000
00000000
00000000
00010100
00000000
00001100
00000000
,
00000000
00010010
00000000
00000000
01001000
00000000
10000000
00010000
,
10000000
00010000
00100000
00001000
00100000
00001000
00020000
00000000
,
00000000
00030100
00000000
00000000
00000010
00000000
00000110
00000000
,
00001001
00000000
00000001
00000100
00001000
00010000
00000000
00000000
,
10100000
00000000
00000000
00000000
10000000
00010000
00000000
00000000
10000000
00010000
00000000
00000000
01100000
00000000
00000000
00000000
,
10010000
00000000
10000000
01000000
00010000
00001000
00000000
00000000
,
00000011
00000000
00000000
00000000
00000001
00001000
00000000
00000000
00000001
00001000
00000000
00000000
00000000
00000000
00000000
00000000
,
00000010
00010000
00001000
00000000
00100000
01000000
10000000
00000000
,
00010000
01000000
00000000
00001000
00010000
00000000
00000200
00000000
,
00000000
00000310
00000001
00000100
,
00001000
00010000
01000000
01100000
,
00000000
00011000
00000000
00000000
00000110
00000000
00010000
00001000
,
01000000
00100000
00010000
00001000
00100000
01000000
00020000
00000000
,
00001000
00000000
00000000
00000000
00001000
00000000
00000000
00000000
00031000
00000000
00000000
00000000
00010000
00001000
00000000
00000000
,
00001000
00000100
00000000
00000000
00000100
00000001
00000000
00000000
00000000
00000000
00000000
00000000
00000001
00000000
00000010
00000000
,
00000100
00000010
00000100
00001000
00010000
00100000
01000000
00100000
,
01000000
10000000
00000000
00000000
10000000
00100000
01000000
00100000
,
01000000
00010000
00001000
00000010
00000100
00000010
00000100
00000001
;

//--------------- dance-double - forcednature ----------------
#NOTES:
     dance-double:
     forcednature:
     Hard:
     18:
     0,0,0,0,0:
00000000
00000000
00000000
00000000
,
00000000
00000000
00000000
00000000
,
00000000
00000000
00000000
00000000
,
00000000
00000000
00000000
00000000
,
00000000
00000000
00000000
00000000
,
00000000
00000000
00000000
00000000
,
00010000
00000000
00001000
00010000
00000100
00001000
00000100
00000000
00000010
00000001
00000100
00000000
00000010
00000000
00002000
00000000
,
00000000
00000000
00003100
00010000
00001000
00010000
00001000
00000000
01000000
00010000
01000000
00000000
00100000
10000000
00100000
00000000
,
01000000
00000000
00001000
00010000
00001000
00010000
00001000
00000000
00000100
00000000
00000010
00001000
00000010
00001000
00000010
00000000
,
00000100
00000000
00000001
00000010
00000100
00000010
00000100
00000000
00001000
00000000
00000010
00010000
00001000
00010000
00001000
00000000
,
01000000
00000000
00010000
01000000
00010000
10000000
01000000
00000000
00100000
00010000
01000000
00000000
00001000
00000000
00020000
00000000
,
00000000
00000000
00031000
00010000
00000100
00001000
00000100
00000000
00000010
00000001
00000100
00000000
00000010
00001000
00000100
00000000
,
00010000
00001000
00010000
00001000
01000000
00001000
01000000
00001000
01000000
00010000
01000000
00010000
10000000
00100000
10000000
00100000
,
00010000
00001000
00010000
00001000
00010000
00001000
00010000
00001000
00020000
00000000
00000000
00000000
00031000
00000000
00000000
00000000
,
00011000
00000000
00010100
00000000
00000100
00001000
00000001
00000101
,
00000000
00000000
00001000
00000000
00001010
00000000
00000000
00000000
00000000
00000000
00000010
00010000
00000010
00010000
00000010
00010000
,
00001000
00000000
01001000
00000000
00010000
10000000
01000000
11000000
,
00000000
00000000
00010000
00000000
00110000
00000000
00000000
00000000
00001000
00010000
00001000
00010000
00001000
00010000
00001000
00010000
,
00000100
00000000
00000000
00000000
00000011
00000000
00000000
00000000
00000001
00000100
00000001
00000100
00000001
00000100
00000010
00000000
,
00000000
00000000
00010000
00000000
00011000
00000000
00000000
00000000
00100000
00010000
00100000
00000000
01000000
10000000
01000000
00000000
,
11000000
00000000
00000000
00000000
10100000
00000000
00000000
00000000
01000000
00010000
01000000
00010000
01000000
00010000
00100000
00000000
,
00000000
00000000
00001000
00010000
00001000
00000000
00000000
00000000
00010000
00000100
00001000
00000100
00000010
00000000
00000000
00000000
,
00000001
00000100
00001000
00000000
00000100
00000010
00010000
00001000
,
00000000
00100000
00010000
00000000
10000000
00100000
10000000
01000000
,
00010000
00001000
00010000
00000000
00100000
01000000
00001000
00010000
,
00000000
00000100
00001000
00000000
00000001
00000100
00000010
00000000
,
00000100
00001000
00000100
00001000
00010000
01000000
00010000
01000000
,
10000000
00100000
10000000
00100000
00010000
00001000
00010000
00001000
,
00000010
00000000
00000100
00001000
00000100
00000000
00010000
00000000
00001000
01000000
00001000
00000000
00100000
00000000
00010000
10000000
,
00010000
00000000
00000000
00000000
00010000
00000000
00000000
00000000
10000000
01000000
00100000
00010000
01000000
00001000
00010000
00001000
,
00020000
00030100
00001000
00000200
00000310
00000001
00000200
00000310
,
00010000
00002000
00103000
01000000
20000000
30020000
20030000
30020000
,
02030000
03001000
00010000
00000200
00001300
00000001
00000200
00000310
,
00001000
00000000
00000200
00000000
00010300
00000000
00001000
00000000
02000000
00000000
03010000
00000000
20000000
00000000
31000000
00100000
,
00020000
00130000
00001000
00020000
00030100
00001000
00000002
00000103
,
00000010
00020000
00031000
00100000
02000000
23000000
32000000
23000000
,
30020000
01030000
00001000
00020000
00030100
00000010
00000002
00000103
,
00000010
00000000
00002000
00000000
00003100
00000000
00010000
00000000
00002000
00000000
01003000
00000000
00200000
00000000
10300000
00010000
,
00100000
00110000
00101000
00010100
,
00001100
00001010
00011000
01010000
,
00022000
00000000
00000000
00000000
00033000
00000000
00000000
00000000
00000100
00001000
00000100
00001000
00000010
00000000
00000000
00000000
,
00010000
00001000
00010000
00001000
00010000
00001000
00010000
00001000
00010000
00001000
00010000
00001000
00100000
00000000
00000000
00000000
,
02000000
13000000
00010000
02000000
03001000
00010000
00000200
00001300
,
00000001
00000200
00000301
00001000
00000200
00020300
00030200
00020300
,
00032000
01003000
00100000
20000000
31000000
00100000
00002000
00013000
,
00000100
00001000
00000100
00001000
00000001
00000100
00000001
00000000
00001000
00000010
00001000
00000010
00010000
00001000
00010000
00001000
,
00200000
00000000
00000000
10000000
10000000
00000000
00000000
01000000
,
00000000
00010000
00301000
00100000
,
00011000
00000200
00002300
00003002
,
00000203
00000000
00000000
00000000
00000000
00000000
00000000
00000000
00000000
00002300
00000000
00000000
00010000
00000000
00000000
00000000
00010000
00000000
00000000
00000000
00010000
00000000
00000000
00000000
,
00023000
00000000
00230000
00000000
02300000
00000000
03002000
00023000
,
00000000
00030200
00000320
00000032
,
00000203
00000000
00002300
00000000
00023000
00000000
02030000
23000000
,
00000000
00000000
00000000
00000000
30200000
00000000
00000000
00000000
01300000
00010000
01000000
00010000
01000000
00000000
00000000
00000000
,
00100000
00010000
00100000
00010000
00100000
00010000
00001000
00000010
,
00000001
00001000
00000001
00001000
00000001
00000010
00000001
00000000
,
00000100
00001000
00000100
00001000
00000100
00001000
00010000
01000000
,
10000000
00010000
10000000
00010000
10000000
00100000
10000000
00000000
,
01000000
00000000
00010000
00001000
00010000
00000000
00000100
00000000
00010000
00001000
00010000
00000000
00000010
00000000
00000100
00000001
,
00000100
00000000
00000010
00001000
00000010
00000000
00010000
00000000
00001000
00100000
00001000
00000000
00010000
00000000
00001000
01000000
,
00010000
10000000
00010000
10000000
01000000
10000000
01000000
10000000
00010000
00100000
00010000
00100000
00001000
00010000
00001000
00010000
,
00000020
00000000
00000000
00000000
00000030
00000000
00000000
00000000
00001000
00000001
00001000
00000001
00001000
00000001
00001000
00000001
,
00001000
00000010
00000100
00001000
00010000
00100000
01000000
00010000
,
10000000
01000000
00100000
00010000
01000000
00001000
00010000
00000010
,
00000200
00010000
00001000
00000010
,
00000001
00000000
00000000
00000000
00002300
00000000
00000000
00000000
00023000
00000000
00000000
00000000
01030000
00000000
10000000
00100000
,
01000000
00010000
00100000
01000000
00010000
00001000
00000010
00000100
,
00001000
00000000
00000001
00000000
00000100
00000000
00001000
00000000
00010000
00000000
01000000
00000000
00100000
00000000
00010000
10000000
,
00200000
01000000
00320000
00001000
,
00030200
00000000
00000000
00000000
00002300
00000000
00000000
00000000
00003020
00000000
00000000
00000000
00000130
00000000
00000001
00001000
,
00000100
00000000
00010000
00001000
00010000
00000000
01000000
00000000
10000000
00010000
10000000
00000000
00100000
00000000
01000000
00010000
,
00100000
00001000
00100000
00001000
00010000
00000100
00010000
00000100
00001000
00000001
00001000
00000001
00000100
00000010
00000100
00000010
,
00002000
00003000
00000000
00000200
,
00020300
00000000
00000000
00000000
00030000
00000000
00000000
00000000
00001000
01000000
00001000
01000000
00001000
00000000
00000000
00000000
,
00100000
10000000
01000000
00010000
00001000
00000010
00000001
00000100
,
00000010
00010000
00001000
00100000
01000000
00000000
10000000
00010000
,
01000000
00100000
00010000
00001000
00000010
00000100
00001000
00000001
,
00000100
00000000
00000000
00000000
00000000
00000000
00001000
00000000
00000000
00000000
00000000
00000000
00010000
00000000
00000000
00001000
00000000
00000000
00010000
00000000
00000000
00001000
00000000
00000000
00010000
00000000
00000000
00001000
00000000
00000000
00010000
00000000
00000000
00001000
00000000
00000000
00010000
00000000
00000000
00000000
01000000
00000000
00000000
00000000
00100000
00000000
00000000
00000000
,
01000000
10000000
00010000
01000000
00001000
00010000
00000100
00001000
00000100
00000010
00000001
00000100
,
00000010
00000000
00000000
00000000
00000100
00000000
00000000
00000000
00001000
00000000
00000000
00000000
00010000
00000000
00000000
00000000
00001000
00000000
00000000
00000000
01000000
00000000
00000000
00000000
00100000
00000000
00000000
10000000
00000000
00000000
00100000
00000000
00000000
10000000
00000000
00000000
02000000
00000000
00000000
00000000
00000000
00000000
00000000
00000000
00000000
00000000
00000000
00000000
,
03100000
00010000
00100000
00010000
00100000
00001000
00100000
00001000
00010000
00000100
00010000
00000100
00001000
00000001
00000100
00000010
,
00001000
00000000
00000200
00000000
00000000
00000000
00000000
00000000
00010300
00000000
00000000
00000000
00001000
01000000
00001000
00000000
,
01000000
00010000
01000000
00000000
00010000
10000000
00010000
00000000
10000000
01000000
10000000
00000000
00010000
00100000
00010000
00100000
,
00010000
00100000
00010000
00000000
00100000
00001000
00100000
00001000
00010000
00000100
00001000
00000001
00000200
00000000
00000000
00000000
,
00000000
00000000
00000310
00000000
00010000
00001000
00010000
00000000
00001000
01000000
00001000
00000000
00100000
00010000
00100000
02000000
,
00000000
13000000
00100000
01000000
00010000
00100000
00001000
00000010
,
00001000
00010000
00001000
00000100
00000001
00001000
00000100
00000010
,
00001000
00010000
00100000
01000000
00000000
01000000
00200000
00000000
,
00320000
00000000
00032000
00000000
00003010
00000002
00000100
00000000
,
00000100
00000000
00000000
00000000
00001003
00000000
00000001
00000000
00000100
00000000
00001000
00010000
00001000
00000000
00100000
00010000
,
00100000
00000000
01000000
00000000
10000000
00010000
10000000
00000000
00100000
00000000
01000000
00010000
01000000
00000000
00001000
00010000
,
00001000
00000000
00010000
00000000
00000100
00001000
00000100
00000000
00000010
00000000
00000001
00000100
00000010
00010000
00000010
00010000
,
00001000
01000000
00001000
01000000
00010000
10000000
00010000
10000000
01000000
00100000
01000000
00100000
00020000
00000000
00000000
00000000
,
00000000
01030000
00000000
00000000
00001000
00000000
00011000
00000000
,
00011000
00000000
00000000
00000000
00010000
00000100
00010000
00000100
00010000
00000100
00001000
00000000
00000000
00000000
00000001
00000000
,
00000101
00000000
00000000
00000000
00000010
00010000
00000010
00000000
00010000
00000010
00010000
00000000
00011000
00000000
00000000
00000000
,
00011000
00000000
00000000
00000000
00001000
01000000
00001000
01000000
00001000
01000000
00010000
00000000
00000000
00000000
10000000
00000000
,
11000000
00000000
00000000
00000000
00100000
00001000
00100000
00000000
00001000
00100000
00001000
00000000
00000000
00000000
00000000
00000000
,
00010000
00001000
00000010
00000100
00001000
00000001
00000100
00001000
,
00010000
00000000
01000000
00000000
10000000
00000000
00010000
00000000
01000000
00000000
00001000
00100000
00020000
00000000
00000000
00000000
,
01000000
00230000
00001000
00320000
,
00030020
00000000
00000000
00000000
00000230
00000000
00000000
00000000
00001300
00000000
00000001
00000100
00000010
00000000
00010000
00001000
,
00010000
00000000
01000000
00000000
00100000
00010000
00100000
00000000
01000000
00000000
10000000
00010000
01000000
00001000
01000000
00001000
,
00010000
00000100
00010000
00000100
00001000
00000001
00001000
00000001
00000100
00000010
00000100
00000010
00002000
00000000
00000000
00000000
,
00003200
00000000
00000000
00000000
00020300
00000000
00000000
00000000
00032000
00000000
00000000
00000000
00013000
00001000
00010000
00001000
,
00010000
00001000
00010000
00001000
00010000
00001000
00010000
00001000
01000000
00000000
00000000
00000000
00100000
00000000
10000000
00000000
,
01000000
00100000
00001000
00010000
00000010
00001000
00000001
00000100
,
00001000
00010000
00100000
00000000
10000000
00010000
10000000
01000000
,
00010000
00001000
00000010
00000001
00000100
00000100
00000100
00000100
;

//--------------- dance-double - forcednature ----------------
#NOTES:
     dance-double:
     forcednature:
     Challenge:
     19:
     0,0,0,0,0:
00000000
00000000
00000000
00000000
,
00000000
00000000
00000000
00000000
,
00000000
00000000
00000000
00000000
,
00000000
00000000
00000000
00000000
,
00000000
00000000
00000000
00000000
,
00000000
00000000
00000000
00000000
,
00010000
00000000
00001000
00010000
00000100
00001000
00000100
00000000
00000010
00000001
00000100
00000000
00001000
00000000
00020000
00000000
,
00000000
00000000
00130000
01000000
00010000
10000000
01000000
00000000
00100000
00001000
00010000
00000000
00100000
01000000
00001000
00000000
,
00010000
00000000
00000100
00001000
00000100
00000010
00000001
00000000
00000100
00000000
00000010
00010000
00001000
01000000
00001000
00000000
,
00010000
00000000
01000000
10000000
00100000
01000000
00100000
00000000
10000000
00000000
01000000
00010000
00001000
00010000
00001000
00000000
,
00000010
00000000
00000100
00001000
00000001
00000100
00000010
00000000
00010000
00001000
00100000
00000000
01000000
00000000
20000000
00000000
,
00000000
00000000
30100000
10000000
00010000
00100000
00010000
00000000
01000000
00001000
00010000
00000000
00000100
00001000
00000010
00000000
,
00000100
00001000
00010000
00000100
00001000
00000100
00000010
00000001
00000100
00000010
00000100
00001000
00010000
00001000
00100000
00010000
,
10000000
00010000
10000000
00010000
10000000
00010000
10000000
00010000
02000000
00000000
00000000
00000000
03000000
00000000
00000000
00000000
,
01001000
00000000
00010010
00000000
00010000
00001000
00000010
00000110
,
00000000
00000000
00001000
00000000
00001001
00000000
00000000
00000000
00001000
00000000
00000100
00010000
00001000
01000000
00001000
01000000
,
00010000
00000000
00110000
00000000
00100000
01000000
10000000
10100000
,
00000000
00000000
00010000
00000000
01010000
00000000
00000000
00000000
00001000
00010000
00000100
00001000
00000001
00000010
00000001
00000010
,
00000100
00000000
00000000
00000000
00001001
00000000
00000000
00000000
00000001
00000100
00001000
00010000
00001000
00010000
00100000
00000000
,
00000000
00000000
01000000
00000000
01010000
00000000
00000000
00000000
00010000
10000000
01000000
00000000
00100000
00010000
01000000
00000000
,
01001000
00000000
00000000
00000000
00010100
00000000
00000000
00000000
00000100
00001000
00000010
00000100
00000001
00001000
00000100
00000000
,
00000000
00000000
00010000
00001000
00010000
00000000
00000000
00000000
00100000
01000000
00010000
10000000
00010000
00000000
00000000
00000000
,
00100000
00001000
00000010
00001000
00010000
00000100
00000010
00000001
,
00000100
00001000
00010000
00000000
00100000
01000000
00001000
00010000
,
01000000
10000000
00100000
00010000
00100000
00001000
00000010
00001000
,
00000100
00000010
00000001
00000000
00000100
00001000
00010000
01000000
,
10000000
10000000
10000000
10000000
00010000
00010000
00010000
00010000
,
00001000
00001000
00001000
00001000
00000001
00000100
00000001
00000010
,
00000100
00000000
00010000
00001000
00010000
00001000
01000000
00000000
00001000
00010000
00001000
00010000
00000100
00000000
00010000
00001000
,
00200000
00000000
00000000
00000000
01000000
00000000
00000000
00000000
01300000
10000000
00010000
00100000
00001000
00010000
00000100
00001000
,
00000001
00000000
00000100
00000000
00001000
00010000
00000010
00000000
00001000
00000000
00000100
00000000
00010000
00001000
01000000
00000000
,
00100000
00000000
10000000
00000000
01000000
00100000
00010000
00000000
01000000
00000000
00001000
00000000
00010000
00000100
00001000
00000000
,
00000001
00000100
00000010
00001000
00000100
00000000
00000010
00000100
00001000
00000100
00010000
00000000
00001000
00000000
01000000
00000000
,
00100000
10000000
00010000
00100000
01000000
00000000
00010000
00001000
00000010
00000100
00001000
00000000
00000001
00000000
00000100
00000000
,
00001000
00000000
00010000
00000000
00100000
10000000
00010000
00000000
00100000
00000000
01000000
00000000
00010000
00001000
01000000
00000000
,
00001000
00000000
00010000
00000000
00000100
00000010
00000001
00000000
00000100
00000000
00000010
00000000
00000100
00001000
00010000
00000000
,
00001000
01000000
00010000
01000000
00100000
00000000
10000000
01000000
00100000
00001000
00010000
00000000
00001000
00000000
01000000
00000000
,
00001000
00010000
00000100
00001000
00000100
00000000
00000010
00000100
00001000
00000001
00000100
00000000
00000010
00010000
00001000
00000000
,
00100000
00010000
00100000
00010000
00100000
01000000
00100000
01000000
10000000
01000000
10000000
01000000
10000000
00010000
10000000
00010000
,
01000000
00010000
01000000
00010000
01000000
00001000
01000000
00001000
00010000
00001000
00010000
00001000
00010000
00000100
00010000
00000100
,
00002000
00000000
00000000
00000000
00003000
00000000
00000000
00000000
00000100
00000010
00000100
00010000
00001000
00000000
00000000
00000000
,
00100000
00001000
00010000
00001000
00100000
00010000
00100000
01000000
10000000
00010000
01000000
00010000
00100000
00000000
00000000
00000000
,
02000000
03010000
00001000
00000020
00000130
00001000
00000002
00000103
,
00001000
00020000
00130000
01000000
00002000
00023000
00032000
00023000
,
00030200
00000310
00000001
00000200
00010300
01000000
00200000
10300000
,
01000000
10000000
00010000
00100000
00010000
01000000
00001000
00010000
00000010
00001000
00000001
00001000
00000010
00010000
00001000
00100000
,
00001000
00000000
00000000
00000000
00000000
00000000
01000000
00010000
01000000
00000000
00000000
00000000
00000000
00000000
00001000
00000000
,
00000000
00000000
00001000
00000000
00000000
00000000
00010000
00000100
00010000
00000000
00000000
00000000
00000010
00000000
00000000
00000000
,
00001001
00000001
00001000
00010000
,
20000000
00000000
00000000
00000000
00000000
00000000
31000000
00000000
01000000
00000000
01000000
00000000
,
00110000
00000000
00000000
00000000
00001000
00000000
00010000
00000100
00010000
00000000
00000000
00000000
00001000
00000000
00000100
00000000
,
00000000
00000000
00000001
00000000
00001000
00000000
00000100
00010000
00000100
00000000
00000000
00000000
00001000
00000000
00000000
00000000
,
00020010
00000000
02030000
00000000
03200000
00000000
00302000
00023000
,
00000000
00000000
00000000
00000000
00230000
00000000
00000000
00000000
01300000
00001000
01000000
00001000
01000000
00000000
00000000
00000000
,
00100000
10000000
01000000
00010000
00001000
00000010
00000001
00000100
,
00000010
00000000
00010000
00000000
00001000
00000000
00100000
00000000
00001000
00000000
00010000
00000100
00010000
00000000
00000000
00000000
,
01000000
10000000
00100000
00010000
00100000
01000000
00001000
00000010
,
00000100
00000000
00010000
00000000
00000010
00000000
00000100
00000000
00000001
00000100
00001000
00010000
00001000
00000000
00000000
00000000
,
01000000
00000000
00001000
00010000
00001000
00010000
00000100
00000000
00010000
00001000
00010000
00001000
01000000
00000000
00001000
00010000
,
00000100
00001000
00000001
00000100
00000010
00010000
00001000
00010000
00001000
01000000
00010000
10000000
01000000
00100000
00010000
00100000
,
00001000
00010000
00001000
00010000
00000100
00001000
00000100
00001000
00000001
00000100
00000001
00000100
00000010
00010000
00000010
00010000
,
00002000
00000000
00000000
00000000
00003000
00000000
00000000
00000000
01000000
00001000
00010000
00001000
00000100
00001000
00010000
00001000
,
00100000
00000000
00010000
00000000
10000000
01000000
00100000
00000000
01000000
00000000
00010000
00000000
00001000
00010000
00000100
00000000
,
00001000
00000000
00000001
00000000
00000100
00001000
00010000
00000000
00000100
00000000
00000010
00000000
00000100
00010000
00001000
00000000
,
01000000
00010000
00100000
00000000
01000000
10000000
00010000
00000000
00100000
00001000
00010000
00000000
00100000
00010000
00001000
00000000
,
00010000
00000100
00001000
00000000
00000001
00000100
00000010
00000000
00001000
00000100
00010000
00000000
00001000
01000000
00001000
01000000
,
00001000
00000000
00100000
00000000
00001000
00010000
00000010
00000000
00000100
00000000
00000001
00000000
00000010
00000100
00001000
00000000
,
00000010
00000000
00010000
00000000
00001000
01000000
00010000
00000000
00100000
00000000
01000000
00000000
10000000
00100000
01000000
00000000
,
00001000
00010000
00000100
00000000
00001000
00000001
00000100
00000000
00000010
00010000
00001000
00000000
00100000
00010000
01000000
00000000
,
00100000
10000000
00010000
00000000
01000000
00001000
00010000
00000000
00000100
00001000
00000100
00001000
00000001
00000010
00000001
00000010
,
00000100
00010000
00001000
00010000
00000010
00001000
00000010
00010000
00001000
00100000
00010000
00100000
00001000
01000000
00010000
10000000
,
01000000
10000000
01000000
10000000
00010000
00100000
00010000
00100000
00001000
00010000
00001000
00010000
00000010
00001000
00000100
00000010
,
00000002
00000003
00000000
00000200
,
00002300
00000000
00000000
00000000
00003000
00000000
00000000
00000000
00010000
00100000
00010000
00100000
10000000
00000000
00000000
00000000
,
01000000
00010000
00001000
00000010
00001000
00010000
00100000
00010000
,
00001000
00000100
00001000
00010000
00000010
00000000
00010000
00000100
,
00000010
00001000
01000000
00100000
00010000
00000100
00000010
00000100
,
00001000
00000000
00000000
00000000
00000000
00000000
00000001
00000000
00000000
00000000
00000000
00000000
00000100
00000000
00000000
00001000
00000000
00000000
00000100
00000000
00000000
00001000
00000000
00000000
00010000
00000000
00000000
00100000
00000000
00000000
00010000
00000000
00000000
00100000
00000000
00000000
00010000
00000000
00000000
00000000
00001000
00000000
00000000
00000000
00010000
00000000
00000000
00000000
,
01000000
00100000
00010000
10000000
00100000
01000000
00001000
00010000
01000000
00100000
00001000
00010000
,
00000100
00000000
00000000
00000000
00000010
00000000
00000000
00000000
00001000
00000000
00000000
00000000
00000010
00000000
00000000
00000000
00000100
00000000
00000000
00000000
00001000
00000000
00000000
00000000
00000001
00000000
00000000
00000100
00000000
00000000
00000001
00000000
00000000
00000100
00000000
00000000
00000001
00000000
00000000
00000010
00000000
00000000
00000100
00000000
00000000
00001000
00000000
00000000
,
00000100
00000000
00000000
00010000
00000000
00000000
00001000
00000000
00000000
01000000
00000000
00000000
00010000
00000000
00000000
10000000
00000000
00000000
00100000
00000000
00000000
10000000
00000000
00000000
01000000
00000000
00000000
00100000
00000000
00000000
00010000
00000000
00000000
01000000
00000000
00000000
00010000
00000000
00000000
00000000
00100000
00000000
00000000
00000000
00001000
00000000
00000000
00000000
,
00000010
00000000
00000000
00000000
00000000
00000000
00000000
00000000
00000000
00000000
00000000
00000000
00000100
00000000
00000000
00000000
00010000
00000000
00000000
00000000
00001000
00000000
00000000
00000000
00000100
00000000
00000000
00000000
00000000
00000000
00000000
00000000
00000000
00000000
00000000
00000000
00000001
00000000
00000000
00000010
00000000
00000000
00000100
00000000
00000000
00001000
00000000
00000000
,
00000100
00010000
00001000
01000000
00100000
10000000
00010000
00100000
10000000
00000000
00000000
00000000
00100000
00010000
01000000
00001000
,
00010000
00000100
00001000
00000010
00000100
00000001
00001000
00000100
00000001
00000100
00000010
00000100
00002000
00000000
00000000
00000000
,
00003100
00000000
00010000
00000000
00001000
00010000
00001000
00010000
00000010
00001000
00000010
00001000
00000001
00000010
00000001
00000010
,
00000100
00010000
00001000
01000000
00100000
10000000
01000000
00100000
00010000
00100000
00001000
00010000
00000010
00000000
00000100
00000000
,
00000001
00000010
00000100
00000000
00010000
00000000
00001000
00000000
01000000
00010000
00100000
00000000
01000000
00000000
10000000
00000000
,
00100000
01000000
00010000
00000000
00100000
00000000
00001000
00000000
00000010
00000100
00001000
00000000
00000001
00000100
00000001
00000000
,
00000010
00000100
00000010
00000000
00001000
00010000
00001000
00000000
00100000
00000000
01000000
00000000
10000000
00100000
10000000
00000000
,
00010000
01000000
00010000
00000000
00100000
01000000
00100000
00000000
00001000
00000000
00010000
00000000
00000100
00000000
00010000
00001000
,
00010000
00001000
01000000
00000000
00001000
00010000
00001000
00010000
00000100
00000000
00010000
00001000
00100000
00000000
00001000
00010000
,
00001000
00010000
00000010
00000000
00010000
00001000
00010000
00001000
00100000
00000000
00001000
00010000
00000100
00001000
00000001
00000100
,
00000010
00010000
00001000
00100000
00001000
00010000
00000100
00010000
00001000
01000000
00100000
10000000
02000000
00000000
00000000
00000000
,
00000000
03010000
00000000
00000000
00001000
00000000
00011000
00000000
,
00011000
00000000
00000000
00000000
00000100
00001000
00000001
00000100
00001000
00010000
00100000
00000000
00000000
00000000
10000000
00000000
,
10100000
00000000
00000000
00000000
10000000
01000000
00100000
00000000
00010000
01000000
00001000
00000000
00011000
00000000
00000000
00000000
,
00011000
00000000
00000000
00000000
01000000
00010000
10000000
01000000
00010000
00001000
00000010
00000000
00000000
00000000
00000001
00000000
,
00000011
00000000
00000000
00000000
00000100
00010000
00001000
01000000
00100000
00010000
00001000
00000100
00000000
00000000
00000000
00000000
,
00000010
00001000
00000100
00000000
00010000
00000000
00001000
00000000
01000000
00010000
00100000
00000000
10000000
00000000
00100000
00000000
,
00010000
01000000
00001000
00000000
00010000
00000000
00000100
00000000
00000010
00000100
00001000
00000000
00000001
00000100
00001000
00000000
,
00010000
00100000
01000000
00000000
00001000
00100000
00010000
00000000
01000000
00100000
10000000
00000000
01000000
00010000
00001000
00000000
,
00000010
00000100
00001000
00000000
00000001
00000100
00000001
00000100
00001000
00010000
00001000
00010000
01000000
10000000
00100000
10000000
,
01000000
00100000
00010000
01000000
00001000
00010000
00000100
00001000
00000001
00000100
00000010
00001000
00000100
00010000
00001000
00100000
,
00010000
10000000
00100000
01000000
00010000
01000000
00001000
00010000
00000010
00001000
00000001
00000010
00000200
00000000
00000000
00000000
,
00020300
00000000
00000000
00000000
00032000
00000000
00000000
00000000
00003020
00000000
00000000
00000000
00000130
00001000
00000010
00010000
,
00000100
00001000
00000010
00010000
00000100
00001000
00000010
00010000
00000100
00000000
00000000
00000000
00000010
00000000
00001000
00000000
,
00100000
01000000
00010000
00000100
00000010
00001000
00100000
01000000
,
00010000
00000100
00001000
00000000
00000001
00000100
00010000
00001000
,
00100000
10000000
01000000
00001000
00010000
00100000
00001000
00000100
;
