#TITLE:KIDDING ME;
#SUBTITLE:;
#ARTIST:ITZY;
#TITLETRANSLIT:;
#SUBTITLETRANSLIT:;
#ARTISTTRANSLIT:;
#GENRE:;
#CREDIT:;
#BANNER:;
#BACKGROUND:;
#LYRICSPATH:;
#CDTITLE:;
#MUSIC:KIDDING ME.ogg;
#OFFSET:0.021128;
#SAMPLESTART:69.290001;
#SAMPLELENGTH:13.913040;
#SELECTABLE:YES;
#BPMS:0.000000=138.000000
;
#STOPS:
;
#BGCHANGES:;
#KEYSOUNDS:;
#ATTACKS:;

//---------------dance-single - ----------------
#NOTES:
     dance-single:
     :
     Hard:
     14:
     0.588543,0.710386,0.244810,0.286777,0.300767,589.000000,554.000000,35.000000,41.000000,0.000000,0.000000,0.588543,0.710386,0.244810,0.286777,0.300767,589.000000,554.000000,35.000000,41.000000,0.000000,0.000000:
// measure 0
0000
0000
0000
0000
,  // measure 1
0000
0000
0000
0000
,  // measure 2
0000
0000
0000
0000
,  // measure 3
0000
0000
0000
0000
,  // measure 4
0000
0000
0000
0000
,  // measure 5
1000
0010
0001
1000
0100
0010
1000
0001
,  // measure 6
1000
0000
0100
0000
0001
0000
0000
0000
0000
0000
0000
0000
0100
0000
1000
0001
,  // measure 7
1000
0010
0001
1000
0100
0001
0010
0100
,  // measure 8
0010
0000
0000
0000
0010
0000
0000
0000
0010
0000
0000
0000
0001
0000
0000
0000
0001
0000
0000
0000
0001
0000
0000
0000
1000
0000
0000
0000
0001
0000
0000
0000
0100
0000
0000
0000
0010
0000
0000
1000
0000
0000
0000
0000
0000
0000
0000
0000
,  // measure 9
1001
1000
0000
0000
0100
0000
1000
0000
0010
0000
0001
0000
0010
0000
1000
0000
,  // measure 10
0000
0000
0001
0000
0002
0000
0000
0000
1003
0100
0000
0000
0010
0001
0000
0000
,  // measure 11
1000
0010
0000
0000
0100
0000
0001
0000
0010
0000
1000
0000
0010
0000
0001
0000
,  // measure 12
0000
0000
1000
0000
1000
0000
0001
0000
0200
0000
0310
1000
0010
0000
1000
0000
,  // measure 13
1010
0000
1000
0000
0001
0000
0000
0000
0010
0000
0100
0010
0001
0000
0010
0000
,  // measure 14
0011
0000
0001
0000
1000
0000
0000
0000
0001
0000
0100
0001
1000
0000
0100
0000
,  // measure 15
1100
0100
0010
0001
0100
1000
0100
0001
,  // measure 16
0000
0000
1000
0010
0100
0000
0010
0000
1000
0000
0100
0000
0010
0000
0000
0000
,  // measure 17
1001
0000
0001
0010
0001
0100
0010
1000
,  // measure 18
0200
0000
0320
0000
0032
0000
1003
0010
,  // measure 19
0000
0000
1000
0010
1000
0100
0010
0001
,  // measure 20
0200
0000
0320
0000
2030
0000
3001
0100
,  // measure 21
0010
1000
0000
0000
1000
0000
0100
0000
0010
0001
0000
0000
0001
0000
1000
0000
,  // measure 22
0010
0000
0000
0100
0000
0000
0000
0000
0000
0000
0000
0000
0100
0000
0000
0000
0000
0000
0010
0000
0000
0000
0000
0000
1000
0000
0000
0001
0000
0000
0000
0000
0000
0000
0000
0000
0010
0000
0000
0000
0010
0000
0000
0000
0010
0000
0000
0000
,  // measure 23
0100
1000
1000
1000
0001
0100
0010
2000
,  // measure 24
0000
3100
0100
0010
0001
1000
0020
0200
,  // measure 25
0300
0130
0000
0010
1000
0001
0020
0200
,  // measure 26
0300
0130
0000
1000
0100
0001
0100
2000
,  // measure 27
0000
3010
0001
0010
2000
0000
3001
0020
,  // measure 28
0000
0130
0000
1000
0100
0001
0200
0020
,  // measure 29
0030
0310
0000
0001
0100
1000
0200
0020
,  // measure 30
0030
0310
0000
1000
0100
0010
0001
2000
,  // measure 31
0000
3100
0001
0100
2000
0000
3010
0200
,  // measure 32
0000
0301
0000
0010
0100
1000
0010
0100
,  // measure 33
1001
0000
0000
0000
0110
0000
0000
0000
0001
0000
0010
0000
1000
0000
0010
0001
,  // measure 34
1000
0000
0001
0100
0010
1000
0100
0010
,  // measure 35
1001
0000
0000
0000
0110
0000
0000
0000
1000
0000
0010
0000
0001
0000
0010
1000
,  // measure 36
0001
0000
0010
0100
1000
0010
0100
0001
,  // measure 37
1001
0000
1000
0000
0100
0000
1000
0000
0010
0000
0100
0000
0001
0000
1000
0001
,  // measure 38
0100
0000
0100
0000
0010
0000
1000
0000
0001
0000
0010
0000
0100
0000
1000
0001
,  // measure 39
1000
0000
1000
0000
0001
0000
0001
0000
1000
0100
1000
0100
0010
0001
1000
0100
,  // measure 40
0001
0100
1000
0010
0001
0010
1000
0100
,  // measure 41
0110
0000
1000
0100
0001
0000
0110
0000
,  // measure 42
1000
0000
0010
0000
0001
0000
0000
0000
0010
0100
0010
0000
1000
0100
1000
0000
,  // measure 43
0110
0000
1000
0010
0001
0000
0110
1000
,  // measure 44
0001
0010
1000
0010
0001
0100
1000
0100
,  // measure 45
0001
0000
0010
0000
0000
0000
0010
0000
0100
0000
1000
0001
1000
0000
0010
0000
,  // measure 46
0000
0000
0100
0000
0000
0000
0100
0000
1000
0000
0100
0001
1000
0000
0001
0000
,  // measure 47
0010
0000
0000
0000
0100
1000
0000
0000
1000
0010
0000
0000
0101
0000
1000
0000
,  // measure 48
0001
0010
1000
0010
0001
0100
0010
1000
,  // measure 49
0200
0000
0000
0320
,  // measure 50
0000
0000
0000
0000
,  // measure 51
0032
0000
0000
2003
,  // measure 52
0000
0000
0000
0000
,  // measure 53
3010
0000
0100
0010
1000
0000
0001
0000
,  // measure 54
0010
0100
1000
0001
0100
0010
0010
0010
,  // measure 55
1000
0001
0100
0001
1000
0100
0010
0001
,  // measure 56
1000
1000
1000
0010
0010
0010
0100
0001
0010
0200
0000
0000
,  // measure 57
1300
0000
0000
0000
1100
0000
0000
0000
1001
0000
0000
0001
0200
0000
0010
0000
,  // measure 58
0300
0000
1010
0000
0000
0010
1000
0000
1000
0000
0001
0100
1000
0000
0100
0000
,  // measure 59
0101
0000
0000
0000
0011
0000
0000
0000
1100
0000
0000
1000
0002
0000
0100
0000
,  // measure 60
0003
0000
0011
0000
0000
0001
1000
0000
0010
0000
1000
0100
0001
0000
0100
0000
,  // measure 61
1100
0000
0000
0000
1010
0000
0000
0000
0101
0000
0000
0001
0020
0000
1000
0000
,  // measure 62
0030
0000
0110
0000
0000
1000
0001
0000
0001
0000
1000
0010
0001
0000
0010
0000
,  // measure 63
0010
0100
0010
0000
1000
0010
1000
0000
0001
1000
0100
0010
0001
1000
0010
0100
,  // measure 64
0001
0010
1000
0010
0001
0100
0010
1000
,  // measure 65
1001
0000
1000
0010
0001
0000
0110
0000
,  // measure 66
0001
0000
0010
0000
1000
0000
0000
0000
0010
0100
0010
0000
0001
0010
0001
0000
,  // measure 67
0110
0000
1000
0010
0001
0000
0110
0001
,  // measure 68
1000
0100
0001
0100
1000
0010
0001
0010
,  // measure 69
1000
0000
0100
0000
0000
0000
0100
0000
0010
0000
0001
1000
0001
0000
0100
0000
,  // measure 70
0000
0000
0010
0000
0000
0000
0010
0000
0001
0000
0010
1000
0001
0000
0010
0000
,  // measure 71
0100
0000
0000
0000
1000
0010
0000
0000
0100
0001
0000
0000
1001
0000
0001
0000
,  // measure 72
1000
0100
0001
0100
1000
0010
0100
0001
,  // measure 73
1001
0000
0000
0001
0100
0000
0010
0000
1000
0001
1000
0000
0100
0000
0010
0000
,  // measure 74
0011
0000
0000
0002
1000
0000
0000
2003
0010
0000
0000
3020
0100
0000
0130
0000
,  // measure 75
0001
0000
0000
0100
0001
0000
0010
0000
0100
0010
0001
0000
0100
0000
0010
0000
,  // measure 76
0110
0000
0000
0020
1000
0000
0000
2030
0001
0000
0000
3002
0010
0000
0013
0000
,  // measure 77
0100
0000
0000
1000
0001
0000
0100
0000
0010
1000
0100
0000
0010
0000
0100
0000
,  // measure 78
1100
0000
0000
2000
0010
0000
0000
3020
0100
0000
0000
0230
0001
0000
0301
0000
,  // measure 79
1000
0100
0001
1000
0010
0001
0100
0010
,  // measure 80
1000
0001
1000
0001
0100
0001
0100
0001
1000
0010
0100
0001
0010
0100
1000
0001
,  // measure 81
0200
0300
0000
0000
;

//---------------dance-single - ----------------
#NOTES:
     dance-single:
     :
     Medium:
     10:
     0.423671,0.481576,0.230821,0.279783,0.000000,424.000000,391.000000,33.000000,40.000000,0.000000,0.000000,0.423671,0.481576,0.230821,0.279783,0.000000,424.000000,391.000000,33.000000,40.000000,0.000000,0.000000:
0000
0000
0000
0000
,
0000
0000
0000
0000
,
0000
0000
0000
0000
,
0000
0000
0000
0000
,
0000
0000
0000
0000
,
1000
0100
0010
0000
0001
0100
0000
0010
,
1000
0100
0010
0000
0000
0000
1001
0000
,
0001
0100
0010
0000
1000
0100
0000
0010
,
0002
2003
3020
0130
,
1001
0000
0001
0000
0100
0001
0010
0200
,
0000
1300
1000
0000
0001
0000
0001
0000
,
2000
0000
3001
0000
0010
0100
1000
0010
,
0000
1000
1000
0001
1000
0000
0001
0000
,
0101
1000
0000
0001
,
1100
0001
0000
0001
,
1000
0000
0100
0000
0010
0001
1000
0010
,
0000
0100
0100
0010
1000
0001
1000
0000
,
1100
0000
0001
0000
0010
0100
1000
0000
,
0002
0203
0320
1030
,
0000
0000
0010
0000
1000
0100
0010
0000
,
0002
0000
2003
0000
3020
0000
0130
0001
,
1000
0000
0100
0010
0001
0000
1000
0001
,
0100
0000
0001
1000
0010
0000
0110
0000
,
1000
0000
0100
0000
0010
0001
1000
0002
,
0000
0103
0001
0200
0010
0000
0310
2000
,
0000
3001
0000
1000
0100
0000
0010
0002
,
0000
1003
0000
0001
0100
0000
0010
1000
,
0000
0100
0010
0000
0001
0000
1000
0002
,
0000
0103
0000
0010
1000
0000
0001
0200
,
0000
0310
0000
1000
0100
0000
0010
0002
,
0000
1003
0000
0001
0100
0000
0001
0020
,
0000
0130
1000
0000
0010
0000
0100
0020
,
0000
1030
0000
0100
0010
0001
0100
0000
,
1001
0000
0110
0000
0001
0010
0100
0010
,
0001
0000
1000
0010
0100
0001
1000
0000
,
1001
0000
0110
0000
1000
0100
0010
0100
,
1000
0000
0001
0010
0100
1000
0010
0000
,
1001
0000
0001
0100
0010
0100
0001
0010
,
0100
0000
1000
0010
0100
0010
1000
0100
,
0010
0000
0011
0000
1000
0010
0100
0000
,
0000
0000
0000
0000
,
1001
0000
1000
0010
0100
0000
0110
0000
,
0001
0010
0100
0000
1000
0100
0001
0100
,
1100
0000
1000
0001
0100
0000
0110
0000
,
0001
0010
0001
1000
0001
0100
0010
1000
,
0000
0001
0000
0001
1000
0001
0100
0010
,
0000
1000
0000
1000
0001
1000
0100
0010
,
0001
1000
0010
1001
,
0001
0100
0010
0100
0001
0010
0100
0000
,
2001
0000
0000
3020
,
0000
0000
0000
0000
,
0230
0000
0000
0302
,
0000
0000
0000
0000
,
1003
0000
0100
0000
1000
0001
0100
0000
,
0001
0010
0100
1000
0001
0000
1000
0000
,
0002
0000
0203
0000
0310
1000
0002
0000
,
0000
0000
0000
0003
,
1000
1100
1001
1100
,
0000
0010
0000
0001
0001
0010
0100
0010
,
0001
0101
1001
0101
,
0000
0010
0000
0100
0001
0010
0100
1000
,
0010
1010
1001
1100
,
0000
0010
0000
0001
0001
0010
0100
0010
,
0002
2003
3020
0230
,
0301
0010
0001
0010
0100
1000
0001
1000
,
1010
0000
0100
0001
0010
0000
0110
0000
,
0100
1000
0010
0000
0100
0100
0010
0010
,
0110
0000
1000
0010
0100
0000
0110
0000
,
0001
0010
0100
0010
0001
1000
0001
0100
,
0000
0010
0000
0010
1000
0001
1000
0100
,
0000
0010
0000
0010
0001
1000
0001
0100
,
0010
1000
0100
1001
,
0001
0100
0001
0010
0100
1000
0001
0100
,
0010
0000
1000
0010
1000
0100
0010
0001
,
2000
0000
3020
0000
0230
0000
0301
1000
,
0000
0000
0001
0010
0001
0100
0010
1000
,
0200
0320
0032
1003
,
0000
0000
0001
0100
0010
0100
0001
0010
,
0200
0000
2300
0000
3002
0000
0100
0103
,
0010
0000
1000
0100
0010
0100
1000
0010
,
0100
0001
0010
0001
0100
0010
1000
0001
,
1001
0000
0000
0000
;

//---------------dance-single - ----------------
#NOTES:
     dance-single:
     :
     Easy:
     6:
     0.276785,0.368264,0.321750,0.160875,0.000000,277.000000,231.000000,46.000000,23.000000,0.000000,0.000000,0.276785,0.368264,0.321750,0.160875,0.000000,277.000000,231.000000,46.000000,23.000000,0.000000,0.000000:
0000
0000
0000
0000
,
0000
0000
0000
0000
,
0000
0000
0000
0000
,
0000
0000
0000
0000
,
0000
0000
0000
0000
,
0001
0100
0010
1000
,
0100
0100
0000
0011
,
1000
0001
0100
0010
,
2000
3200
0320
0031
,
1001
0000
0001
0000
0100
0000
0010
1000
,
0000
0000
0001
0001
,
1000
0000
0100
0000
0010
0000
0001
1000
,
0000
0001
0100
0000
,
0010
1010
0000
1000
,
0001
0011
0000
0001
,
1000
0000
0010
0000
0100
0000
0001
1000
,
0000
0001
1000
0100
,
1100
0001
0010
0100
,
2000
3002
0203
0310
,
0000
1000
0001
1000
,
0200
0320
0032
1003
,
1001
0000
0101
0000
,
1001
0000
1100
0000
,
0001
0100
0010
1000
,
0001
2000
3000
0000
,
0200
0000
0000
0300
,
0020
0000
0000
0030
,
0001
1000
0001
0100
,
0010
0010
0010
0000
,
2000
0000
0000
3000
,
0200
0000
0000
0300
,
0010
0001
1000
0001
,
0100
0100
0100
0000
,
0001
1000
0001
0100
,
0010
0010
0010
0000
,
1000
0001
1000
0100
,
0010
0010
0010
0000
,
0001
0100
0001
0100
,
0010
1000
0010
1000
,
0001
0010
0100
0110
,
0000
0000
0000
0000
,
1001
0000
0100
0101
,
0000
0000
0101
0000
0000
0001
1000
0000
,
1001
0000
0100
1100
,
0000
0000
1100
0000
0000
1000
0001
0000
,
0110
0000
1000
1100
,
0000
0110
0001
1000
,
1001
0000
0100
0110
,
0001
0001
1000
0001
,
0200
0000
0000
0320
,
0000
0000
0000
0030
,
2000
0000
0000
3002
,
0000
0000
0000
0003
,
1000
0000
0100
0010
,
0000
0001
1000
0000
,
0001
0000
0100
0000
0010
1000
0002
0000
,
0000
0000
0000
0003
,
0000
1000
0100
1000
,
0000
0001
0001
0010
,
0001
0100
0001
0100
,
0000
0010
1000
0001
,
1000
0100
0010
0100
,
0000
0010
0001
1000
,
0002
0203
0320
2030
,
3001
1000
0100
0010
,
1001
0000
0100
0110
,
0000
0000
0110
0000
0000
1000
0001
0000
,
1001
0000
0100
0101
,
0000
0000
0101
0000
0000
0001
0010
0000
,
1001
0000
0001
0101
,
0000
0000
0101
0000
0000
0001
1000
0000
,
1100
0000
0010
0110
,
0000
0110
0000
0000
,
1000
0100
0010
0001
,
0101
0101
0101
1001
,
0000
0001
0010
0100
,
1100
1100
1100
1001
,
0000
1000
0010
0100
,
0101
0101
0101
1001
,
0000
0001
0010
0100
,
1000
0010
0100
0001
,
1001
0000
0000
0000
;
