#TITLE:Johnny Techno Ska;
#SUBTITLE:;
#ARTIST:Paco Pil;
#TITLETRANSLIT:;
#SUBTITLETRANSLIT:;
#ARTISTTRANSLIT:;
#GENRE:;
#CREDIT:;
#BANNER:Johnny Techno Ska.png;
#BACKGROUND:Johnny Techno Ska-bg.png;
#LYRICSPATH:Johnny Techno Ska.lrc;
#CDTITLE:;
#MUSIC:Johnny Techno Ska.ogg;
#OFFSET:1.488000;
#SAMPLESTART:76.512001;
#SAMPLELENGTH:15.000000;
#LASTBEATHINT:1.200403;
#SELECTABLE:YES;
#BPMS:0.000000=160.000000
,260.000000=80.000000
,268.000000=160.000000
;
#STOPS:
;
#BGCHANGES:4.000=Johnny Techno Ska.avi=1.000=0=0=0=StretchNoLoop====,
99999=-nosongbg-=1.000=0=0=0 // don't automatically add -songbackground-
;
#KEYSOUNDS:;
#ATTACKS:;

//---------------dance-single - ----------------
#NOTES:
     dance-single:
     :
     Hard:
     16:
     0.728972,0.935047,0.130841,0.411215,0.640187,546.000000,532.000000,14.000000,44.000000,20.000000,0.000000,0.728972,0.935047,0.130841,0.411215,0.640187,546.000000,532.000000,14.000000,44.000000,20.000000,0.000000:
0000
0000
0000
0000
,
0000
0000
0000
0000
,
0000
0000
0000
0000
,
0000
0000
0000
0000
,
0000
0000
0000
0000
,
0001
0100
0010
1000
0001
0100
0100
0001
,
1000
0100
0010
0001
1000
0010
0110
0000
,
1000
0001
0010
0100
0010
0001
1000
1000
,
0010
0010
0010
0010
0010
0200
0302
2003
,
3100
0010
0000
0001
0010
0000
0100
0000
1000
0001
0000
1000
0010
0000
0100
0000
,
0001
0100
0000
0010
0100
0000
0001
0000
1000
0100
0000
0010
0100
0000
1000
0000
,
0001
0100
0000
0000
0010
1000
0000
0000
0001
0010
0000
0000
0100
1000
0000
0000
,
0001
0100
0000
0010
1000
0000
0001
0000
1000
0100
2000
0000
3002
0000
0023
0000
,
0130
1000
0000
0001
0100
0000
0001
0000
1000
0100
0000
0010
0001
0000
1000
0000
,
0010
1000
0000
0001
0010
0000
0100
0000
1000
0001
0000
0100
0010
0000
1000
0000
,
0001
0010
0000
0000
0100
1000
0000
0000
0001
0100
0000
0000
0010
1000
0000
0000
,
0001
0010
0000
0100
1000
0000
0001
0000
1000
0010
0000
0100
0001
0000
1000
0001
,
1000
0100
0001
0100
0010
0020
0000
0031
,
1000
0000
0010
0000
0001
0000
0010
0000
0200
0000
0000
0000
0301
1000
0001
0000
,
1000
0100
0010
0100
0001
0100
1000
0200
,
0000
0000
0320
0000
0000
0000
0000
0000
0031
0000
1000
0000
0010
0100
0010
0000
,
0100
0001
1000
0100
0001
0100
1000
0001
,
0100
0000
0010
0000
0100
0000
1000
0000
0200
0000
0000
0000
0310
1000
0020
0000
,
0000
1030
0001
0010
0100
0010
1000
0010
,
0002
0000
0000
0000
1003
0000
0010
0000
0100
0000
0001
0000
1000
0100
1000
0000
,
0001
2000
0000
3100
01M0
0002
0000
0013
,
0M10
2000
0000
3010
0M10
0001
1000
1000
,
0001
0100
1000
0100
0001
0010
0100
2000
,
0000
3020
0000
0000
1030
0002
0000
0013
,
0M10
2000
0000
3010
0M10
0002
0000
0103
,
01M0
2000
0000
3100
01M0
0001
1000
1000
,
0001
0010
1000
0010
0001
2000
0000
0000
,
3001
0100
1000
0100
0001
2000
3200
0320
,
0031
1000
0000
0100
1000
0000
0100
0010
0001
0010
0000
0001
1000
0000
0001
0010
,
0100
0010
0000
0100
1000
0000
0001
0100
0010
0100
0000
0010
1000
0000
0001
0000
,
1000
0100
0000
0000
0100
0001
0000
0000
0001
0010
0000
0000
0010
1000
0000
0000
,
1000
0001
0000
0010
0001
0000
0010
0100
1000
0100
0020
0000
0032
0000
2003
0000
,
3001
0100
0000
0010
1000
0000
0010
1000
0001
1000
0000
0100
0010
0000
0001
0010
,
0100
0010
0000
0001
1000
0000
0001
1000
0100
1000
0000
0001
0010
0000
0001
0000
,
1000
0010
0000
0000
0010
0001
0000
0000
0001
0100
0000
0000
0100
1000
0000
0000
,
1001
0110
1001
0110
,
0001
0000
0001
0000
0001
0010
0100
1000
,
0001
0000
0001
0000
0001
0100
0010
0000
,
1000
0000
1000
0000
1000
0010
0100
0001
,
1000
0000
1000
0000
1000
0100
0100
0100
,
0010
0001
0000
0010
0100
1000
0100
0010
0001
1000
0000
0001
0100
0010
1000
0010
,
0100
0001
0000
1000
0100
0010
0001
1000
0001
0100
0000
0010
1000
0001
1000
0100
,
0010
0001
0000
0010
0100
1000
0001
1000
0010
0100
0000
0001
0100
0010
1000
0001
,
0010
1001
0110
1001
,
0001
0000
0010
0000
0100
0000
0010
0000
0001
0000
1000
0001
0010
0000
0M10
0000
,
1000
0000
0010
0000
0100
0000
0001
1000
0100
0000
01M0
0000
0101
0000
0001
0100
,
0010
0000
0M10
0000
0001
0000
0010
0000
0100
0000
1000
0001
0100
0000
01M0
0000
,
1000
1000
1000
1000
1000
0020
0230
0302
,
1003
0100
0000
1000
0010
0000
M010
0001
1000
0010
0000
1000
0100
0000
M100
0001
,
1000
0100
0000
1000
0010
0000
M010
0001
1000
0010
0000
1000
0100
0000
M100
0000
,
0001
0010
0000
0000
0010
1000
0000
0000
1000
0100
0000
0000
0100
0001
0000
0000
,
0001
0010
0000
0100
0010
0000
0M10
1000
0001
1000
0200
0000
0320
0000
0032
0000
,
0103
0010
0000
0100
1000
0000
1M00
0001
0010
0100
0000
0010
1000
0000
10M0
0001
,
0100
0010
0000
0100
1000
0000
1M00
0001
0010
0100
0000
0010
1000
0000
10M0
0000
,
0001
0100
0000
0000
0100
1000
0000
0000
1000
0010
0000
0000
0010
0001
0000
0000
,
1001
0000
0110
0000
1001
0000
0110
0001
,
1000
0001
0010
1000
0010
0020
0000
0031
,
1000
0000
0010
0000
0100
0000
1000
0000
0200
0000
0000
0000
0301
0100
0010
1000
,
0001
0010
0100
0010
1000
0010
0001
1000
,
0001
0000
0100
0000
1000
0000
0100
0000
0002
0000
0000
0000
1003
0100
0010
0001
,
2000
0000
3020
0000
,
0230
0000
0000
0000
0000
0000
0000
0000
0302
0000
0000
0000
0000
0000
0000
1003
,
0100
0010
0001
0010
1000
0010
0001
1000
,
0010
0001
0010
1000
0010
0000
2002
0000
,
3003
0000
0000
0000
;

//---------------dance-double - ----------------
#NOTES:
     dance-double:
     :
     Hard:
     15:
     0.722296,0.838318,0.140187,0.411215,0.607477,541.000000,526.000000,15.000000,44.000000,11.000000,0.000000,0.722296,0.838318,0.140187,0.411215,0.607477,541.000000,526.000000,15.000000,44.000000,11.000000,0.000000:
00000000
00000000
00000000
00000000
,
00000000
00000000
00000000
00000000
,
00000000
00000000
00000000
00000000
,
00000000
00000000
00000000
00000000
,
00000000
00000000
00000000
00000000
,
00001000
00100000
01000000
10000000
00010000
01000000
00001000
00001000
,
00010000
00000100
00000010
00000001
00001000
00000001
00001001
00000000
,
00001000
00000001
00000010
00000100
00001000
00000010
00010000
00010000
,
00001000
00001000
00001000
00001000
00001000
00200000
02300000
23000000
,
30010000
01000000
00000000
00001000
01000000
00000000
00001000
00000000
00010000
00000100
00000000
00001000
00000100
00000000
00000010
00000000
,
00000001
00001000
00000000
00000010
00001000
00000000
00000010
00000000
00010000
00001000
00000000
00100000
00001000
00000000
00100000
00000000
,
01000000
10000000
00000000
00000000
10000000
00010000
00000000
00000000
00010000
01000000
00000000
00000000
01000000
00001000
00000000
00000000
,
00001000
00010000
00000000
00000100
00001000
00000000
00000100
00000000
00000010
00000100
00000020
00000000
00000032
00000000
00002003
00000000
,
00003010
00010000
00000000
00001000
00010000
00000000
00001000
00000000
01000000
00100000
00000000
01000000
00010000
00000000
10000000
00000000
,
00010000
00100000
00000000
01000000
00100000
00000000
00001000
00000000
00010000
00000010
00000000
00001000
00000010
00000000
00000100
00000000
,
00000001
00001000
00000000
00000000
00001000
00000100
00000000
00000000
00000100
00010000
00000000
00000000
00010000
00001000
00000000
00000000
,
00001000
00100000
00000000
01000000
00100000
00000000
00010000
00000000
10000000
00100000
00000000
01000000
00010000
00000000
01000000
00000000
,
00001000
00010000
00001000
00000010
00000001
00000002
00000000
00001003
,
00000100
00000000
00000010
00000000
00001000
00000000
00010000
00000000
00002000
00000000
00000000
00000000
01003000
00010000
01000000
00000000
,
00100000
00010000
00100000
01000000
00100000
10000000
00010000
00200000
,
00000000
00000000
00302000
00000000
00000000
00000000
00000000
00000000
00013000
00000000
00000100
00000000
00000010
00000100
00000010
00000000
,
00000001
00001000
00000010
00000100
00001000
00000100
00000010
00001000
,
00010000
00000000
01000000
00000000
00100000
00000000
10000000
00000000
00020000
00000000
00000000
00000000
10030000
01000000
20000000
00000000
,
00000000
31000000
00010000
00001000
00000100
00001000
00010000
00001000
,
00000020
00000000
00000000
00000000
00000031
00000000
00001000
00000000
00000010
00000000
00010000
00000000
00001000
00010000
00001000
00000000
,
00010000
00000020
00000000
00010030
000100M0
00200000
00000000
00301000
,
00M01000
00000200
00000000
00010300
00010M00
01000000
00100000
00100000
,
10000000
01000000
00100000
00010000
01000000
00100000
00010000
00002000
,
00000000
00023000
00000000
00030100
00001000
00000020
00000000
00010030
,
000100M0
00200000
00000000
00301000
00M01000
00000200
00000000
00010300
,
00010M00
02000000
00000000
03001000
0M001000
00000100
00000010
00000010
,
00000001
00000100
00000010
00001000
00000100
00000020
00000000
00000000
,
00001030
00010000
01000000
10000000
00100000
02000000
03020000
20030000
,
31000000
00100000
00000000
00001000
00100000
00000000
00001000
00010000
00001000
00010000
00000000
00000010
00001000
00000000
00000001
00000010
,
00000001
00000010
00000000
00000100
00001000
00000000
00000100
00010000
00000100
00010000
00000000
00001000
00100000
00000000
00010000
00000000
,
10000000
00100000
00000000
00000000
00100000
00010000
00000000
00000000
00010000
00001000
00000000
00000000
00001000
00000100
00000000
00000000
,
00000100
00000001
00000000
00001000
00000001
00000000
00000010
00000100
00000010
00000100
00000020
00000000
00000032
00000000
00002003
00000000
,
00003010
00010000
00000000
00001000
00010000
00000000
00001000
00100000
00010000
00100000
00000000
01000000
00100000
00000000
00010000
10000000
,
00100000
10000000
00000000
00100000
01000000
00000000
00010000
01000000
00001000
01000000
00000000
00001000
00010000
00000000
00000010
00000000
,
00001000
00000001
00000000
00000000
00000001
00000010
00000000
00000000
00000010
00001000
00000000
00000000
00001000
00010000
00000000
00000000
,
00010100
01001000
00010010
00101000
,
00100000
00000000
00100000
00000000
00100000
00010000
10000000
00100000
,
00010000
00000000
00010000
00000000
00010000
00001000
00000100
00000000
,
00000010
00000000
00000010
00000000
00000010
00001000
00000001
00000010
,
00001000
00000000
00001000
00000000
00001000
00010000
01000000
00100000
,
00010000
10000000
00000000
00100000
01000000
00001000
00010000
00000000
00000100
00001000
00000000
00000100
00000010
00000001
00001000
00000000
,
00000010
00010000
00000000
00001000
01000000
00010000
01000000
00000000
00100000
10000000
00000000
00010000
00100000
00001000
00010000
00000000
,
00000100
00000010
00000000
00000001
00001000
00000010
00000100
00000000
00001000
00010000
00000000
00100000
10000000
00010000
00100000
00000000
,
00101000
00010010
01001000
00010100
,
00000100
00000000
00000010
00000000
00000001
00000000
00000100
00000000
00001000
00000000
00010000
00001000
00100000
00000000
0010M000
00000000
,
10000000
00000000
00010000
00000000
00100000
00000000
01000000
00010000
00001000
00000000
000M1000
00000000
00001001
00000000
00000001
00000100
,
00000010
00000000
00000M10
00000000
00000001
00000000
00001000
00000000
00000100
00000000
00010000
00001000
01000000
00000000
0100M000
00000000
,
10000000
10000000
10000000
10000000
10000000
02000000
03200000
00302000
,
00013000
00000010
00000000
00000100
00000001
00000000
00001000
00000100
00010000
00001000
00000000
00100000
00010000
00000000
00100000
01000000
,
10000000
00010000
00000000
00100000
00001000
00000000
00010000
00000010
00001000
00000010
00000000
00000100
00000001
00000000
00001000
00000000
,
00000100
00010000
00000000
00000000
00010000
01000000
00000000
00000000
00010000
00001000
00000000
00000000
00001000
00000100
00000000
00000000
,
00000001
00001000
00000000
00000010
00010000
00000000
00001000
00010000
01000000
00100000
00020000
00000000
20030000
00000000
30200000
00000000
,
01300000
00001000
00000000
00010000
00000010
00000000
00000100
00000001
00001000
00000010
00000000
00010000
00001000
00000000
00100000
00010000
,
10000000
01000000
00000000
00100000
00010000
00000000
01000000
00001000
00010000
00000010
00000000
00001000
00000001
00000000
00000010
00000000
,
00001000
00010000
00000000
00000000
00010000
00100000
00000000
00000000
00010000
00001000
00000000
00000000
00001000
00000010
00000000
00000000
,
00001001
00000000
00000110
00000000
00001001
00000000
00000110
00000001
,
00001000
00000100
00000001
00000100
00001000
00002000
00000000
00003100
,
00010000
00000000
01000000
00000000
00100000
00000000
00001000
00000000
00200000
00000000
00000000
00000000
00310000
10000000
00100000
01000000
,
00010000
10000000
01000000
00100000
01000000
00010000
01000000
00001000
,
00010000
00000000
00001000
00000000
00000100
00000000
00000010
00000000
00000002
00000000
00000000
00000000
00001003
00000010
00000100
00000001
,
00002000
00000000
02003000
00000000
,
03020000
00000000
00000000
00000000
00000000
00000000
00000000
00000000
00030020
00000000
00000000
00000000
00000000
00000000
00000000
00001030
,
00000001
00000100
00001000
00010000
00100000
10000000
01000000
00100000
,
00001000
00000010
00000100
00010000
00001000
00000000
00022000
00000000
,
00033000
00000000
00000000
00000000
;

//---------------dance-single - ----------------
#NOTES:
     dance-single:
     :
     Medium:
     12:
     0.600801,0.709346,0.205607,0.233645,0.177570,450.000000,428.000000,22.000000,25.000000,0.000000,0.000000,0.600801,0.709346,0.205607,0.233645,0.177570,450.000000,428.000000,22.000000,25.000000,0.000000,0.000000:
0000
0000
0000
0000
,
0000
0000
0000
0000
,
0000
0000
0000
0000
,
0000
0000
0000
0000
,
0000
0000
0000
0000
,
1000
0000
0010
0000
0100
0001
1000
1000
,
0100
0000
0010
0000
0001
1000
1001
0000
,
0001
0000
0100
0000
0010
1000
0001
0001
,
0010
0100
0010
0100
0010
0001
1000
0100
,
0010
0001
1000
0000
0001
1000
0010
0000
,
1000
0010
0100
0000
0010
0100
0001
0000
,
0101
1100
0101
1100
,
1000
0100
0010
0000
0100
0010
0001
1000
,
0010
0100
0001
0000
0100
0010
1000
0000
,
0001
0010
0100
0000
1000
0100
0010
0000
,
0011
1010
0011
1010
,
1000
0001
0010
0000
0100
1000
0001
0000
,
0100
0010
1000
0010
0100
0002
0000
1003
,
0100
0010
0001
1000
0020
0000
0130
0001
,
1000
0100
0010
0100
0001
0100
0010
0001
,
0000
2000
0000
0000
3010
0100
0001
1000
,
0001
0010
0100
1000
0010
0100
0001
0100
,
0010
1000
0001
1000
0200
0000
0310
0002
,
0000
1003
0001
0100
0010
0100
1000
0100
,
0020
0000
1030
0001
0010
0200
0000
0310
,
0001
0200
0000
0310
1000
0200
0000
0310
,
0001
0200
0000
0310
1000
0100
0010
0100
,
1000
0010
0100
0010
0001
0010
0100
0010
,
0000
2000
0000
0000
3001
0020
0000
0130
,
1000
0020
0000
0130
0001
0020
0000
0130
,
1000
0020
0000
0130
0001
0010
0100
0010
,
0001
0100
0010
0100
1000
0200
0000
0000
,
0301
1000
0100
0010
0001
1000
0010
0100
,
0001
1000
0100
1000
0001
1000
0100
0010
,
0001
1000
0010
1000
0001
1000
0010
0100
,
0001
1000
0000
0000
0001
1000
0000
0000
0001
1000
0000
0000
0001
1000
0000
0000
,
0001
0010
0100
0010
0001
1000
0100
1000
,
0001
0100
0010
0100
0001
0100
0010
1000
,
0001
0010
0100
0010
0001
0010
0100
0010
,
0001
1000
0000
0000
0001
1000
0000
0000
0001
1000
0000
0000
0001
1000
0000
0000
,
1001
0110
1001
0110
,
0001
0001
0001
0001
,
1000
1000
1000
1000
,
0100
0100
0100
0100
,
0010
0000
0010
0000
0010
0001
1000
0001
,
1000
0100
0000
1000
0100
0000
0010
0000
0001
1000
0000
0001
1000
0000
0010
0000
,
0100
0001
0000
0100
0001
0000
1000
0000
0001
0010
0000
0001
0010
0000
0100
0000
,
1000
0001
0000
1000
0001
0000
1000
0000
0010
0100
0000
0010
0100
0000
0001
0000
,
1001
0110
1001
0110
,
1000
0000
0001
0000
0010
0100
1000
1000
,
0001
0000
0100
0000
0010
0010
1000
0001
,
0010
0010
0100
0000
1000
0000
0001
0001
,
0100
0010
0100
0010
0100
0001
1000
0100
,
0010
0000
0001
0000
1000
0000
0001
0000
1000
0010
0000
1000
0010
0000
0100
0000
,
0001
0000
1000
0000
0100
0000
1000
0000
0001
0010
0000
0001
0010
0000
0001
0000
,
1000
0010
0000
0000
1000
0010
0000
0000
0100
0001
0000
0000
0100
0001
0000
0000
,
1000
0100
0000
1000
0100
0000
0010
0000
0001
0000
1000
0000
0010
0000
0100
0000
,
0001
0000
1000
0000
0010
0000
0100
0000
0001
1000
0000
0001
1000
0000
0100
0000
,
0010
0000
0001
0000
1000
0000
0001
0000
0100
0010
0000
0100
0010
0000
1000
0000
,
0001
0010
0000
0000
0001
0010
0000
0000
0100
1000
0000
0000
0100
1000
0000
0000
,
0110
0000
1001
0000
0110
0000
1001
0001
,
0100
0010
1000
0001
1000
0200
0000
0310
,
0001
0010
0100
1000
0002
0000
0103
0001
,
1000
0100
0010
0100
0001
0100
0010
0100
,
1000
0010
0001
0010
2000
0000
3001
0010
,
0200
0000
0320
0000
,
0032
0000
2003
0000
,
3010
0100
0001
0010
0100
1000
0010
0100
,
0010
0001
0010
1000
0010
0000
2002
0000
,
3003
0000
0000
0000
;

//---------------dance-double - ----------------
#NOTES:
     dance-double:
     :
     Medium:
     12:
     0.599466,0.709346,0.205607,0.233645,0.177570,449.000000,427.000000,22.000000,25.000000,0.000000,0.000000,0.599466,0.709346,0.205607,0.233645,0.177570,449.000000,427.000000,22.000000,25.000000,0.000000,0.000000:
00000000
00000000
00000000
00000000
,
00000000
00000000
00000000
00000000
,
00000000
00000000
00000000
00000000
,
00000000
00000000
00000000
00000000
,
00000000
00000000
00000000
00000000
,
00010000
00000000
00000100
00000000
00000010
00000001
00001000
00000010
,
00000100
00000000
00000010
00000000
00010000
00001000
00011000
00000000
,
00010000
00000000
00001000
00000000
00100000
01000000
10000000
00010000
,
01000000
00100000
01000000
00100000
01000000
00010000
10000000
01000000
,
00100000
00001000
00010000
00000000
00001000
00010000
00000100
00000000
,
00010000
00000100
00000010
00000000
00000100
00000010
00000001
00000000
,
00000101
00000110
00010010
00011000
,
00001000
01000000
00010000
00000000
01000000
00010000
10000000
01000000
,
00100000
00010000
10000000
00000000
00010000
10000000
01000000
00000000
,
10000000
01000000
00100000
00000000
01000000
00100000
00001000
00000000
,
00011000
00010100
00000110
00000011
,
00000001
00000010
00000100
00000000
00001000
00000010
00000100
00000000
,
00000001
00001000
00000010
00010000
00000010
00002000
00000000
00003010
,
00010000
00001000
00100000
00010000
20000000
00000000
30100000
01000000
,
00010000
00100000
01000000
00100000
10000000
00100000
01000000
00100000
,
00000000
00002000
00000000
00000000
00013000
00000010
00000100
00000001
,
00001000
00000001
00000010
00000100
00001000
00000010
00010000
00000010
,
00001000
00000100
00010000
00001000
00200000
00000000
00310000
20000000
,
00000000
30010000
10000000
01000000
00100000
01000000
00010000
01000000
,
00200000
00000000
00301000
00010000
00000010
00000200
00000000
00000310
,
00001000
00000200
00000000
00000310
00000001
00000200
00000000
00001300
,
00010000
00200000
00000000
01300000
00010000
00100000
01000000
00100000
,
00010000
01000000
00100000
01000000
10000000
01000000
00100000
01000000
,
00000000
00002000
00000000
00013000
00000100
00000020
00000000
00000130
,
00001000
00000020
00000000
00000130
00000001
00000020
00000000
00001030
,
00010000
02000000
00000000
03100000
00010000
01000000
00100000
01000000
,
00010000
00100000
01000000
00100000
10000000
00200000
00000000
00000000
,
00301000
00010000
00001000
00000100
00000010
00001000
00000001
00001000
,
00000100
00000010
00000001
00000010
00000100
00010000
00001000
01000000
,
00010000
00100000
01000000
00100000
00010000
10000000
00100000
01000000
,
00001000
00010000
00000000
00000000
00001000
00010000
00000000
00000000
00001000
00010000
00000000
00000000
00001000
00010000
00000000
00000000
,
00000100
00000010
00000001
00001000
00000010
00010000
00001000
00000100
,
00000010
00010000
00001000
00010000
00000010
00010000
00001000
00100000
,
01000000
00100000
00010000
00100000
01000000
00100000
00010000
10000000
,
00100000
01000000
00000000
00000000
00100000
01000000
00000000
00000000
00100000
01000000
00000000
00000000
00100000
01000000
00000000
00000000
,
10010000
01100000
10010000
01100000
,
10000000
10000000
10000000
10000000
,
00010000
00010000
00010000
00010000
,
00100000
00100000
00100000
00100000
,
00001000
00001000
00001000
00001000
,
00010000
00000010
00000000
00010000
00000010
00000000
00000100
00000000
00000001
00001000
00000000
00000001
00001000
00000000
00000100
00000000
,
00000010
00000001
00000000
00000010
00000001
00000000
00001000
00000000
00000010
00010000
00000000
00000010
00010000
00000000
00001000
00000000
,
00100000
00010000
00000000
00100000
00010000
00000000
10000000
00000000
00010000
01000000
00000000
00010000
01000000
00000000
00100000
00000000
,
01100000
10010000
01100000
10010000
,
00010000
00000000
00100000
00000000
01000000
10000000
00010000
00010000
,
01000000
00000000
00001000
00000000
00010000
00010000
00000100
00001000
,
00000100
00000100
00000010
00000000
00000001
00000000
00001000
00001000
,
00000010
00010000
00000010
00010000
00000010
00001000
00000100
00010000
,
00001000
00000000
00100000
00000000
00010000
00000000
00100000
00000000
01000000
00100000
00000000
01000000
00100000
00000000
00010000
00000000
,
10000000
00000000
00100000
00000000
01000000
00000000
00001000
00000000
00010000
00000100
00000000
00010000
00000100
00000000
00001000
00000000
,
00000100
00000010
00000000
00000000
00000100
00000010
00000000
00000000
00000001
00001000
00000000
00000000
00000001
00001000
00000000
00000000
,
00000001
00000100
00000000
00000001
00000100
00000000
00000010
00000000
00001000
00000000
00000010
00000000
00010000
00000000
00001000
00000000
,
00100000
00000000
00010000
00000000
00100000
00000000
01000000
00000000
10000000
00010000
00000000
10000000
00010000
00000000
00100000
00000000
,
00001000
00000000
00010000
00000000
00000010
00000000
00001000
00000000
00000010
00000100
00000000
00000010
00000100
00000000
00000001
00000000
,
00001000
00000100
00000000
00000000
00001000
00000100
00000000
00000000
00010000
00001000
00000000
00000000
00010000
00001000
00000000
00000000
,
00101000
00000000
00110000
00000000
01100000
00000000
10010000
00010000
,
10000000
01000000
00100000
00010000
01000000
00020000
00000000
00130000
,
00001000
00010000
00000010
00000100
00000020
00000000
00000130
00000001
,
00001000
00000100
00000010
00000100
00000001
00000100
00000010
00000100
,
00001000
00000100
00010000
00001000
02000000
00000000
03010000
10000000
,
02000000
00000000
03200000
00000000
,
00302000
00000000
00023000
00000000
,
00030010
00001000
00000010
00000100
00000001
00001000
00000100
00000010
,
00001000
00010000
01000000
00010000
00001000
00000000
00022000
00000000
,
00033000
00000000
00000000
00000000
;

//---------------dance-single - ----------------
#NOTES:
     dance-single:
     :
     Easy:
     9:
     0.383178,0.419159,0.056075,0.130841,0.000000,287.000000,281.000000,6.000000,14.000000,0.000000,0.000000,0.383178,0.419159,0.056075,0.130841,0.000000,287.000000,281.000000,6.000000,14.000000,0.000000,0.000000:
0000
0000
0000
0000
,
0000
0000
0000
0000
,
0000
0000
0000
0000
,
0000
0000
0000
0000
,
0000
0000
0000
0000
,
0001
0000
1000
0000
,
0010
0000
0100
0110
,
0010
0000
1000
0000
,
0001
0001
0001
0010
,
0100
0010
0001
0001
,
0100
0010
1000
1000
,
0001
0001
1000
1000
,
0100
0000
0010
0000
0001
1000
0001
0000
,
0100
0010
1000
1000
,
0100
0010
0001
0001
,
1000
1000
0001
0001
,
0010
0000
0100
0000
1000
0001
1000
0000
,
0001
0000
0100
0000
0010
2000
0000
0000
,
3001
0000
0010
0000
0100
0000
1000
0001
,
1000
0000
0001
0000
0100
0000
0010
0100
,
0000
0020
0000
0000
1030
0000
0001
1000
,
0001
0010
0100
0010
,
0001
0000
1000
0000
0010
0000
0000
0200
,
0000
0000
0301
0000
1000
0000
0001
1000
,
0002
0000
0000
0000
0003
1000
0000
0100
,
0010
0100
0000
0010
0100
0010
0000
0001
,
1000
0001
0000
1000
0001
1000
0001
0000
,
0100
0000
0010
0000
1000
0001
1000
0000
,
0000
0002
0000
0000
0003
2000
0000
3010
,
0100
0010
0000
0100
0010
0100
0000
0001
,
1000
0001
0000
1000
0001
1000
0001
0000
,
0010
0000
0100
0000
1000
0002
0000
0000
,
0013
0000
0001
1000
0001
0000
1000
0000
,
0001
0000
0100
0000
0010
0100
0010
0000
,
1000
0000
0100
0000
0010
0100
0010
0000
,
0001
0001
1000
1000
,
0001
1000
0001
0000
1000
0001
1000
0000
,
0001
0000
0010
0000
0100
0010
0100
0000
,
1000
0000
0010
0000
0100
0010
0100
0000
,
0001
0001
1000
1000
,
0001
0001
0001
1001
,
1000
1000
1000
0000
,
0001
0001
0001
0000
,
0010
0010
0010
0000
,
0100
0100
0100
0000
,
1000
0100
1000
0000
0001
0100
0001
0000
,
1000
0010
1000
0000
0001
0010
0001
0000
,
1000
0100
1000
0000
0001
0100
0001
0000
,
1000
1000
1000
1001
,
0001
0000
0001
0000
0100
0010
0100
0000
,
0010
0000
0010
0000
1000
0001
0000
0001
,
1000
0000
1000
0000
0100
0010
0100
0000
,
1000
1000
1000
1001
,
0001
0000
0100
0000
0010
0100
0010
0000
,
1000
0000
0100
0000
0010
0100
0010
0000
,
0001
0001
1000
1000
,
0100
0010
0100
0000
1000
0001
1000
0000
,
0001
0000
0010
0000
0100
0010
0100
0000
,
1000
0000
0010
0000
0100
0010
0100
0000
,
0001
0001
1000
1000
,
0001
0001
0001
1001
,
1000
0000
0100
0000
0010
0200
0000
0000
,
1300
0000
0001
0000
0100
0000
0010
0100
,
0010
1000
0001
0010
,
0100
1000
0100
0000
1000
0000
0001
1000
,
0002
0000
0203
0000
,
0320
0000
2030
0000
,
3001
0010
0100
1000
,
0001
1000
0001
1000
0001
0000
2002
0000
,
3003
0000
0000
0000
;

//---------------dance-double - ----------------
#NOTES:
     dance-double:
     :
     Easy:
     9:
     0.377837,0.419159,0.056075,0.140187,0.000000,283.000000,277.000000,6.000000,15.000000,0.000000,0.000000,0.377837,0.419159,0.056075,0.140187,0.000000,283.000000,277.000000,6.000000,15.000000,0.000000,0.000000:
00000000
00000000
00000000
00000000
,
00000000
00000000
00000000
00000000
,
00000000
00000000
00000000
00000000
,
00000000
00000000
00000000
00000000
,
00000000
00000000
00000000
00000000
,
10000000
00000000
00010000
00000000
,
00100000
00000000
00001000
00011000
,
00010000
00000000
00000010
00000000
,
00001000
00001000
00001000
00000001
,
00000010
00000100
00010000
00010000
,
00001000
01000000
00001000
00001000
,
00100000
00100000
01000000
01000000
,
10000000
00000000
00010000
00000000
10000000
00010000
10000000
00000000
,
00100000
01000000
00001000
00001000
,
00010000
00000100
00010000
00010000
,
00000010
00000010
00000100
00000100
,
00000001
00000000
00001000
00000000
00000001
00001000
00000001
00000000
,
00000010
00000000
00000100
00000000
00010000
00000200
00000000
00000000
,
00010300
00000000
00001000
00000000
01000000
00000000
00010000
10000000
,
00010000
00000000
10000000
00000000
01000000
00000000
00100000
00010000
,
00000000
00200000
00000000
00000000
00301000
00000000
00010000
00001000
,
00010000
00000010
00000100
00000001
,
00001000
00000000
00000100
00000000
00010000
00000000
00000000
00002000
,
00000000
00000000
01003000
00000000
00010000
00000000
01000000
00100000
,
02000000
00000000
00000000
00000000
00000000
03020000
00000000
01030000
,
00100000
01000000
00000000
00100000
01000000
00100000
00000000
10000000
,
00010000
10000000
00000000
00010000
10000000
00010000
10000000
00000000
,
00010000
00000000
00100000
00000000
00001000
00000000
00010000
00000010
,
00000000
00002000
00000000
00000000
00000000
00003002
00000000
00000013
,
00000100
00000010
00000000
00000100
00000010
00000100
00000000
00001000
,
00000001
00001000
00000000
00000001
00001000
00000001
00001000
00000000
,
00000100
00000010
00000200
00000000
,
00010300
00001000
01000000
00100000
,
10000000
00000000
01000000
00000000
00100000
01000000
00100000
00000000
,
00001000
00000000
00010000
00000000
00001000
00010000
00001000
00000000
,
00010000
00010000
00000010
00000010
,
00001000
00000001
00001000
00000000
00000001
00001000
00000001
00000000
,
00001000
00000000
00000100
00000000
00000010
00000100
00000010
00000000
,
00000001
00000000
00001000
00000000
00000010
00000100
00000010
00000000
,
00010000
00010000
00001000
00001000
,
00100000
00100000
00100000
01100000
,
10000000
10000000
10000000
00000000
,
00010000
00010000
00010000
00000000
,
01000000
01000000
01000000
00000000
,
00001000
00001000
00001000
00000000
,
00010000
00001000
00010000
00000000
00000100
00001000
00000100
00000000
,
00000010
00000001
00000010
00000000
00000001
00001000
00000001
00000000
,
00001000
00000010
00001000
00000000
00000010
00010000
00000010
00000000
,
00010000
00010000
00010000
00011000
,
00001000
00000000
00000000
00000000
00100000
01000000
00100000
00000000
,
00010000
00000000
00000000
00000000
10000000
00010000
10000000
00000000
,
00010000
00100000
00010000
00000000
00100000
00000000
00001000
00010000
,
00001000
00001000
00001000
00011000
,
00010000
00000000
00000010
00000000
00000100
00000010
00000100
00000000
,
00000001
00000000
00001000
00000000
00000100
00001000
00000100
00000000
,
00010000
00010000
00001000
00001000
,
00100000
01000000
00100000
00000000
00010000
10000000
00010000
00000000
,
01000000
00000000
00001000
00000000
00010000
00001000
00010000
00000000
,
00000010
00000000
00000100
00000000
00000010
00000100
00000010
00000000
,
00001000
00001000
00000001
00000001
,
00000010
00000010
00000010
00000110
,
00000001
00000000
00001000
00000000
00000010
00020000
00000000
00000000
,
00031000
00000000
00100000
00000000
01000000
00000000
10000000
00010000
,
10000000
00010000
01000000
00001000
,
00010000
00000000
00000010
00000000
00000100
00000000
00000001
00001000
,
00000002
00000000
00000203
00000000
,
00000320
00000000
00020030
00000000
,
00031000
00100000
01000000
00100000
,
00001000
00010000
00001000
00010000
00001000
00000000
00022000
00000000
,
00033000
00000000
00000000
00000000
;

//---------------dance-single - ----------------
#NOTES:
     dance-single:
     :
     Beginner:
     5:
     0.214953,0.289136,0.046729,0.056075,0.000000,161.000000,156.000000,5.000000,6.000000,0.000000,0.000000,0.214953,0.289136,0.046729,0.056075,0.000000,161.000000,156.000000,5.000000,6.000000,0.000000,0.000000:
// measure 0
0000
0000
0000
0000
,  // measure 1
0000
0000
0000
0000
,  // measure 2
0000
0000
0000
0000
,  // measure 3
0000
0000
0000
0000
,  // measure 4
0000
0000
0000
0000
,  // measure 5
1000
0000
0000
0000
,  // measure 6
0001
0000
0000
0000
,  // measure 7
0100
0000
0000
0000
,  // measure 8
0010
0000
0010
0000
,  // measure 9
1000
0000
0001
0000
,  // measure 10
1000
0000
0001
0000
,  // measure 11
0010
0000
0010
0000
,  // measure 12
0100
0000
1000
0001
,  // measure 13
1000
0000
0001
0000
,  // measure 14
0100
0000
0010
0000
,  // measure 15
1000
0000
1000
0000
,  // measure 16
0001
0000
0010
0100
,  // measure 17
0010
0000
0001
0000
,  // measure 18
1000
0001
1000
0000
,  // measure 19
0010
0000
0100
0010
,  // measure 20
0100
0000
0001
1000
,  // measure 21
0001
0000
0010
0000
,  // measure 22
0100
0010
0100
0000
,  // measure 23
1000
0000
0001
1000
,  // measure 24
0001
0000
1000
0000
,  // measure 25
1001
0000
0001
0000
,  // measure 26
1001
0000
1000
0000
,  // measure 27
0001
0000
0010
0000
,  // measure 28
0200
0000
0300
0000
,  // measure 29
1001
0000
1000
0000
,  // measure 30
1001
0000
0001
0000
,  // measure 31
0100
0000
0010
0000
,  // measure 32
2000
0000
3000
0000
,  // measure 33
0001
0000
1000
0000
,  // measure 34
0010
0000
0100
0000
,  // measure 35
0001
1000
0001
0000
,  // measure 36
1000
0001
1000
0000
,  // measure 37
0001
0000
1000
0000
,  // measure 38
0100
0000
0010
0000
,  // measure 39
0001
1000
0001
0000
,  // measure 40
1000
0000
1000
0000
,  // measure 41
0001
0000
0001
1000
,  // measure 42
0001
0000
0001
0000
,  // measure 43
1000
0000
1000
0001
,  // measure 44
1000
0000
1000
0000
,  // measure 45
0001
1000
0001
0000
,  // measure 46
0100
0010
0100
0000
,  // measure 47
0001
1000
0001
1000
,  // measure 48
0100
0100
0100
0100
,  // measure 49
0010
0000
0001
1000
,  // measure 50
0001
0000
0100
0010
,  // measure 51
0100
0000
0001
1000
,  // measure 52
0001
0001
0001
0001
,  // measure 53
1000
0000
0001
0000
,  // measure 54
0100
0000
0010
0000
,  // measure 55
1000
0001
1000
0001
,  // measure 56
1000
0000
0001
0000
,  // measure 57
0010
0000
0100
0000
,  // measure 58
1000
0000
0001
0000
,  // measure 59
0100
0010
0100
0010
,  // measure 60
0100
0000
0001
0000
,  // measure 61
1000
0000
0100
0000
,  // measure 62
0010
0100
0010
0000
,  // measure 63
0001
0000
1000
0000
,  // measure 64
0010
0100
0010
0000
,  // measure 65
0200
0000
0302
0000
,  // measure 66
2003
0000
3200
0000
,  // measure 67
0310
0001
0010
0001
,  // measure 68
1000
0001
1000
1001
;
