#VERSION:0.83;
#TITLE:Jelly;
#SUBTITLE:;
#ARTIST:Hyper Potions & MYLK;
#TITLETRANSLIT:;
#SUBTITLETRANSLIT:;
#ARTISTTRANSLIT:;
#GENRE:;
#CREDIT:;
#MUSIC:Jelly.ogg;
#BANNER:Jelly-bn.png;
#BACKGROUND:Jelly-bg.png;
#CDTITLE:;
#SAMPLESTART:43.198;
#SAMPLELENGTH:15.000;
#SELECTABLE:YES;
#OFFSET:2.402;
#BPMS:0.000=100.000;
#STOPS:;
#BGCHANGES:;
#FGCHANGES:;

//--------------- dance-single - ----------------
#NOTEDATA:;
#STEPSTYPE:dance-single;
#DESCRIPTION:;
#DIFFICULTY:Medium;
#METER:7;
#RADARVALUES:0,0,0,0,0;
#CREDIT:Talkion;
#NOTES:
0000
0000
0000
0000
,
0000
0000
0000
0000
,
0000
0000
0000
0000
0000
0000
0010
0010
,
1000
0001
0010
0100
1000
1000
0001
0000
,
1000
0010
0100
0000
0001
0010
0100
0002
,
0203
0000
0000
2300
0000
0000
3000
0000
0001
0000
0001
0000
0100
0000
2000
0000
,
3200
0000
0000
0302
0000
0000
0003
0000
1000
0000
1000
0000
0100
0000
0000
0000
,
0000
0010
0010
0001
0100
0010
0000
0010
,
0010
1000
0001
1000
0100
0010
0000
1001
,
0000
0100
0100
0000
0001
1000
0100
0010
,
0001
0000
1000
0001
0000
1000
0001
0000
0200
0000
0000
0000
0320
0000
0030
0000
,
2002
3003
1000
0200
0302
2003
3020
0032
,
1003
0000
0000
0000
0001
0000
0200
0000
2300
0000
3002
0000
0023
0000
0000
1030
,
0000
1001
0000
0001
0020
2030
3002
0203
,
1300
0010
0020
0000
0230
0000
0320
0030
,
2002
3003
0001
0010
1000
0100
2000
0000
,
3010
0001
1000
0010
0100
0100
0001
0000
,
1000
0000
1000
0200
0302
2003
3020
0032
,
1003
0000
0010
0100
0000
0010
0100
0000
0010
0000
1000
0000
1001
0000
0000
0000
,
0002
0023
1030
0001
2000
3020
0031
1000
,
0020
0100
0030
0000
0100
0000
0100
0000
0100
0000
0001
0000
0020
0100
0030
0000
,
2000
3020
0031
1000
0002
0023
1030
0001
,
0020
0100
0030
0000
0100
0000
0100
0000
0100
0000
1000
0000
0020
0100
0030
0000
,
2002
3003
0001
0100
1000
0010
2000
0000
,
3100
0001
1000
0100
0010
0010
0001
0000
,
1000
0000
1000
0020
0032
2003
3200
0302
,
1003
0000
0000
1000
0000
0000
0001
0000
0000
0001
0000
0000
1001
0000
0000
0000
,
1000
0010
0001
0000
1000
0100
0001
0000
,
0020
0030
0010
0010
0010
0100
0020
0030
,
0001
0010
1000
0000
0001
0100
1000
0000
,
0010
0000
0000
0010
0000
0000
0100
0000
0200
0000
0000
0000
0320
0000
0030
0000
,
2002
3003
0000
0000
0000
0000
0000
0000
;

//--------------- dance-single - ----------------
#NOTEDATA:;
#STEPSTYPE:dance-single;
#DESCRIPTION:;
#DIFFICULTY:Hard;
#METER:11;
#RADARVALUES:0,0,0,0,0;
#CREDIT:Talkion;
#NOTES:
0000
0000
0000
0000
,
0000
0000
0000
0000
,
0000
0000
0000
0000
0000
0000
0010
0010
,
2001
0000
3100
0000
0010
0000
0001
1000
0100
1000
0010
0000
0010
0000
0000
0000
,
1000
0010
0100
0000
0100
0000
0001
0000
1000
0100
0010
0000
0010
0000
2000
0000
,
3020
0000
0001
0032
0000
0000
1003
0000
0001
0100
0010
0000
0010
0000
0002
0000
,
0023
0000
1000
2030
0000
0000
3001
0010
0100
0000
1000
0000
1001
0000
0000
0000
,
0001
0000
1000
0010
1000
0000
0001
0010
0200
0000
0001
0000
0300
0000
0010
0100
,
1000
0000
0001
0010
0001
0000
1000
0000
0020
0000
0001
0000
0030
0000
0100
0000
,
0001
0000
1000
0100
0010
0000
0100
0000
0001
0000
0100
0010
0001
0000
1000
0000
,
0001
0100
0001
1000
0100
1000
0001
0000
0020
0000
0000
0000
0130
0000
0000
0000
,
2100
0001
3000
0000
0100
0000
2000
0000
3200
0000
0302
0000
1003
0000
0100
0010
,
0001
0000
0000
0001
0000
0010
2000
0000
3020
0000
0032
0000
1003
0000
0010
0100
,
0001
0000
0201
0000
0000
0000
2300
0000
3200
0000
0302
0000
1003
0000
0100
0010
,
0001
1000
0020
0130
0002
0013
0200
1300
,
2001
0010
3000
0000
0010
0000
0100
0100
2000
0000
3002
0000
0023
0000
0000
0000
,
1030
0000
0001
0010
0100
0010
0001
0000
0110
0000
1000
0010
0100
0010
1000
0000
,
0001
0000
0000
0001
0010
0000
2000
0000
3020
0000
0032
0000
1003
0000
0010
0100
,
0001
1000
0001
1000
0100
0010
0100
0010
0002
0000
0000
0000
1003
1000
0010
0000
,
1000
0010
0100
0010
0001
0000
1000
0000
0001
0010
0100
0010
1000
0000
0001
0000
,
1002
0010
0003
0000
0011
0000
1010
0000
0011
0000
1010
0000
1002
0010
0003
0000
,
0001
0010
0100
0010
1000
0000
0001
0000
1000
0010
0100
0010
0001
0000
1000
0000
,
2001
0010
3000
0000
1010
0000
0011
0000
1010
0000
0011
0000
2001
0010
3000
0000
,
0200
0000
0000
0000
0301
0000
0010
0010
2000
0000
3002
0000
0203
0000
0000
0000
,
1300
0000
0001
0100
0010
0100
0001
0000
0110
0000
1000
0100
0010
0100
1000
0000
,
0001
0000
0000
0001
0100
0000
2000
0000
3200
0000
0302
0000
1003
0000
0100
0010
,
0001
0000
1000
0010
0100
0000
0001
0010
0200
0000
1300
0000
1001
0000
0000
0000
,
0001
0100
0010
0000
0002
0000
0013
0000
1000
0100
0010
0000
2000
0000
3010
0000
,
0002
1000
0003
0000
0100
0000
0100
0000
0100
0000
1001
0000
0020
0100
0030
0000
,
0001
0010
0100
0000
0002
0000
0103
0000
1000
0010
0100
0000
2000
0000
3100
0000
,
0001
0000
0000
0001
0000
0000
1000
0000
0200
0000
0000
0000
0320
0000
0030
0000
,
1002
0100
0003
0000
0000
0000
0000
0000
0000
0000
0000
0000
0000
0000
0000
0000
;

//--------------- dance-single - ----------------
#NOTEDATA:;
#STEPSTYPE:dance-single;
#DESCRIPTION:;
#DIFFICULTY:Challenge;
#METER:13;
#RADARVALUES:0,0,0,0,0;
#CREDIT:Talkion;
#NOTES:
0000
0000
0000
0000
,
0000
0000
0000
0000
,
0000
0000
0000
0000
0000
0000
0010
0010
,
1001
0000
1000
0100
0010
0000
0001
0100
0010
0100
0001
0000
1200
0000
0310
0000
,
0001
0100
0010
0000
1010
0000
0011
0000
1000
0100
0010
0000
0120
0000
2030
0000
,
3020
0000
0001
0032
0000
0000
1003
0000
0001
0100
0010
0000
0120
0000
0032
0000
,
0023
0000
1000
2030
0000
0000
3001
0010
0100
1000
0001
0000
1001
0000
0000
0000
,
0110
0000
1000
0010
1000
0000
0001
0020
0100
0000
1030
0000
0000
0000
0010
0100
,
1000
0000
0010
0200
0001
0000
0001
0000
0010
0000
1300
0000
0000
0000
0110
0000
,
1000
0000
0001
0010
0001
0000
1000
0000
0010
0000
0001
0010
0100
0000
0001
0000
,
1000
0000
0100
0000
1000
0000
0100
0000
0010
0000
0001
0000
0010
0000
0001
0000
1000
0100
1000
0000
0001
0010
0001
0000
2000
0000
0000
0000
3000
0000
0000
0000
,
0201
0010
0300
0000
0010
0000
0002
0000
0023
0000
2030
0000
3100
0000
0010
0010
,
0001
0000
1000
0001
0010
0100
0002
0000
0203
0000
2300
0000
3010
0000
0100
0010
,
1000
0000
1001
0000
0001
0010
2000
0000
3020
0000
0032
0000
0103
0000
0010
0010
,
1000
0000
0001
0010
0001
0000
1000
0010
1000
0000
0001
0000
0020
0000
0030
0000
,
1200
0010
0300
0010
0100
0000
0001
0001
2000
0000
3020
0000
0032
0000
1000
0000
,
0103
0000
0001
0100
0010
1000
0100
0010
0001
0000
1000
0010
0100
0010
1000
0000
,
1001
0000
0001
0010
0100
0000
0002
0000
0203
0000
2300
0000
3010
0000
0100
0100
,
0001
0000
1000
0000
0100
0000
1000
0000
0001
0000
0010
0000
0100
0000
1000
0000
0001
0010
0001
0000
1000
0100
1000
0000
0001
0000
0001
0000
0010
0000
0000
0000
,
1000
0010
0001
0100
0010
0000
0110
0000
0001
0010
1000
0100
0010
0000
0110
0000
,
0021
0100
0030
0000
101M
0000
M011
0000
101M
0000
M011
0000
102M
0100
0030
0000
,
1000
0100
0001
0010
0100
0000
0110
0000
0001
0100
1000
0010
0100
0000
0110
0000
,
0201
0010
0300
0000
110M
0000
M101
0000
110M
0000
M101
0000
120M
0010
0300
0000
,
0201
0000
0000
0000
0310
0000
0001
0001
2000
0000
3200
0000
0302
0000
1000
0000
,
0013
0000
0001
0010
0100
1000
0010
0100
0001
0000
1000
0100
0010
0100
1000
0000
,
1001
0000
0001
0100
0010
0000
0002
0000
0023
0000
2030
0000
3100
0000
0010
0010
,
0001
1000
0100
0010
1000
0000
0001
0100
0010
0001
1000
0000
1001
0000
0000
0000
,
0001
0100
0010
0100
1000
0000
0110
0000
1000
0010
0100
0010
0001
0000
0110
0000
,
2000
0010
3000
0000
M001
0000
100M
0000
M001
0000
100M
0000
M002
0010
0003
0000
,
0001
0010
0100
0010
1000
0000
0110
0000
1000
0100
0010
0100
0001
0000
0110
0000
,
1000
0000
0000
1000
0000
0000
0010
0000
0020
0000
0000
0000
0230
0000
0300
0000
,
1002
0010
0003
0000
0000
0000
0000
0000
0000
0000
0000
0000
0000
0000
0000
0000
;
