#TITLE:ジャポニジフェス;
#SUBTITLE:;
#ARTIST:虹のコンキスタドール;
#TITLETRANSLIT:Japoniji Fesu;
#SUBTITLETRANSLIT:;
#ARTISTTRANSLIT:Niji no Conquistador;
#GENRE:;
#CREDIT:;
#BANNER:;
#BACKGROUND:;
#LYRICSPATH:;
#CDTITLE:;
#MUSIC:Japoniji Fesu.ogg;
#OFFSET:0.010409;
#SAMPLESTART:35.639999;
#SAMPLELENGTH:13.913000;
#SELECTABLE:YES;
#BPMS:0.000000=170.000000
;
#STOPS:
;
#BGCHANGES:;
#KEYSOUNDS:;
#ATTACKS:;

//---------------dance-single - ----------------
#NOTES:
     dance-single:
     :
     Hard:
     15:
     0.816078,0.871566,0.403555,0.197293,0.457362,637.000000,592.000000,45.000000,22.000000,0.000000,0.000000,0.816078,0.871566,0.403555,0.197293,0.457362,637.000000,592.000000,45.000000,22.000000,0.000000,0.000000:
0000
0000
0000
0000
,
0000
0000
0000
0000
,
0000
0000
0000
0000
,
0010
0000
1001
1000
0100
0000
1001
0001
,
1000
0100
0001
0100
1000
0000
1001
0000
,
1000
0000
0100
0010
0001
0000
1000
0000
0001
0000
0100
0000
0010
0000
1000
0000
,
0100
0000
1000
0000
0010
0000
1000
0000
0001
0010
0001
0010
0100
0000
1000
0000
,
0010
0000
1000
0100
0010
0000
0001
0000
0100
0000
0010
0000
1000
0000
0001
0000
,
0100
0000
1000
0000
0100
0000
0001
0000
1000
0010
1000
0010
0100
0001
0100
0001
,
1000
0010
0100
0100
0010
1000
0100
1000
,
0001
0000
0010
0000
1000
0000
0010
0000
0001
0000
1000
0100
1000
0000
0001
0000
,
0200
0010
0000
1000
0000
0010
0000
0301
,
0000
0000
1000
0000
0100
0000
1000
0000
0001
0100
0001
0100
0010
0000
1000
0000
,
0100
0010
0001
0100
0001
0010
0100
1000
,
0002
0000
0103
0010
0100
0001
1000
0001
,
0020
0100
0000
1000
0000
0100
0000
0031
,
0000
0000
1000
0000
0001
0000
0100
0000
0010
1000
0010
1000
0001
0100
0001
0100
,
0010
0000
1000
0100
0010
0000
1001
0000
,
0001
0000
0100
0010
0100
0000
0001
0000
0010
0000
0100
0010
0100
0000
0000
0000
,
1000
0000
0001
0010
0100
0000
1001
0000
,
1000
0000
0010
0100
0010
0000
1000
0000
0100
0000
0010
0000
0001
0000
0000
0000
,
1000
0000
0001
0100
0010
0000
1001
0000
,
1000
0000
0001
0010
0100
0000
0010
0000
0001
0000
1000
0001
1000
0000
0000
0000
,
0010
0000
1000
0100
1000
0000
0001
0100
0001
0000
1000
0010
1000
0000
0001
0010
,
0001
1000
0010
0001
0010
1000
0200
0000
0000
0010
0000
0000
,
0000
1300
1001
0000
0001
1000
0010
0100
,
0001
0000
0010
0001
0010
0000
0100
0000
1000
0000
0001
0000
1000
0000
0100
0000
,
1000
0000
0010
0100
0010
0000
2000
0000
0000
0000
3100
0000
1100
0000
0000
0000
,
0101
0100
0010
2000
0000
3100
1100
0000
,
0101
0000
1000
0100
1000
0000
0000
0000
0001
0000
0010
0000
0100
0000
0010
0000
,
0001
0000
0100
0001
0100
0000
0010
0000
1000
0000
0100
0000
0010
0000
0100
0000
,
1000
0000
0100
1000
0100
0000
0020
0000
0000
0000
0031
0000
0101
0000
0000
0000
,
1100
0000
0000
0000
0001
0000
0010
0000
0100
0010
0100
0010
0001
1000
0001
1000
,
0001
0100
0010
1000
0001
0000
0000
0000
1000
0000
0100
0000
1000
0000
0010
0000
,
0100
0001
0100
0001
1000
0000
0020
0000
0000
0000
1030
0000
0100
0000
1000
0000
,
0001
0010
0001
0010
0100
0000
2000
0000
0000
0000
3010
0000
0110
0000
0000
0000
,
1010
1000
0001
0020
0000
0130
0110
0000
,
0011
0000
1000
0001
1000
0000
0020
0000
0000
0000
0130
0000
0010
0000
1000
0000
,
0001
0100
0001
0100
0001
0000
0020
0000
0000
0000
0130
0000
0010
0000
0001
0000
,
1000
0100
1000
0100
1000
0000
0020
0000
0000
0000
0130
0000
0101
0000
0000
0000
,
1100
0000
0000
0000
0001
0000
0100
0000
0010
1000
0010
1000
0001
1000
0001
1000
,
0001
0010
0100
1000
0001
0000
0000
0000
1100
0000
0100
0000
0010
0000
0001
0000
,
0011
0001
1000
0010
0110
0010
1000
0001
,
0010
0000
0100
0000
1000
0000
0010
0000
0100
0000
0001
0000
0010
0000
0000
0000
0000
0000
1100
0000
0000
0001
0000
0000
,
0010
0000
0101
1000
0010
0001
0010
1000
,
0100
0000
0000
0000
1001
0000
0000
0000
1000
0000
0001
0100
0001
0000
1000
0100
,
1000
0000
0000
0000
1001
0000
0000
0000
1000
0000
0001
0010
0001
0000
1000
0010
,
1000
0000
0001
0100
0001
0000
0000
0000
0010
0000
0001
0100
0001
0000
1000
0100
,
1000
0000
0100
0010
0001
0000
0000
0000
1000
0000
0001
0000
0100
0000
0010
0000
,
1000
0000
0001
0000
0001
0000
0000
0000
0010
0000
0001
0100
0001
0000
0100
0010
,
0100
0000
0010
1000
0001
0000
1000
0000
0100
0000
1000
0100
1000
0000
0100
0010
,
0100
0000
0010
0001
1000
0000
0000
0000
0010
0000
1000
0100
0010
0000
0001
0100
,
0010
0000
0000
0000
0000
0000
1000
0000
0000
0100
0000
0000
0010
0000
0000
0000
0000
0000
0001
0000
0000
0100
0000
0000
0010
0000
0000
0000
1000
0000
0000
0000
0001
0000
0000
0000
0010
0000
0000
0000
1000
0000
0000
0000
0010
0000
0000
0000
,
0002
0000
0000
0003
,
1000
0100
0010
0000
0001
0100
0010
0000
,
1000
0001
0100
0000
0010
1000
0100
0020
,
0000
0031
1000
0000
1000
0001
0100
0020
,
0000
1030
0001
0000
0001
0000
1000
0000
,
0100
0010
0001
0000
1000
0001
0100
0000
,
0010
1000
0100
0000
0010
0001
1000
0020
,
0000
0130
0001
0000
0001
0010
0100
1000
,
2002
0000
0000
0000
0003
0010
3010
0000
,
1000
0000
0100
0000
1000
0000
0001
0000
0010
0000
0100
0010
0100
0000
0010
0000
,
0001
0000
1000
0000
0001
0000
0100
0000
0010
0000
1000
0001
1000
0000
0020
0000
,
0000
0130
0101
0000
1100
0100
0010
0002
,
0000
1003
1100
0000
0101
0100
0010
0000
,
1000
0000
0100
0000
1000
0000
0001
0000
0010
0000
0100
0010
0100
0000
0010
0000
,
0001
0000
1000
0000
0001
0000
0100
0000
0010
0000
1000
0100
1000
0000
0002
0000
,
0000
0013
0110
0000
0011
0000
1000
0010
,
0100
0010
0100
0010
1000
0010
1000
0010
1000
0100
0010
0001
1000
0000
0000
0000
,
1001
0001
0100
0010
1010
1000
0100
0010
,
0011
0000
0000
0001
0000
0000
1000
0000
0000
0001
0000
0000
0100
0000
0010
0000
1000
0000
0100
0000
0010
0000
0001
0000
,
0101
0100
0010
1000
1001
0001
0010
0100
,
1100
0000
0000
0100
0000
0000
0010
0000
0000
0001
0000
0000
1000
0000
0010
0000
0100
0000
0001
0000
0010
0000
0100
0000
,
1100
0100
0010
0001
1001
1000
0010
0100
,
0101
0000
0000
0100
0000
0000
0001
0000
0000
0010
0000
0000
0100
0000
1000
0000
0010
0000
0100
0000
0001
0000
0010
0000
,
0100
0000
1010
0001
0100
0000
0011
1000
,
0100
0001
0100
1000
0010
0000
1001
0000
;

//---------------dance-single - ----------------
#NOTES:
     dance-single:
     :
     Medium:
     12:
     0.613660,0.627528,0.385619,0.278004,0.071743,479.000000,436.000000,43.000000,31.000000,0.000000,0.000000,0.613660,0.627528,0.385619,0.278004,0.071743,479.000000,436.000000,43.000000,31.000000,0.000000,0.000000:
// measure 0
0000
0000
0000
0000
,  // measure 1
0000
0000
0000
0000
,  // measure 2
0000
0000
0000
0000
,  // measure 3
0101
0000
0000
1000
0100
0000
0000
0001
,  // measure 4
0100
1000
0100
0010
0100
0000
0000
0000
,  // measure 5
1000
0100
1000
0010
0100
0001
0010
0001
,  // measure 6
0100
0001
0010
0100
1000
0001
1000
0000
,  // measure 7
0001
0100
0001
0010
0100
1000
0010
1000
,  // measure 8
0100
1000
0010
0100
0002
0000
0000
0000
,  // measure 9
1003
0000
0001
0200
0000
0310
1000
0100
,  // measure 10
0010
0100
1000
0010
0100
0001
1000
0001
,  // measure 11
2000
0100
0000
0100
0000
0001
0000
3001
,  // measure 12
0000
0000
1000
0000
0100
0000
1000
0000
0010
0000
0100
0001
0100
0000
0000
0000
,  // measure 13
0002
0000
1003
0100
0010
0100
1000
0010
,  // measure 14
0002
0000
0013
0100
0010
1000
0100
1000
,  // measure 15
0002
0010
0000
0010
0000
1000
0000
1003
,  // measure 16
0000
0001
0100
0010
2000
0000
3000
0000
,  // measure 17
1001
0000
0000
0001
0200
0000
0310
0000
,  // measure 18
1010
0000
0000
1000
0002
0000
0003
0000
,  // measure 19
0011
0000
0000
0010
0200
0000
1300
0000
,  // measure 20
1100
0000
0000
1000
0002
0000
0003
0000
,  // measure 21
1001
0000
0000
0001
0200
0000
0310
0000
,  // measure 22
0110
0000
0000
1000
0002
0000
0000
0000
,  // measure 23
1003
0000
0000
1000
0100
0000
0000
0100
0010
0000
0000
0010
0001
0000
0000
0000
,  // measure 24
1000
0001
1000
0001
1000
0001
0200
0000
0000
0010
0000
0000
,  // measure 25
0300
0000
1001
0000
1000
0010
0100
0010
,  // measure 26
1000
0100
1000
0000
0001
0010
0100
0010
,  // measure 27
0001
0100
0001
2000
0000
3000
1010
0000
,  // measure 28
0011
0000
0001
0200
0000
0300
1010
0000
,  // measure 29
0011
0000
0001
0000
1000
0010
0100
0001
,  // measure 30
0010
0100
1000
0000
0001
0010
0100
1000
,  // measure 31
0010
0100
0001
2000
0000
3000
1100
0000
,  // measure 32
0101
0000
1000
0002
0000
0003
0101
0000
,  // measure 33
1100
0000
1001
0000
0001
0100
0010
1000
,  // measure 34
0001
0010
0001
0000
1000
0010
0100
0001
,  // measure 35
1000
0100
1000
0020
0000
0030
0110
0000
,  // measure 36
0101
0000
0001
0020
0000
0030
0110
0000
,  // measure 37
1100
0000
1000
0001
0000
0100
0010
1000
,  // measure 38
0100
0010
0100
1000
0000
0010
0100
0001
,  // measure 39
0010
0100
0010
0002
0000
0003
0101
0000
,  // measure 40
1100
0000
0010
2000
0000
3000
1100
0000
,  // measure 41
0101
0000
1001
0000
0001
0100
0001
0100
,  // measure 42
1000
0100
1000
0100
0001
0010
0100
1000
,  // measure 43
0001
0100
0010
1000
0100
0000
0010
0001
,  // measure 44
0100
0000
0010
1000
0100
0001
0100
1000
,  // measure 45
0010
0000
1001
0000
0001
0100
0010
1000
,  // measure 46
0010
0000
1001
0000
1000
0100
0010
0001
,  // measure 47
1000
0001
0001
0000
1000
0001
0100
0010
,  // measure 48
1000
0000
0001
0000
1000
0100
0010
0001
,  // measure 49
1000
0000
0001
0000
0001
0000
0000
0000
1000
0000
0000
1000
0100
0000
0000
0100
,  // measure 50
0010
0000
0001
0000
1000
0000
0000
0000
0001
0000
0000
0001
0100
0000
0000
0100
,  // measure 51
0010
1000
0001
0000
1010
0000
1100
0000
,  // measure 52
0101
0000
0000
0011
0000
0000
1000
0001
1000
0001
1000
0001
,  // measure 53
0200
0000
0000
0000
0000
0000
0000
0300
,  // measure 54
0010
1000
0001
0000
0010
0001
1000
0000
,  // measure 55
0100
1000
0001
0000
0100
0001
1000
0020
,  // measure 56
0000
0000
0100
0000
0130
0000
0001
0020
,  // measure 57
0000
0100
0130
1000
,  // measure 58
0001
0100
0010
0000
1000
0100
0010
0000
,  // measure 59
0001
0010
0100
0000
1000
0010
0100
0002
,  // measure 60
0000
0000
1000
0000
1003
0000
0010
1000
,  // measure 61
1002
0000
0000
0000
0000
0010
0013
0000
,  // measure 62
0001
0100
0010
1000
0001
0100
0010
1000
,  // measure 63
0100
0010
0001
1000
0100
0010
0001
2000
,  // measure 64
0000
3000
1010
0000
0011
0000
1000
0002
,  // measure 65
0000
0003
0011
0000
1010
0000
0001
0000
,  // measure 66
1000
0100
0010
0001
1000
0100
0010
0001
,  // measure 67
0100
0010
1000
0001
0100
0010
1000
0200
,  // measure 68
0000
0300
0011
0000
1010
0000
0001
0200
,  // measure 69
0000
0300
1010
0000
0011
0000
1001
0000
,  // measure 70
0001
0010
0001
0010
1000
0010
1000
0010
,  // measure 71
0001
1000
0010
0100
0001
0010
0100
0010
,  // measure 72
1000
0010
1000
0010
0001
0010
0001
0010
,  // measure 73
0100
0001
0010
0100
1000
0010
0100
0010
,  // measure 74
0001
0100
0001
0100
1000
0100
1000
0100
,  // measure 75
0001
0010
0100
1000
0010
0100
0001
1000
,  // measure 76
0100
0000
0010
0001
1000
0000
0010
1000
,  // measure 77
0001
0010
1000
0010
0001
0000
1001
0000
;

//---------------dance-single - ----------------
#NOTES:
     dance-single:
     :
     Easy:
     7:
     0.395868,0.488077,0.547041,0.358715,0.000000,309.000000,248.000000,61.000000,40.000000,0.000000,0.000000,0.395868,0.488077,0.547041,0.358715,0.000000,309.000000,248.000000,61.000000,40.000000,0.000000,0.000000:
// measure 0
0000
0000
0000
0000
,  // measure 1
0000
0000
0000
0000
,  // measure 2
0000
0000
0000
0000
,  // measure 3
0101
0000
1100
0000
,  // measure 4
0101
1100
0101
0000
,  // measure 5
1000
0001
0100
0100
,  // measure 6
0010
1000
0001
0000
,  // measure 7
1000
0001
0010
0010
,  // measure 8
0100
1000
0002
0003
,  // measure 9
1000
1000
0001
1000
,  // measure 10
0010
0100
0001
1000
,  // measure 11
0002
0000
0000
0003
,  // measure 12
0100
0010
2000
3000
,  // measure 13
1000
0100
1000
0010
,  // measure 14
0100
0100
0001
1000
,  // measure 15
0002
0000
0000
0000
0000
0000
0000
0003
,  // measure 16
1000
0100
0020
0030
,  // measure 17
0011
0000
1000
0000
,  // measure 18
0001
0100
0010
0000
,  // measure 19
1010
0000
0001
0000
,  // measure 20
1000
0100
0010
0000
,  // measure 21
0110
0000
0001
0000
,  // measure 22
1000
0001
0100
0000
,  // measure 23
0010
0010
1000
1000
,  // measure 24
1001
0110
2002
0000
,  // measure 25
0000
3003
0001
0100
,  // measure 26
0010
1000
0010
0000
1000
0000
0100
0000
,  // measure 27
0010
0001
0010
0000
0001
0000
1000
0000
,  // measure 28
1001
0000
0100
0010
,  // measure 29
0110
0000
0001
0010
,  // measure 30
0100
1000
0100
0000
1000
0000
0010
0000
,  // measure 31
0100
0001
0100
0000
0001
0000
1000
0000
,  // measure 32
1001
0000
0010
0100
,  // measure 33
0110
0000
1000
0001
,  // measure 34
0100
0010
1000
0000
0001
0000
1000
0000
,  // measure 35
0100
0010
0001
0000
0100
0000
0110
0000
,  // measure 36
1010
0000
0100
0110
,  // measure 37
0011
0000
0001
1000
,  // measure 38
0100
0010
0100
0000
1000
0000
0001
0000
,  // measure 39
0100
0010
0100
0000
0010
0000
0110
0000
,  // measure 40
1001
0000
0010
0110
,  // measure 41
1001
0000
0202
0303
,  // measure 42
2200
3300
2020
3030
,  // measure 43
0022
0033
1100
0000
,  // measure 44
0101
0000
1100
0101
,  // measure 45
1100
0000
0001
0001
,  // measure 46
0001
1000
0010
0010
,  // measure 47
0010
0000
1000
1000
,  // measure 48
1000
0100
0010
0010
,  // measure 49
0010
0000
0001
0100
,  // measure 50
0010
1000
0100
0010
,  // measure 51
0001
1000
0001
0001
,  // measure 52
0100
0100
0110
1001
,  // measure 53
0220
0000
0000
0330
,  // measure 54
0001
0001
1000
1000
,  // measure 55
0100
0100
0010
0010
,  // measure 56
0002
1000
1003
0000
,  // measure 57
2000
0001
3001
0000
,  // measure 58
1000
1000
0010
0010
,  // measure 59
0100
0100
0001
0001
,  // measure 60
0020
0100
0130
0000
,  // measure 61
2002
0000
3003
1001
,  // measure 62
0001
0000
0100
0000
0001
1000
0001
0000
,  // measure 63
1000
0000
0100
0000
1000
0001
1000
0000
,  // measure 64
0001
0101
1001
0000
,  // measure 65
1000
1100
1001
0000
,  // measure 66
0001
0000
0010
0000
0001
0100
0001
0000
,  // measure 67
1000
0000
0010
0000
1000
0100
1000
0000
,  // measure 68
0001
0011
1001
0000
,  // measure 69
1000
1010
1001
0110
,  // measure 70
0202
0303
0022
0033
,  // measure 71
2020
3030
0001
1000
,  // measure 72
2200
3300
2020
3030
,  // measure 73
0022
0033
1000
0001
,  // measure 74
0202
0303
0022
0033
,  // measure 75
2020
3030
0001
1000
,  // measure 76
1010
0000
0101
0000
,  // measure 77
0011
1010
0011
1001
;
