#TITLE:Jao Tee Rang;
#SUBTITLE:;
#ARTIST:Blueberry R-siam;
#TITLETRANSLIT:;
#SUBTITLETRANSLIT:;
#ARTISTTRANSLIT:;
#CREDIT:;
#BANNER:Jao Tee Rang.png;
#BACKGROUND:Jao Tee Rang-bg.png;
#LYRICSPATH:;
#CDTITLE:;
#MUSIC:Jao Tee Rang.ogg;
#OFFSET:0.440;
#SAMPLESTART:64.940;
#SAMPLELENGTH:15.020;
#SELECTABLE:YES;
#BPMS:0.000=132.000;
#STOPS:;
#BGCHANGES:1.000=Jao Tee Rang.avi=1.000=1=1=0,
99999=-nosongbg-=1.000=0=0=0 // don't automatically add -songbackground-
;

//---------------dance-single - ----------------
#NOTES:
     dance-single:
     :
     Hard:
     12:
     0.478,0.473,0.087,0.478,0.183: // measure 1
0000
0000
0000
0000
,  // measure 2
0000
0000
0000
0000
,  // measure 3
0000
0000
0000
0000
,  // measure 4
0000
0000
0000
0000
,  // measure 5
0000
0000
0000
0000
0000
0000
0000
0000
1000
0000
0000
0001
0000
0000
0100
0000
,  // measure 6
0010
0000
0000
0100
0000
0000
0001
0000
0100
0000
0000
0001
0000
0000
1000
0000
,  // measure 7
0020
0000
0000
0000
1030
0000
0000
0000
0100
0000
0000
0010
0000
0000
1000
0000
,  // measure 8
0001
0000
0000
0100
0000
0000
0010
0000
1000
0000
0000
0001
0000
0000
0100
0000
,  // measure 9
0020
0000
0000
0000
0130
0000
0000
0000
0010
0000
0000
1000
0000
0000
0001
0000
,  // measure 10
0100
0000
0000
0010
0000
0000
0100
0000
0001
0000
0000
1000
0000
0000
0010
0000
,  // measure 11
2000
0000
0000
0000
3001
0000
0000
0000
0100
0000
0000
0001
0000
0000
0100
0000
,  // measure 12
0010
0000
0000
0001
0000
0000
0100
0000
0001
0000
0000
1000
0000
0000
0001
0000
,  // measure 13
1001
0000
0000
1000
0010
1000
0100
1000
,  // measure 14
0010
1000
0100
1000
0001
1000
0001
1000
,  // measure 15
0001
0000
0000
0100
0001
1000
0001
0100
,  // measure 16
0001
1000
0001
0100
0001
0010
0100
1000
,  // measure 17
0200
0000
0000
0310
0001
0100
0001
0010
,  // measure 18
0100
0010
0100
0001
0100
0010
0001
0100
,  // measure 19
0001
0000
0000
2000
0000
3010
0100
0010
,  // measure 20
1000
0100
0010
0001
0010
0100
2000
0000
,  // measure 21
0002
0000
3003
0001
0100
0010
0001
0100
,  // measure 22
0010
0100
1000
0010
0100
0010
0001
0100
,  // measure 23
0001
0000
0100
0001
0000
0100
0001
0000
0001
0000
0100
0000
0010
0000
1000
0000
,  // measure 24
0001
0100
0010
1000
0010
0100
0001
0100
,  // measure 25
0020
0000
1030
1000
0010
1000
0010
0001
,  // measure 26
0010
0001
0010
1000
0010
1000
0010
0001
,  // measure 27
0010
0000
0001
1000
0000
0001
1000
0000
0010
0000
1000
0000
0010
0000
0100
0000
,  // measure 28
0010
0001
1000
0001
1000
0010
2000
0000
,  // measure 29
3001
0000
0010
0000
0100
0000
1000
0000
0001
0000
0000
0100
0000
0000
0010
0000
,  // measure 30
1000
0000
0000
0001
0000
0000
0100
0000
0001
0000
0000
0010
0000
0000
1000
0000
,  // measure 31
0200
0000
0000
0000
0000
0000
0001
0000
0301
0000
0000
0010
0000
0000
1000
0000
,  // measure 32
0010
0000
0000
0001
0000
0000
0010
0000
1000
0000
0000
0001
0000
0000
0100
0000
,  // measure 33
0002
0000
0000
1000
0000
0000
1000
0000
1003
0000
0000
0010
0000
0000
1000
0000
,  // measure 34
0010
0000
0000
0100
0000
0000
0001
0000
1000
0000
0000
0010
0000
0000
0100
0000
,  // measure 35
0010
0000
0100
0001
0100
0000
0001
0010
,  // measure 36
0100
1000
0100
0010
0002
0000
0010
0000
,  // measure 37
0023
2030
3001
1001
,  // measure 38
0002
2003
3010
1010
,  // measure 39
0020
0032
0103
0101
,  // measure 40
0200
0320
0130
0110
,  // measure 41
2000
3002
0103
2000
,  // measure 42
3020
0000
0230
0000
0302
0000
0100
0103
,  // measure 43
0002
2003
3020
0230
,  // measure 44
0302
2003
3020
0000
,  // measure 45
0230
0320
1030
1010
,  // measure 46
0200
0302
1003
1001
,  // measure 47
0020
0032
0013
0011
,  // measure 48
2000
3200
0310
0110
,  // measure 49
0002
0100
0103
0002
,  // measure 50
2003
0000
3020
0000
0230
0000
0010
0310
,  // measure 51
0020
0230
0302
2003
,  // measure 52
3020
0230
0002
0000
,  // measure 53
0000
0000
0000
0000
0303
0000
0000
0000
0100
0000
0000
0001
0000
0000
0100
0000
,  // measure 54
0010
0000
0000
0010
0000
0000
1000
0000
0010
0000
0000
0100
0000
0000
0001
0000
,  // measure 55
2000
0000
0000
0000
3001
0000
0000
0000
0010
0000
0000
0100
0000
0000
0010
0000
,  // measure 56
0100
0000
0000
0001
0000
0000
1000
0000
0010
0000
0000
0100
0000
0000
0001
0000
,  // measure 57
1000
0000
0000
0000
0000
0000
0000
0000
0100
0000
0000
0010
0000
0000
1000
0000
,  // measure 58
0001
0000
0000
0100
0000
0000
0010
0000
0001
0000
0000
0100
0000
0000
0010
0000
,  // measure 59
2000
0000
0000
0000
3010
0000
0000
0000
0010
0000
0000
0001
0000
0000
0100
0000
,  // measure 60
0010
0000
0000
1000
0000
0000
0010
0000
0100
0000
0000
0010
0000
0000
0100
0000
,  // measure 61
0100
0010
0100
0010
0100
0010
0100
0010
0110
0000
0000
0000
0000
0000
0000
0000
;

//---------------dance-single - ----------------
#NOTES:
     dance-single:
     :
     Medium:
     8:
     0.388,0.395,0.078,0.104,0.009:
0000
0000
0000
0000
,
0000
0000
0000
0000
,
0000
0000
0000
0000
,
0000
0000
0000
0000
,
0000
0000
0000
0000
0100
0000
0010
1000
,
0010
0000
0100
0010
0100
0000
0001
0100
,
0001
0000
0101
0000
0001
0000
1000
0010
,
1000
0000
0100
0010
0100
0000
0010
0001
,
0010
0000
0011
0000
0100
0000
0010
1000
,
0010
0000
0100
0010
0100
0000
0001
1000
,
0001
0000
1001
0000
0100
0000
0010
1000
,
0010
0000
0000
0000
0100
0000
0001
0000
0100
0000
0000
0001
0000
0000
0100
0000
,
0001
0000
0000
0000
0100
0000
0010
1000
,
0010
0000
0100
0000
0100
0001
0100
0001
,
0100
0000
0001
0000
0010
0000
1000
0001
,
1000
0000
0010
0000
1000
0001
1000
0001
,
1000
0000
0010
0000
0001
0000
0100
0001
,
0100
0000
0010
0000
1000
0010
1000
0010
,
1000
0000
0010
0000
0001
0000
0100
0001
,
0100
0000
0010
0000
1000
0100
1000
0100
,
1000
0000
0010
0000
0001
0000
0100
0010
,
0100
0000
0001
0000
1000
0010
1000
0010
,
2000
0000
0000
0000
3001
0000
0100
0001
,
0100
0000
0010
0000
1000
0001
1000
0001
,
1000
0000
0010
0000
1000
0000
0010
0100
,
0010
0000
0100
0000
0001
1000
0001
1000
,
0002
0000
0000
0000
1003
0000
0100
0010
,
0100
0000
0001
0000
1000
0010
1000
0010
,
1000
0000
0100
0000
1000
0000
0010
1000
,
0010
0000
0010
0001
0010
0000
0100
0010
,
0100
0000
0010
0000
0001
0000
1000
0010
,
1000
0000
0100
0001
0100
0000
0010
0100
,
0010
0000
1000
0000
0010
0000
0100
0010
,
0001
0000
0001
1000
0001
0000
0100
1000
,
0100
0000
0001
0000
0100
0000
0010
0100
,
0010
0000
1000
0001
2000
0000
0000
0000
,
3001
0000
0001
0000
0001
1000
0001
0000
,
0100
0000
0100
0000
0100
0010
0100
0000
,
1000
0000
0001
0000
1000
0001
1000
0000
,
0100
0000
0010
0000
0100
0010
0100
0000
,
2001
0001
3001
0010
,
0100
0000
1000
0000
0020
0000
0001
0031
,
1000
0100
0010
0000
0001
0010
0100
0000
,
0010
0100
0010
0000
1000
0000
0010
0000
,
0010
0000
0010
0000
0100
0001
0100
0000
,
0001
0000
0100
0000
0010
1000
0010
0000
,
0100
0000
0010
0000
1000
0001
1000
0000
,
0010
0000
0100
0000
0010
0100
0010
0000
,
0001
1000
1001
0002
,
2003
0000
3020
0000
2030
0000
0001
3001
,
0001
0100
0001
0000
0010
1000
0010
0000
,
0100
0100
0220
0000
,
0000
0000
0330
0000
1000
0000
0001
1000
,
0001
0000
0100
0001
0100
0000
0010
1000
,
0010
0000
1010
0000
0100
0000
0001
0100
,
0001
0000
0010
0100
0010
0000
1000
0001
,
1000
0000
1001
0000
0001
0000
0100
0010
,
0100
0000
0001
1000
0001
0000
0100
0001
,
0100
0000
0101
0000
0010
0000
1000
0010
,
1000
0000
0000
0000
0100
0000
0010
0000
0100
0000
0000
0001
0000
0000
1000
0000
,
0020
0000
1030
0000
;

//---------------dance-single - ----------------
#NOTES:
     dance-single:
     :
     Easy:
     4:
     0.260,0.289,0.130,0.017,0.000:
0000
0000
0000
0000
,
0000
0000
0000
0000
,
0000
0000
0000
0000
,
0000
0000
0000
0000
,
0000
0000
0100
0010
,
0001
0100
0001
1000
,
0010
0000
0010
0100
,
0001
0010
0100
1000
,
0001
0000
0001
1000
,
0010
0100
0001
0010
,
0100
0000
1000
0001
,
0100
0010
1001
1001
,
1001
0000
1000
0001
,
1000
0001
1000
0001
,
1000
0000
0100
0001
,
0100
0001
0100
0001
,
0100
0000
0010
1000
,
0010
1000
0010
1000
,
0010
0000
0100
0001
,
0100
0001
0100
0001
,
0100
0000
0010
0100
,
0010
0100
0010
0100
,
0010
0000
0100
0001
,
0100
0001
0100
0001
,
0100
0000
1000
0010
,
1000
0010
1000
0010
,
1000
0000
0100
0010
,
0100
0010
0100
0010
,
0100
0000
1000
0001
,
1000
0001
1000
0001
,
1000
0000
0010
0100
,
0010
0100
0010
0100
,
0010
0000
0100
0001
,
0100
0001
0100
0001
,
0100
0000
0010
1000
,
0010
1000
0010
0000
,
0010
0100
0110
0000
,
0001
0100
0101
0000
,
1000
0010
1010
0000
,
0100
0001
0101
0000
,
0001
0100
0001
0100
,
1000
0100
0010
0001
,
0100
0010
0100
0010
,
1000
0010
2000
0000
,
3001
0100
0101
0000
,
0010
0100
0110
0000
,
1000
0010
1010
0000
,
0001
0100
0101
0000
,
0100
0010
0100
0001
,
0010
0100
1000
0000
,
0010
1000
0001
1000
,
0100
0010
0002
0000
,
0000
0000
1003
0001
,
1000
0001
0100
0010
,
0100
0000
0001
1000
,
0001
0100
0010
1000
,
0001
0000
1000
0100
,
0010
0001
1000
0001
,
1000
0000
0010
0100
,
1000
0001
1001
1001
,
1001
0000
0110
0000
;

//---------------dance-single - Copied from----------------
#NOTES:
     dance-single:
     Copied from:
     Beginner:
     2:
     0.175,0.184,0.043,0.000,0.000:
0000
0000
0000
0000
,
0000
0000
0000
0000
,
0000
0000
0000
0000
,
0000
0000
0000
0000
,
0000
0000
0001
0000
,
0001
0000
0001
0000
,
0001
0000
0010
0000
,
0010
0000
0010
0000
,
0010
0000
0100
0000
,
0100
0000
0100
0000
,
0100
0000
1000
0000
,
1000
0000
1000
0000
,
0001
0000
0010
0000
,
0010
0000
0010
0010
,
0010
0000
0100
0000
,
0100
0000
0100
0100
,
0100
0000
1000
0000
,
1000
0000
1000
1000
,
1000
0000
0001
0000
,
0001
0000
0001
0001
,
0001
0000
0010
0000
,
0010
0000
0010
0010
,
0010
0000
1000
0000
,
1000
0000
1000
1000
,
1000
0000
0001
0000
,
0001
0000
0001
0001
,
0001
0000
0100
0000
,
0100
0000
0100
0100
,
0100
0000
1000
0000
,
0001
0000
1000
0000
,
1001
0000
0010
0000
,
0100
0000
0010
0000
,
0110
0000
1000
0000
,
0001
0000
1000
0000
,
1001
0000
0010
0000
,
0100
0000
0110
0000
,
1000
1000
1000
0000
,
0001
0001
0001
0000
,
1000
1000
1000
0000
,
0010
0010
0010
0000
,
1000
0001
1000
0000
,
0001
0001
0001
0000
,
0100
0010
0100
0000
,
0010
0010
0010
0000
,
0100
0100
0100
0000
,
0001
0001
0001
0000
,
1000
1000
1000
0000
,
0100
0100
0100
0000
,
0010
0100
0010
0000
,
0100
0100
0100
0000
,
1000
0001
1000
0000
,
0001
0001
0001
0000
,
0000
0000
1000
0000
,
1000
0000
1000
0000
,
1000
0000
0001
0000
,
0001
0000
0001
0000
,
0001
0000
0100
0000
,
0100
0000
0100
0000
,
0100
0000
0010
0000
,
0010
0000
0010
0000
,
0010
0000
1001
0000
;
