#VERSION:0.83;
#TITLE:Iris;
#SUBTITLE:;
#ARTIST:Sta;
#TITLETRANSLIT:;
#SUBTITLETRANSLIT:;
#ARTISTTRANSLIT:;
#GENRE:;
#ORIGIN:;
#CREDIT:;
#BANNER:Iris.png;
#BACKGROUND:;
#PREVIEWVID:;
#JACKET:Iris-jacket.png;
#CDIMAGE:;
#DISCIMAGE:;
#LYRICSPATH:;
#CDTITLE:;
#MUSIC:Iris.ogg;
#OFFSET:1.210000;
#SAMPLESTART:15.097000;
#SAMPLELENGTH:15.000000;
#SELECTABLE:YES;
#BPMS:0.000=195.000;
#STOPS:;
#DELAYS:;
#WARPS:;
#TIMESIGNATURES:0.000=4=4,
8.000=3=4,
20.000=4=4,
28.000=3=4,
145.000=7=4,
152.000=3=4,
200.000=4=4,
312.000=3=4;
#TICKCOUNTS:0.000=4;
#COMBOS:0.000=1;
#SPEEDS:0.000=1.000=0.000=0;
#SCROLLS:0.000=1.000;
#FAKES:;
#LABELS:0.000=Song Start;
#BGCHANGES:;
#KEYSOUNDS:;
#ATTACKS:
;

//---------------dance-single - ----------------
#NOTEDATA:;
#CHARTNAME:;
#STEPSTYPE:dance-single;
#DESCRIPTION:;
#CHARTSTYLE:;
#DIFFICULTY:Beginner;
#METER:5;
#RADARVALUES:0.224601,0.352796,0.143696,0.270487,0.000000,186.000000,169.000000,17.000000,32.000000,0.000000,0.000000,0.000000,0.000000,0.000000,0.224601,0.352796,0.143696,0.270487,0.000000,186.000000,169.000000,17.000000,32.000000,0.000000,0.000000,0.000000,0.000000,0.000000;
#CREDIT:;
#NOTES:
// measure 0
0000
0000
0000
0000
,  // measure 1
0000
0000
0000
0000
,  // measure 2
0000
0000
0000
0000
,  // measure 3
0000
0000
0000
0000
,  // measure 4
0000
0000
0000
0000
,  // measure 5
0000
0000
0000
0000
,  // measure 6
0000
0000
0000
0000
,  // measure 7
0000
0000
0000
0001
,  // measure 8
0000
0010
0000
0100
,  // measure 9
0000
1000
0000
0010
,  // measure 10
0000
0100
0000
0001
,  // measure 11
0000
0001
0000
1000
,  // measure 12
0000
2002
0000
0000
,  // measure 13
3003
0000
0010
1001
,  // measure 14
0000
0001
0001
0000
,  // measure 15
0010
0001
0000
0001
,  // measure 16
0100
0000
0000
0010
,  // measure 17
1000
0100
1000
0000
,  // measure 18
0000
0001
0010
0001
,  // measure 19
0100
0000
0010
1001
,  // measure 20
0000
1000
1000
0000
,  // measure 21
0010
1000
0000
1000
,  // measure 22
0100
0000
0000
0010
,  // measure 23
0001
0100
0001
0000
,  // measure 24
0000
1000
0010
1000
,  // measure 25
0100
0000
0010
0220
,  // measure 26
0000
0000
0330
0000
,  // measure 27
0001
2002
0000
0000
,  // measure 28
3003
0000
1000
2002
,  // measure 29
0000
0000
3003
0000
,  // measure 30
0000
1000
0001
1000
,  // measure 31
0001
0100
0100
0220
,  // measure 32
0000
0000
0330
0000
,  // measure 33
1000
2002
0000
0000
,  // measure 34
3003
0000
0001
2002
,  // measure 35
0000
0000
3003
0000
,  // measure 36
0010
0020
0000
0000
,  // measure 37
0000
0000
0000
0030
,  // measure 38
2002
0000
3003
0000
,  // measure 39
0001
0100
0001
0000
,  // measure 40
1000
0010
1000
0000
,  // measure 41
0220
0000
0330
0000
,  // measure 42
0001
0010
0100
0000
,  // measure 43
1000
0010
0100
0000
,  // measure 44
2002
0000
3003
0000
,  // measure 45
0010
1000
0001
0000
,  // measure 46
0010
0001
1000
0000
,  // measure 47
0220
0000
0330
0000
,  // measure 48
0000
0000
0000
0000
,  // measure 49
0000
0000
0100
0100
,  // measure 50
0010
0000
0001
0000
,  // measure 51
1000
0001
1000
0000
,  // measure 52
0010
0000
1000
0000
,  // measure 53
0001
1000
0001
0000
,  // measure 54
0100
0000
0001
0000
,  // measure 55
0010
0100
0010
0000
,  // measure 56
0100
0000
1000
0000
,  // measure 57
0010
0100
0010
0000
,  // measure 58
1000
0000
0100
0000
,  // measure 59
1000
0010
1000
0000
,  // measure 60
0001
0000
0100
0000
,  // measure 61
0001
0010
0001
0000
,  // measure 62
0100
0000
0010
0000
,  // measure 63
0100
0010
0100
0000
,  // measure 64
0001
0001
1000
1000
,  // measure 65
0100
1000
0010
0100
,  // measure 66
0002
0000
0000
0000
,  // measure 67
0000
0000
0000
0000
,  // measure 68
0000
0000
0000
0000
,  // measure 69
0000
0000
0000
0000
,  // measure 70
0000
0000
0000
0000
,  // measure 71
0000
0000
0000
0003
,  // measure 72
1000
0000
0100
0000
,  // measure 73
1000
0000
0010
0000
,  // measure 74
1000
0000
0100
0000
,  // measure 75
0010
0000
0001
0000
,  // measure 76
0100
0000
0001
0000
,  // measure 77
1000
0000
0100
0100
,  // measure 78
0020
0000
0030
1001
,  // measure 79
0000
0001
0100
0000
,  // measure 80
0100
0010
0000
0000
,  // measure 81
1000
0001
1000
0010
,  // measure 82
0000
0000
0100
0001
,  // measure 83
1000
0001
0000
0010
,  // measure 84
0220
0000
0330
0000
,  // measure 85
0000
1000
2002
0000
,  // measure 86
3003
0000
0000
0001
,  // measure 87
2002
0000
3003
0000
,  // measure 88
0000
0000
0001
0001
,  // measure 89
0001
1000
1000
1000
,  // measure 90
0020
0000
0000
0000
,  // measure 91
0000
0000
0000
0000
,  // measure 92
0000
0000
0000
0030
;

//---------------dance-single - ----------------
#NOTEDATA:;
#CHARTNAME:;
#STEPSTYPE:dance-single;
#DESCRIPTION:;
#CHARTSTYLE:;
#DIFFICULTY:Easy;
#METER:9;
#RADARVALUES:0.382788,0.431195,0.219771,0.346562,0.000000,317.000000,291.000000,26.000000,41.000000,0.000000,0.000000,0.000000,0.000000,0.000000,0.382788,0.431195,0.219771,0.346562,0.000000,317.000000,291.000000,26.000000,41.000000,0.000000,0.000000,0.000000,0.000000,0.000000;
#CREDIT:;
#NOTES:
// measure 0
0000
0000
0000
0000
,  // measure 1
0000
0000
0000
0000
,  // measure 2
0000
0000
0000
0000
,  // measure 3
0000
0000
0000
0000
,  // measure 4
0000
0000
0000
0000
,  // measure 5
0000
0000
0000
0000
,  // measure 6
0000
0000
0000
0000
,  // measure 7
0000
0000
0000
1000
,  // measure 8
0100
0000
0010
0000
0001
1000
0000
1000
,  // measure 9
0001
0100
0010
1000
,  // measure 10
0001
1000
0000
1000
0001
0000
0010
0000
,  // measure 11
0100
0000
1000
0000
0100
0010
0000
0010
,  // measure 12
0001
2000
3020
0230
,  // measure 13
0302
2003
3010
0110
,  // measure 14
1000
0000
0010
1000
0010
0000
1000
0000
,  // measure 15
0100
0000
0020
0000
0000
0000
0031
0100
,  // measure 16
0001
0000
1001
1000
,  // measure 17
0010
0000
0100
0001
0100
0000
0001
0000
,  // measure 18
0010
0010
0100
0100
,  // measure 19
1000
0001
0010
0110
,  // measure 20
0001
0000
0100
0001
0100
0000
0001
0000
,  // measure 21
0010
0000
0200
0000
0000
0000
1300
0010
,  // measure 22
1000
0000
1001
0010
,  // measure 23
0001
0100
0001
0100
,  // measure 24
0010
1000
0010
1000
,  // measure 25
0100
0000
0010
0100
0010
0000
0002
0000
,  // measure 26
0000
0100
0000
0000
1000
0000
0013
0000
,  // measure 27
0110
0000
2000
0000
0000
0100
0000
0000
,  // measure 28
0001
3010
0110
0002
,  // measure 29
0000
0100
0000
0000
1000
0000
0013
0000
,  // measure 30
0110
0000
2000
0000
0000
3200
0000
0000
,  // measure 31
0310
0001
1000
0200
,  // measure 32
0000
0001
0000
0000
0010
0000
1300
0000
,  // measure 33
1001
0000
0020
0000
0000
0001
0000
0000
,  // measure 34
0100
1030
1001
0200
,  // measure 35
0000
0001
0000
0000
0010
0000
1300
0000
,  // measure 36
1001
0000
0001
0100
0000
0200
0000
0020
,  // measure 37
0000
0000
0000
0330
,  // measure 38
1010
0000
0000
0101
0000
0000
0010
0000
,  // measure 39
1000
0100
1000
0001
,  // measure 40
0100
0001
1000
0100
,  // measure 41
1100
0000
0000
0011
0000
0000
0001
0000
,  // measure 42
0100
0020
0230
0310
,  // measure 43
1000
0000
0100
0000
0010
0100
0010
0000
,  // measure 44
0011
0000
0000
1100
0000
0000
2000
0000
,  // measure 45
3020
0230
0302
2003
,  // measure 46
3020
0230
0302
1003
,  // measure 47
0110
0000
0000
2002
0000
0000
0000
0000
,  // measure 48
0000
0000
0000
0000
,  // measure 49
0000
3003
0100
0100
,  // measure 50
0010
1000
0001
0000
,  // measure 51
0100
0010
0001
0010
,  // measure 52
0100
0001
1000
0000
,  // measure 53
0100
0010
0001
1000
,  // measure 54
0100
1000
0010
0000
,  // measure 55
0100
0001
0010
0001
,  // measure 56
0100
0010
1000
0000
,  // measure 57
0100
0010
0220
0330
,  // measure 58
0010
0001
0100
0000
0010
0000
1000
0000
,  // measure 59
0001
0100
0001
0010
,  // measure 60
0100
1000
0010
0000
0100
0000
0001
0000
,  // measure 61
1000
0001
0010
0100
,  // measure 62
1000
0001
0010
0000
0001
0000
0100
0000
,  // measure 63
1000
0100
0001
1000
,  // measure 64
0001
1000
0010
0000
1000
0000
0100
0000
,  // measure 65
0001
0100
1000
0001
,  // measure 66
2002
0000
0000
0000
,  // measure 67
0000
0000
0000
0000
,  // measure 68
0000
0000
0000
0000
,  // measure 69
0000
0000
0000
0000
,  // measure 70
0000
0000
0000
0000
,  // measure 71
0000
0000
0000
3003
,  // measure 72
0001
0001
0100
0010
,  // measure 73
1000
0100
0010
0001
,  // measure 74
1000
1000
0010
0100
,  // measure 75
0001
0010
0100
1000
,  // measure 76
0010
0010
1000
0001
,  // measure 77
0100
0001
1000
1000
,  // measure 78
0220
0000
0330
0000
0001
0010
0001
0000
,  // measure 79
0100
0001
0020
0000
,  // measure 80
0130
1000
0100
0000
0000
0000
1001
0000
,  // measure 81
1000
0010
1000
0100
,  // measure 82
0010
0000
0001
1000
0001
0000
0100
0000
,  // measure 83
0001
0010
0100
0100
,  // measure 84
2000
0000
0000
0010
0000
0010
0000
3010
,  // measure 85
0100
0000
0110
0000
0002
0000
0000
0010
,  // measure 86
0000
0010
0000
0013
0100
0000
0110
0000
,  // measure 87
2000
0000
0000
0010
0000
0010
0000
3010
,  // measure 88
0100
0110
0001
0010
,  // measure 89
1000
0010
0001
1000
,  // measure 90
2002
0000
0000
0000
,  // measure 91
0000
0000
0000
0000
,  // measure 92
0000
0000
0000
3003
;

//---------------dance-single - ----------------
#NOTEDATA:;
#CHARTNAME:;
#STEPSTYPE:dance-single;
#DESCRIPTION:;
#CHARTSTYLE:;
#DIFFICULTY:Medium;
#METER:12;
#RADARVALUES:0.555465,0.666392,0.439542,0.219771,0.004226,460.000000,408.000000,52.000000,26.000000,0.000000,0.000000,0.000000,0.000000,0.000000,0.555465,0.666392,0.439542,0.219771,0.004226,460.000000,408.000000,52.000000,26.000000,0.000000,0.000000,0.000000,0.000000,0.000000;
#CREDIT:;
#NOTES:
// measure 0
0000
0000
0000
0000
,  // measure 1
0000
0000
0000
0000
,  // measure 2
0000
0000
0000
0000
,  // measure 3
0000
0000
0000
0000
,  // measure 4
0000
0000
0000
0000
,  // measure 5
0000
0000
0000
0000
,  // measure 6
0000
0000
0000
0000
,  // measure 7
0000
0000
0000
0000
0000
0000
0010
0100
,  // measure 8
0010
1000
0001
0000
0010
0100
0000
1000
,  // measure 9
0100
1000
0100
0000
0010
0000
1001
0000
,  // measure 10
0001
0100
0000
0010
1000
0000
0100
0010
,  // measure 11
0100
1000
0001
0000
0100
0010
0000
0010
,  // measure 12
0100
0000
0001
0010
0001
0100
0001
0010
,  // measure 13
0001
0100
0010
1000
0001
0000
1001
0000
,  // measure 14
0001
1000
0010
1000
0001
0000
0100
0001
,  // measure 15
0010
0000
0110
0000
1000
0010
0001
0010
,  // measure 16
1000
0100
0110
0002
,  // measure 17
0100
0000
0010
0010
0013
0000
0100
0010
,  // measure 18
0100
0010
2000
0000
0100
0000
0010
0000
,  // measure 19
3001
0101
1010
1001
,  // measure 20
1000
0001
0010
0001
1000
0000
0100
1000
,  // measure 21
0010
0000
0110
0000
0001
0010
1000
0010
,  // measure 22
0001
0100
0110
2000
,  // measure 23
0100
0000
0010
0010
3010
0000
0100
0010
,  // measure 24
0100
0002
0100
0010
,  // measure 25
1003
0000
1100
0000
0011
0000
0001
0001
,  // measure 26
0000
0011
0000
0101
0000
0001
1000
0000
,  // measure 27
0110
0000
1000
1000
0000
1100
0000
1010
,  // measure 28
0000
1000
0001
0000
0110
0000
0001
0001
,  // measure 29
0000
0011
0000
0110
0000
1000
0100
0000
,  // measure 30
1100
0000
0001
0100
0001
0100
0010
1000
,  // measure 31
0010
0000
0100
0000
0110
0000
0001
0001
,  // measure 32
0000
0011
0000
1100
0000
1000
0010
0000
,  // measure 33
1001
0000
1000
1000
0000
1100
0000
0011
,  // measure 34
0000
0001
0100
0000
1001
0000
1000
1000
,  // measure 35
0000
1100
0000
0110
0000
0100
0001
0000
,  // measure 36
1001
0000
0001
0010
0000
0110
0000
2002
,  // measure 37
0000
0000
0000
3003
,  // measure 38
0001
0010
0001
0100
0010
0000
1000
1000
,  // measure 39
2000
0000
0100
0000
3001
0000
0001
0001
,  // measure 40
0002
0100
1003
0110
,  // measure 41
1000
0100
1000
0010
0000
0200
0000
0010
,  // measure 42
0000
0310
0100
0001
0020
0000
0130
1000
,  // measure 43
0010
1000
0100
0010
0001
0001
0001
0000
,  // measure 44
0010
0001
0100
0001
0000
1000
0200
0000
,  // measure 45
2300
3002
0203
0320
,  // measure 46
2030
3200
0320
0130
,  // measure 47
1000
0010
0100
0002
0000
0000
0000
0000
,  // measure 48
0000
0000
0000
0000
,  // measure 49
0000
0000
0000
0000
1000
1000
1003
0000
,  // measure 50
1000
0010
1000
0000
0100
0000
0010
0001
,  // measure 51
0000
1000
0010
0000
0100
0000
1001
0000
,  // measure 52
0001
0010
0001
0000
0100
0000
0010
1000
,  // measure 53
0000
0001
0010
0000
0100
0010
0100
0000
,  // measure 54
1000
0100
1000
0000
0010
0000
0100
0001
,  // measure 55
0000
1000
0100
0000
0010
0000
1001
0000
,  // measure 56
0001
0100
0001
0000
0010
0000
0100
1000
,  // measure 57
0000
0001
0100
0000
0010
0000
0110
0000
,  // measure 58
1000
0100
1000
0100
0010
0001
1000
0000
,  // measure 59
0001
0100
0001
0100
0010
1000
0001
0000
,  // measure 60
0010
0100
0010
0100
1000
0001
0100
0000
,  // measure 61
0010
0100
0010
0100
0001
1000
0100
0000
,  // measure 62
0010
0010
0001
0100
0001
1000
0010
0000
,  // measure 63
0100
0100
0010
1000
0001
1000
0100
0000
,  // measure 64
0010
0001
0100
0001
0010
0001
0100
0010
,  // measure 65
1000
0100
0010
0001
1000
0100
0010
0001
,  // measure 66
0200
0000
0000
0000
,  // measure 67
0000
0000
0000
0000
,  // measure 68
0000
0000
0000
0000
,  // measure 69
0000
0000
0000
0000
0000
0020
0000
0000
0000
0000
0000
0000
0000
0000
0000
0000
,  // measure 70
0000
0000
0000
0000
,  // measure 71
0000
0000
0000
0330
,  // measure 72
1000
0000
0100
1000
0001
0000
0101
0000
,  // measure 73
1010
1000
0100
0010
,  // measure 74
0001
0100
0010
0000
0100
0000
0010
1000
,  // measure 75
0100
0000
1000
0010
1000
0000
0001
0100
,  // measure 76
0001
0000
0010
0000
0100
1000
0100
1000
,  // measure 77
0010
0000
0100
0001
0100
0001
0010
0000
,  // measure 78
2002
0000
3003
0000
0100
1000
0001
0000
,  // measure 79
0010
0001
0100
0000
0110
0000
1000
0100
,  // measure 80
0001
0100
1000
0000
0010
0000
0110
0000
,  // measure 81
0002
0000
0010
0000
0100
0100
0103
0000
,  // measure 82
0010
0100
0010
0000
2000
0000
0010
0000
,  // measure 83
0100
3001
0011
1100
,  // measure 84
1000
1000
0000
1100
0000
1010
0000
1000
,  // measure 85
0001
0000
0110
0000
0001
0001
0000
0011
,  // measure 86
0000
0101
0000
0001
1000
0000
0110
0000
,  // measure 87
1000
1000
0000
1100
0000
0110
0000
0001
,  // measure 88
0010
0000
0011
0000
1000
0100
0001
0100
,  // measure 89
1000
0010
0100
0001
0010
1000
0010
0001
,  // measure 90
0200
0000
0000
0000
,  // measure 91
0000
0000
0000
0000
,  // measure 92
0000
0000
0000
0300
;

//---------------dance-single - ----------------
#NOTEDATA:;
#CHARTNAME:;
#STEPSTYPE:dance-single;
#DESCRIPTION:;
#CHARTSTYLE:;
#DIFFICULTY:Hard;
#METER:15;
#RADARVALUES:0.806632,0.900374,0.380373,0.295845,0.325430,668.000000,623.000000,45.000000,35.000000,0.000000,0.000000,0.000000,0.000000,0.000000,0.806632,0.900374,0.380373,0.295845,0.325430,668.000000,623.000000,45.000000,35.000000,0.000000,0.000000,0.000000,0.000000,0.000000;
#CREDIT:;
#NOTES:
// measure 0
0000
0000
0000
0000
,  // measure 1
0000
0000
0000
0000
,  // measure 2
0000
0000
0000
0000
,  // measure 3
0000
0000
0000
0000
,  // measure 4
0000
0000
0000
0000
,  // measure 5
0000
0000
0000
0000
,  // measure 6
0000
0000
0000
0000
,  // measure 7
1000
0001
1000
0001
1000
0001
1000
0000
0001
0000
0100
0000
0010
0000
0010
0000
,  // measure 8
0100
0000
1001
0000
0100
1001
0000
1000
,  // measure 9
0100
0100
0010
0000
0001
0000
0101
0000
,  // measure 10
0100
1010
0000
1000
0100
1000
0001
0100
,  // measure 11
0001
0000
0011
0000
0010
1100
0000
0001
,  // measure 12
0100
0010
1000
0100
1000
0010
1000
0100
,  // measure 13
0010
0000
0001
0000
0100
0010
1000
0000
0010
0100
0001
0000
0010
0000
0000
0000
,  // measure 14
1001
0000
1000
0010
0001
0010
1000
0100
,  // measure 15
0010
0010
0002
0000
0103
1000
0001
0010
,  // measure 16
2000
0001
3001
0000
0110
0000
1010
0100
,  // measure 17
0001
1000
0100
0010
0011
0100
1000
0001
,  // measure 18
0100
0010
1000
0100
0001
1000
0010
0001
,  // measure 19
1001
0000
0000
0000
1000
0000
0100
0000
1000
0010
1000
0010
0100
0000
0000
0000
,  // measure 20
1001
0000
0001
0010
1000
0010
0001
0100
,  // measure 21
0010
0010
0200
0000
0310
0001
0010
1000
,  // measure 22
0200
0010
0310
0000
0001
1000
1100
0010
,  // measure 23
0001
1000
0001
0100
0101
0010
1000
0010
,  // measure 24
0100
0001
0010
1000
0001
0100
1000
0010
,  // measure 25
0100
0010
0110
0000
0110
0001
1000
1100
,  // measure 26
0000
0000
0101
0000
0000
0000
1100
0000
0000
0000
0101
0000
1000
0100
0010
0000
,  // measure 27
0001
0100
0010
0000
1000
0000
1010
0000
0000
0000
0011
0000
0000
0000
1010
0000
,  // measure 28
0000
0000
0011
0000
1000
0100
0010
0000
0001
0100
0010
0000
1000
0000
1010
0000
,  // measure 29
0000
0000
0101
0000
0000
0000
0110
0000
0000
0000
0101
0000
1000
0010
0100
0000
,  // measure 30
0001
0010
0100
0000
1000
0000
0010
0000
0100
0000
1000
0000
0001
0000
0010
0000
,  // measure 31
0100
0000
0100
0000
0010
0000
0000
0000
1000
0001
1000
0001
1000
0000
0100
0000
,  // measure 32
1000
0000
0010
0000
0001
0000
0010
0000
1000
0000
0001
0000
0010
0001
1000
0000
,  // measure 33
0100
0100
0010
1000
0010
0001
1000
0100
,  // measure 34
1000
0000
0010
0000
0100
0001
1000
0000
0100
0010
0100
0000
0010
0000
0001
0000
,  // measure 35
0100
0000
1000
0000
0100
0000
0001
0000
1000
0000
0100
0000
0010
0001
0100
0000
,  // measure 36
0010
1000
0100
0100
0000
0110
0000
2002
,  // measure 37
0000
0000
0000
3003
,  // measure 38
1001
0010
0100
2001
0000
0000
3010
0100
,  // measure 39
0010
0001
0010
1000
0100
0001
1000
0010
,  // measure 40
0001
0010
0001
0100
0001
1000
0010
0000
,  // measure 41
0101
0010
1000
0102
0000
2003
0000
3100
,  // measure 42
0010
0000
0000
0000
0000
0000
0001
0000
0000
0000
0000
0000
0100
0000
0000
0000
0010
0000
0000
0000
0100
0000
0000
0000
0010
0000
0000
0000
0000
0000
1000
0000
0000
0000
0000
0000
0100
0000
0000
1000
0000
0000
0100
0000
0000
0000
0000
0000
,  // measure 43
0010
0100
0010
0000
0001
0010
0001
0000
0100
0000
0010
0000
1000
0000
0000
0000
,  // measure 44
1100
0010
0001
1200
0000
0320
0032
2003
,  // measure 45
3020
2030
3200
0320
0230
2300
3002
0203
,  // measure 46
0320
0032
0023
2030
3002
0023
0130
0000
,  // measure 47
0110
1000
0001
0200
0000
0020
0000
0000
,  // measure 48
0000
0000
0000
0000
,  // measure 49
0000
0000
0330
0000
0000
0000
1000
0001
1000
0000
0001
0000
1001
0000
0000
0000
,  // measure 50
1000
0100
1000
0000
0100
0000
0000
0000
0010
0100
0010
0000
0100
0000
0000
0000
,  // measure 51
0010
0000
0001
0000
0010
0001
0010
0001
0010
0100
0010
0000
0100
0000
1000
0000
,  // measure 52
0001
0100
0001
0000
0100
0000
0000
0000
0010
0100
0010
0000
0100
0000
0000
0000
,  // measure 53
0010
0000
1000
0000
0010
1000
0010
1000
0010
0100
0010
0000
0100
0000
0100
0000
,  // measure 54
0001
1000
0100
0000
0010
0000
0000
0000
0100
1000
0001
0000
0100
0000
0000
0000
,  // measure 55
0010
0000
0100
0000
0001
0100
0001
0100
0001
1000
0100
0000
0010
0000
0001
0000
,  // measure 56
1000
0010
0100
0000
0010
0000
0000
0000
0100
0001
0010
0000
0100
0000
0000
0000
,  // measure 57
0010
0000
0001
0000
0100
0000
0010
0000
1000
0010
0100
0010
0100
0000
0001
0000
,  // measure 58
1000
0100
1000
0000
0010
0000
0100
0000
0001
0100
0001
0000
0010
0000
0100
0000
,  // measure 59
1000
0010
1000
0000
0100
0000
0010
0000
0001
0010
0001
0000
0010
0000
0100
0000
,  // measure 60
1000
0001
0100
0000
0010
0000
1000
0000
0001
0010
0100
0000
1000
0000
0010
0000
,  // measure 61
0100
0010
1000
0000
0100
0000
0010
0000
0001
0000
0001
0000
0001
0000
0000
0000
,  // measure 62
1000
0001
0100
0000
1000
0000
0100
0000
0010
1000
0001
0000
0100
0000
0001
0000
,  // measure 63
0010
0100
0001
0000
0100
0000
1000
0000
0010
1000
0001
0000
0100
0000
0001
0000
,  // measure 64
0010
0001
1000
0000
0010
0000
0001
0000
0010
1000
0001
0000
0100
0000
0001
0000
,  // measure 65
1001
0000
1000
0100
0000
0010
0000
0010
0001
0100
0001
0100
0010
0000
0000
0000
,  // measure 66
2000
0000
0000
0000
,  // measure 67
0000
0000
0000
0000
,  // measure 68
0000
0000
0000
0000
,  // measure 69
0000
0000
0000
0000
0000
0002
0000
0000
0000
0000
0000
0000
0000
0000
0000
0000
,  // measure 70
0000
0000
0000
0000
,  // measure 71
0000
0000
3003
0110
,  // measure 72
1000
0100
1000
0010
0100
0000
0001
0010
,  // measure 73
0001
0100
0001
1000
0100
1000
0010
0001
,  // measure 74
0010
1000
0001
0000
0010
0001
1000
0001
,  // measure 75
0100
0001
0010
0100
0000
1000
0100
0010
,  // measure 76
0000
0001
0100
0010
0001
0010
1000
0001
,  // measure 77
0100
0000
1000
0000
0001
0000
0010
0000
1000
0000
0100
0000
0100
0000
0010
0001
,  // measure 78
2000
0000
0000
0000
3001
0010
1000
0010
,  // measure 79
0001
0100
0010
0010
2000
0000
3100
0001
,  // measure 80
1000
0010
0002
1000
1003
0000
0110
0000
,  // measure 81
0011
0100
1000
0001
0100
0010
1010
0100
,  // measure 82
0001
1000
0100
0010
0001
0100
1000
0001
,  // measure 83
0010
0000
1000
0000
1001
0000
0000
0000
0001
0000
0100
0000
0001
0010
0001
0010
,  // measure 84
0100
1000
0010
0001
1000
0100
1000
0100
,  // measure 85
0010
1000
0010
0000
0100
0000
0001
0000
0010
0000
1000
0000
0001
0000
0100
0000
,  // measure 86
0001
0000
0100
0000
0010
0000
0001
0000
1000
0010
0100
0000
0001
0010
0100
0000
,  // measure 87
1000
0010
0001
0010
0100
0010
1000
0100
,  // measure 88
0010
0001
1000
0000
1001
0000
0000
0000
1000
0000
0100
0001
0100
0000
1000
0000
,  // measure 89
0010
0000
0100
0000
0001
0000
0010
1000
0010
0000
0001
0000
0100
0000
0010
0100
,  // measure 90
0020
0000
0000
0000
0000
0000
0130
0010
,  // measure 91
1000
0001
0010
0001
0100
0010
1000
0100
,  // measure 92
0010
0000
0001
1000
0001
1000
0001
1000
0001
1000
0001
0000
0000
0000
0000
0000
;
