#TITLE:Into The Blue;
#SUBTITLE:;
#ARTIST:Dolphin's Mind;
#TITLETRANSLIT:;
#SUBTITLETRANSLIT:;
#ARTISTTRANSLIT:;
#GENRE:;
#CREDIT:;
#MUSIC:Into The Blue.ogg;
#BANNER:Into The Blue.png;
#BACKGROUND:Into The Blue-bg.png;
#CDTITLE:cdtitle.png;
#SAMPLESTART:43.540;
#SAMPLELENGTH:15.000;
#SELECTABLE:YES;
#OFFSET:-0.062;
#BPMS:0.000=138.000
,68.000=69.000
,84.000=138.000
;
#STOPS:;
#BGCHANGES:0.250=Into The Blue.avi=1.000=0=0=1,
99999.000=-nosongbg-=1.000=0=0=0=StretchNoLoop====
;
#FGCHANGES:;

//--------------- dance-single - RaverAce ----------------
#NOTES:
     dance-single:
     RaverAce:
     Beginner:
     3:
     0.078504,0.12774,0.048204,0.019282,0,57,52,5,2,0,0,0.078504,0.12774,0.048204,0.019282,0,57,52,5,2,0,0:
0000
0000
0000
0000
,
0000
0000
0000
0000
,
0000
0000
0000
0000
,
0000
0000
0000
0000
,
0000
0000
0000
0000
,
0010
0000
0000
0000
,
0010
0000
0000
0000
,
0100
0000
0000
0000
,
0100
0000
0000
0010
,
1000
0000
0000
0000
,
1000
0000
0000
0000
,
0001
0000
0000
0000
,
0001
0000
0000
0000
,
0010
0000
0000
0000
,
0010
0000
0000
0000
,
0100
0000
0000
0000
,
0100
0000
0010
0000
,
1001
0000
0000
0000
,
0010
0000
0000
0000
,
0100
0000
0000
0000
,
0001
0000
0000
0000
,
1000
0000
0000
0000
,
1000
0000
0000
0000
,
0001
0000
0000
0000
,
0001
0000
0000
0000
,
0010
0000
0000
0000
,
0010
0000
0000
0000
,
0100
0000
0000
0000
,
0100
0000
0000
0000
,
0010
0000
0000
0000
,
0001
0000
0000
0000
,
0100
0000
0000
0000
,
0010
0000
0000
0000
,
1000
0000
0000
0000
,
0010
0000
0000
0000
,
0100
0000
0000
0000
,
0001
0000
0000
0000
,
2002
0000
3003
0000
,
1000
0000
0000
0000
,
0001
0000
0000
0000
,
0100
0000
0000
0000
,
0010
0000
0000
0000
,
1000
0000
0000
0000
,
0001
0000
0000
0000
,
1000
0000
0000
0000
,
1001
0000
0000
0000
,
0100
0000
0000
0000
,
0010
0000
0000
0000
,
0010
0000
0000
0000
,
1001
0000
0000
0000
,
0010
0000
0000
0000
,
0100
0000
0000
0000
,
1000
0000
0001
0000
,
1001
0000
0000
0000
;

//--------------- dance-single - RaverAce ----------------
#NOTES:
     dance-single:
     RaverAce:
     Easy:
     6:
     0.141857,0.255481,0.077126,0.453117,0,103,95,8,47,0,0,0.141857,0.255481,0.077126,0.453117,0,103,95,8,47,0,0:
0000
0000
0000
0000
,
0000
0000
0000
0000
,
0000
0000
0000
0000
,
0000
0000
0000
0000
,
0000
0000
0000
0000
,
0010
0000
0010
0000
,
0100
0000
0100
0000
,
0001
0000
0001
0000
,
1000
0000
0001
1000
,
2001
0000
0000
0000
,
3200
0000
0000
0000
,
2300
0000
0000
0000
,
3002
0000
0000
0000
,
0203
0000
0000
0000
,
0320
0000
0000
0000
,
0230
0000
0000
0000
,
0302
0000
0000
0000
,
2003
0000
3020
0000
,
0230
0000
0302
0000
,
2003
0000
3200
0000
,
0020
0000
0000
0330
,
2002
0000
0000
3003
,
2000
0000
3002
0000
,
0203
0000
0000
0000
,
0020
0000
0000
0330
,
2000
0000
3010
1000
,
0200
0000
1300
0010
,
0210
0000
0001
0000
,
0002
0000
0000
0303
,
2002
0000
0000
3003
,
0002
0000
2003
0000
,
3200
0000
0000
0000
,
0020
0000
0330
0010
,
0002
0000
0103
0001
,
0020
0000
0031
0100
,
0120
0000
0000
0000
,
2000
0000
0000
3030
,
2002
0000
0000
3003
,
0020
0000
0130
1000
,
0002
0000
0000
2003
,
0200
0000
0000
3300
,
0020
0000
0130
0010
,
0002
0000
0013
0100
,
2000
0000
0001
0000
,
0020
0000
0000
3030
,
1001
0001
0200
0000
,
0310
1000
0010
0100
,
0001
0000
0001
0000
,
1000
0000
1000
0000
,
0010
1000
0200
0000
,
1300
0010
0100
0001
,
0010
0001
0100
0010
,
1000
0010
0100
0001
,
1001
0000
0000
0000
;

//--------------- dance-single - RaverAce ----------------
#NOTES:
     dance-single:
     RaverAce:
     Medium:
     10:
     0.301619,0.332125,0.048204,0.665214,0.009641,219,214,5,69,0,0,0.301619,0.332125,0.048204,0.665214,0.009641,219,214,5,69,0,0:
0000
0000
0000
0000
,
0000
0000
0000
0000
,
0000
0000
0000
0000
,
0000
0000
0000
0000
,
0000
0000
0000
0000
,
0200
0001
0001
0001
,
0010
0000
0010
0000
0310
1000
0010
0100
,
0002
1000
0100
1000
,
0100
1000
2003
3100
,
0210
1000
1000
1000
,
1000
0000
0010
0000
0310
0100
1000
0001
,
0200
0001
0001
0001
,
0010
0000
0310
0000
0020
0000
1030
1000
,
0002
1000
1000
1000
,
0100
0000
0100
0000
0103
0010
1000
0001
,
0020
1000
0001
0031
,
1000
0010
0100
0001
1000
0100
0010
0001
,
2000
0000
3200
0000
,
0302
0000
0203
0000
,
2300
0000
3020
0000
,
0200
0000
0000
0330
,
0102
0000
0100
0000
0100
0000
1003
0001
,
1000
0200
0000
0320
0000
0230
0000
2300
,
0000
0000
0001
0000
3001
0100
1000
0100
,
0002
0000
1000
0000
1000
0000
1003
1000
,
0020
0000
0130
0002
0000
0200
0000
0303
,
0020
0000
0130
2000
0000
3200
0000
0320
,
0000
0000
0100
0000
0130
1000
0001
0100
,
0020
1000
2000
3030
,
2000
0000
0100
0000
0100
0000
3001
1000
,
0001
0200
0000
0320
0000
0230
0000
0302
,
0000
0000
1000
0000
1003
0100
0001
0100
,
2000
0000
0000
0000
0001
0000
0000
0000
0001
0000
0000
0000
3001
0000
1000
0001
,
2000
0000
3100
0020
0000
0230
0000
0000
,
2300
0000
3001
0200
0000
0320
0000
0230
,
0000
0000
0001
0000
0301
0010
0100
0010
,
0002
0010
0020
0033
,
2002
0000
0000
3003
,
0001
0020
0000
2030
0000
3020
0000
0032
,
0000
0000
0100
0000
0103
0001
1000
0100
,
0020
0000
0000
0000
0001
0000
0000
0000
0001
0000
0000
0000
0031
0000
0010
0001
,
0020
0000
0130
2000
0000
3200
0000
0000
,
0320
0000
0031
0200
0000
2300
0000
3100
,
0002
0000
1000
0000
1003
0010
0100
0010
,
2000
3200
0302
0103
,
1100
0000
1000
0000
0010
0200
0000
0000
,
0301
0100
0010
1000
,
0010
0200
0000
0000
0301
0200
0000
0000
,
0310
1000
0010
0000
0100
0001
0100
0000
,
0001
0000
0010
0000
1000
0020
0000
0000
,
0031
0000
0100
0000
0010
0000
1000
0001
,
1000
0200
0000
0000
0301
0200
0000
0000
,
1300
0000
0010
0000
0200
0000
0301
1000
,
1001
0000
0000
0000
;

//--------------- dance-single - RaverAce ----------------
#NOTES:
     dance-single:
     RaverAce:
     Hard:
     13:
     0.486171,0.587606,0.048204,0.433835,0.419374,353,348,5,45,0,0,0.486171,0.587606,0.048204,0.433835,0.419374,353,348,5,45,0,0:
0000
0000
0000
0000
,
0000
0000
0000
0000
,
0000
0000
0000
0000
,
0000
0000
0000
0000
,
0000
0000
0000
0000
,
0020
1000
1000
1000
,
0100
0000
0100
0000
0130
0010
1000
0001
,
0020
1000
1000
1000
,
0100
0100
0230
0310
,
0011
0001
0100
0000
0100
0010
1000
0000
,
1000
0010
0100
0001
1000
0100
0001
0100
,
1000
0010
0100
0000
0100
0001
0010
0000
,
0001
0000
0010
0000
0100
0000
0000
1000
0000
1000
0001
0000
0100
0000
0100
0000
,
0001
0001
0001
0000
1000
1000
1000
0000
,
0010
1000
0010
0100
0001
0010
1000
0010
,
0001
0100
0010
0000
1000
0100
0010
0000
,
0001
0010
0100
1000
0010
0100
0001
1000
,
1002
0000
0000
0000
0000
0000
0000
1003
0001
0200
0000
0320
0000
2030
0000
3200
,
0000
0000
0000
0000
0000
0301
0100
2000
0000
0000
0000
0000
0000
0000
0000
0000
,
3002
0000
0013
2000
0000
3020
0000
0000
0032
0000
0103
0020
0000
2030
0000
0002
,
0000
0000
0000
3003
,
0100
0001
0000
0100
0010
0000
1000
0010
0000
0100
0001
0000
1000
0000
0100
0010
,
0001
0010
0000
0100
0010
0000
0001
1000
0000
0010
0100
0000
0001
0000
1000
0001
,
0100
0010
0000
1000
0010
0000
0100
0010
0000
1000
0010
0000
0100
0000
0001
0000
,
1000
0100
0000
0010
0100
0000
1000
0001
0000
0001
0010
0000
0100
0000
0100
0000
,
0020
0000
0031
0200
0000
1000
0000
0000
,
0302
0000
0013
0200
0000
2300
0000
3001
,
0100
0010
0000
1000
0010
0000
0100
0002
0000
0000
1003
0000
0001
0000
0010
0000
,
0100
1000
0000
0001
0100
0000
0020
0200
0000
0000
0000
0000
0330
0000
0000
0000
,
1000
0001
0000
1000
0100
0000
0010
0100
0000
1000
0100
0000
0010
0000
0001
1000
,
0010
0100
0000
0001
0100
0000
0010
1000
0000
0010
0100
0000
0001
0000
1000
0100
,
0010
0001
0000
0010
0100
0000
1000
0100
0000
0010
0001
0000
0010
0000
0100
0000
,
1000
0001
0000
0001
0010
0000
0001
1000
0000
1000
0010
0000
0100
0000
0001
0010
,
0002
0000
1003
0020
0000
0230
0000
0000
,
0302
0000
1003
0200
0000
0302
0000
0103
,
1000
0100
0000
0010
0001
0000
0010
0200
0000
0000
1300
0000
0010
0000
0100
0000
,
0001
1000
0000
0001
0100
0000
0001
2000
0000
0000
3100
0000
0010
0000
0001
0000
,
2002
0000
0000
0000
0000
0000
0000
0000
0003
0000
0000
0000
3001
1000
0001
0000
,
0010
0100
0000
1000
0100
0000
0010
0001
0000
1000
0010
0000
0100
0000
0001
0100
,
0010
1000
0000
1000
0100
0000
0100
0010
0000
0010
0100
0000
1000
0000
0001
0000
,
0100
0001
0000
0001
1000
0000
0001
1000
0000
1000
0100
0000
0010
0000
0100
1000
,
0200
0000
1300
0020
0000
2030
0000
0000
,
3002
0000
0013
2000
0000
3020
0000
0031
,
0100
0010
0000
0100
0001
0000
1000
0002
0000
0000
0103
0000
0010
0000
1000
0000
,
0001
1000
0000
0100
1000
0000
0001
2000
0000
0000
0010
0000
0000
0000
3001
0000
,
1001
1000
0100
0010
0001
0200
0000
0000
,
0310
1000
0010
0100
0001
0100
1000
0100
,
0001
0010
0100
0000
1000
0100
0010
0000
,
0010
0000
0100
0000
1000
0000
0000
0001
0000
0001
1000
0000
0010
0000
0010
0000
,
0100
0010
1000
0001
0010
0200
0000
0000
,
1300
0001
0100
1000
0100
0001
0010
0100
,
1000
0001
0010
0000
0001
1000
0010
0000
,
0100
0000
0001
0000
0100
0000
0010
0200
0000
0000
0301
0000
0001
0000
1000
0000
,
1100
0000
0000
0000
;

//--------------- dance-double - RaverAce ----------------
#NOTES:
     dance-double:
     RaverAce:
     Easy:
     3:
     0.137726,0.204385,0.057845,0.626651,0,100,94,6,65,0,0,0.137726,0.204385,0.057845,0.626651,0,100,94,6,65,0,0:
00000000
00000000
00000000
00000000
,
00000000
00000000
00000000
00000000
,
00000000
00000000
00000000
00000000
,
00000000
00000000
00000000
00000000
,
00000000
00000000
00000000
00000000
,
00000200
00000000
00000000
00000000
,
00001300
00000000
00000000
00010000
,
00200000
00000000
00000000
00000000
,
02300000
00000000
00000000
03100000
,
00120000
00000000
00000000
00000000
,
20030000
00000000
32000000
00000000
,
03200000
00000000
00000000
00000000
,
00320000
00000000
00032000
00000000
,
00003200
00000000
00000000
00000000
,
00000320
00000000
00000032
00000000
,
00000200
00000000
00000000
00000303
,
00000010
00001000
00010000
00100000
,
02100000
00000000
00000000
00000000
,
23000000
00000000
00000000
00000000
,
30020000
00000000
00000000
00000000
,
02000000
00000000
00000000
03030000
,
00012000
00000000
00023000
00000000
,
00030200
00000000
00020300
00000000
,
00032000
00000000
00203000
00000000
,
02300000
00000000
23000000
00000000
,
30200000
00000000
02300000
00000000
,
03020000
00000000
20030000
00000000
,
32000000
00000000
00100000
00000000
,
10000000
00000000
03100000
00000000
,
00020000
00000000
00032000
00000000
,
00003200
00000000
00000320
00000000
,
00000032
00000000
00000203
00000000
,
00000320
00000000
00002030
00000000
,
00003020
00000000
00000230
00000000
,
00000302
00000000
00000023
00000000
,
00000230
00000000
00001000
00000000
,
00000010
00000000
00001300
00000000
,
00022000
00000000
00000000
00033000
,
00200000
00000000
02300000
00000000
,
23000000
00000000
30020000
00000000
,
02030000
00000000
03001000
00000000
,
00020000
00000000
00031000
00000000
,
00000200
00000000
00002300
00000000
,
00023000
00000000
00031000
00000000
,
00022000
00000000
00000000
00033000
,
00010000
10000000
00200000
00000000
,
01300000
00010000
00001000
00000100
,
00000020
00000000
00000032
00000000
,
00000203
00000000
00002300
00000000
,
00003100
00000001
00000020
00000000
,
00000130
00001000
00010000
00100000
,
02000000
00000000
23000000
00000000
,
30020000
00000000
01030000
00100000
,
10010000
00000000
00000000
00000000
;

//--------------- dance-double - RaverAce ----------------
#NOTES:
     dance-double:
     RaverAce:
     Medium:
     6:
     0.234133,0.255481,0.106049,0.684496,0,170,159,11,71,0,0,0.234133,0.255481,0.106049,0.684496,0,170,159,11,71,0,0:
00000000
00000000
00000000
00000000
,
00000000
00000000
00000000
00000000
,
00000000
00000000
00000000
00000000
,
00000000
00000000
00000000
00000000
,
00000000
00000000
00000000
00000000
,
20000000
00010000
00010000
00010000
,
01000000
01000000
32000000
03200000
,
00320000
00100000
00100000
00100000
,
01000000
01000000
02030000
03100000
,
02010000
00001000
00001000
00001000
,
00010000
00010000
03020000
00230000
,
00302000
00010000
00010000
00023000
,
00000100
00000000
00000100
00000000
00030200
00000000
00001300
00001000
,
00000200
00000010
00000010
00000010
,
00001000
00001000
00002300
00003002
,
00000203
00000010
00000010
00000320
,
00001030
00010000
00100000
01000000
,
20020000
00030000
30200000
00000000
,
02300000
00000000
03020000
00000000
,
00230000
00000000
00302000
00000000
,
00020000
00000000
00000000
00033000
,
00001200
00010000
00001000
00020300
,
00032000
00100000
00010000
00203000
,
02300000
10000000
00100000
23000000
,
30020000
00000000
01000000
00000000
10000000
00000000
01030000
01000000
,
00200000
10000000
20300000
00000000
,
32000000
00100000
03100000
00010000
,
00012000
00000000
00023000
00000000
,
00030200
00000000
00002000
00003300
,
00000120
00000001
00000001
00000032
,
00000203
00000010
00000001
00000320
,
00002030
00000001
00000001
00003002
,
00000100
00000100
00000103
00000010
,
00002010
00000100
00003100
00000000
,
00020100
00001000
00031000
00000000
,
00210000
01000000
00010000
02300000
,
10000000
00010000
20000000
33000000
,
02020000
00000000
00000000
03030000
,
20000000
00000000
30020000
00000000
,
02030000
00000000
03002000
00000000
,
00023000
00000000
00030200
00000000
,
00002300
00000010
00003010
00000000
,
00000020
00000100
00000130
00000200
,
00000302
00001000
00001000
00000023
,
00000100
00000100
00000200
00000330
,
00010100
00010000
00002000
00000000
,
00103000
10000000
00100000
00010000
,
02000000
00000000
03200000
00000000
,
20300000
00000000
30010000
00000000
,
01000000
00100000
20000000
00000000
,
31000000
00010000
00001000
00000100
,
00000020
00000000
00000032
00000000
,
00000203
00000000
00000000
00000000
00000310
00000000
00000100
00000100
,
00000110
00000000
00000000
00000000
;

//--------------- dance-double - RaverAce ----------------
#NOTES:
     dance-double:
     RaverAce:
     Hard:
     13:
     0.468267,0.562058,0.048204,0.482039,0.327787,340,335,5,50,0,0,0.468267,0.562058,0.048204,0.482039,0.327787,340,335,5,50,0,0:
00000000
00000000
00000000
00000000
,
00000000
00000000
00000000
00000000
,
00000000
00000000
00000000
00000000
,
00000000
00000000
00000000
00000000
,
00000000
00000000
00000000
00000000
,
00000001
00000100
00000010
00000000
00000010
00001000
00000100
00000000
,
00010000
00001000
00010000
00000000
00001000
00010000
00100000
01000000
,
20000000
01000000
00010000
30100000
,
00100000
10000000
00100000
01000000
00010000
10000000
01000000
00000000
,
01100000
00100000
00010000
00000000
00001000
00000100
00000010
00000000
,
00000001
00000100
00001000
00000100
00000001
00000010
00000100
00001000
,
00010000
00001000
00010000
00000000
00000100
00001000
00000100
00000000
,
00001000
00010000
00100000
00000000
00100000
00010000
00001000
00001000
,
00000100
00001000
00000010
00000000
00000010
00001000
00000100
00000000
,
00001000
00010000
00100000
00000000
10000000
01000000
00100000
00010000
,
00001000
00010000
00001000
00000000
00100000
00001000
00100000
00000000
,
00001000
00010000
00100000
01000000
00100000
00010000
00001000
00000100
,
00000120
00000000
00000000
00000000
00000000
00000000
00000000
00000130
00001000
00000002
00000000
00000203
00000000
00000320
00000000
00020030
,
00000000
00000000
00000000
00000000
00000000
00031000
00010000
00200000
00000000
00000000
00000000
00000000
00000000
00000000
00000000
00000000
,
02300000
00000000
13000000
00200000
00000000
00320000
00000000
00000000
00230000
00000000
10300000
02000000
00000000
03200000
00000000
00020000
,
00000000
00000000
00000000
00330000
,
00100000
00001000
00000000
00001000
00010000
00000000
00000100
00010000
00000000
00001000
00010000
00000000
00001000
00000000
00100000
00000000
,
00002000
00023000
00000000
00030200
00000000
00002300
00000000
00003100
,
00000010
00000001
00000000
00000010
00000100
00000000
00001000
00000200
00000000
00000000
00000301
00000000
00000100
00000000
00001000
00000000
,
00010000
00100000
00000000
01000000
10000000
00000000
00100000
01000000
00000000
00010000
10000000
00000000
00100000
00000000
00100000
00000000
,
20000000
00000000
31000000
00020000
00000000
02030000
00000000
00000000
,
23000000
00000000
30100000
02000000
00000000
03020000
00000000
00130000
,
01000000
00100000
00000000
01000000
10000000
00000000
01000000
00200000
00000000
00000000
01300000
00000000
10000000
00000000
00010000
00000000
,
01000000
00010000
00000000
01000000
00100000
00000000
01000000
00002000
00000000
00000000
00020000
00000000
00000000
00000000
00033000
00000000
,
00001000
00010000
00000000
00010000
00000100
00000000
00001000
00000100
00000000
00000100
00000010
00000000
00000001
00000000
00001000
00000000
,
00000010
00000200
00000000
00000001
00000000
00001000
00000000
00000310
,
00000100
00000010
00000000
00000100
00000001
00000000
00000001
00000020
00000000
00000000
00000130
00000000
00001000
00000000
00010000
00000000
,
00100000
01000000
00000000
10000000
01000000
00000000
00100000
01000000
00000000
00100000
00010000
00000000
00001000
00000000
00000100
00001000
,
00000200
00000000
00001300
00000020
00000000
00000032
00000000
00000000
,
00000023
00000000
00001030
00020000
00000000
02030000
00000000
13000000
,
01000000
00100000
00000000
00100000
00010000
00000000
00001000
00000200
00000000
00000000
00000310
00000000
00000001
00000000
00001000
00000000
,
00000010
00000100
00000000
00000001
00000100
00000000
00000010
00000200
00000000
00000000
00000020
00000000
00000000
00000000
00000330
00000000
,
00002020
00000000
00000000
00000000
00000000
00000000
00000000
00000000
00000000
00000000
00003030
00000000
00000010
00001000
00000010
00000000
,
00000100
00000010
00000000
00000100
00000001
00000000
00001000
00000100
00000000
00010000
00001000
00000000
00010000
00000000
00100000
00000000
,
01000000
10000000
00000000
01000000
00100000
00000000
00010000
10000000
00000000
00100000
01000000
00000000
00100000
00000000
10000000
00000000
,
00100000
01000000
00000000
00010000
01000000
00000000
00001000
00100000
00000000
00010000
00100000
00000000
01000000
00000000
10000000
01000000
,
20000000
00000000
30010000
00200000
00000000
20300000
00000000
00000000
,
30200000
00000000
00310000
00002000
00000000
00003200
00000000
00000310
,
00000100
00001000
00000000
00000100
00010000
00000000
00000100
00002000
00000000
00000000
00003100
00000000
00000010
00000000
00000100
00000000
,
00001000
00000000
00010000
00000000
01000000
00000000
00200000
02000000
00000000
00000000
00000000
00000000
00000000
00000000
03300000
00000000
,
10010000
00010000
01000000
10000000
01000000
00010000
00100000
00000000
,
01000000
10000000
00100000
01000000
00010000
00001000
00000100
00000010
,
00000001
00000100
00001000
00000000
00001000
00000100
00000001
00000000
,
00000001
00000010
00001000
00000010
00000002
00000000
00000103
00000100
,
00001000
00000100
00000001
00000100
00001000
00010000
01000000
00000000
,
10000000
00100000
01000000
00010000
10000000
01000000
00010000
01000000
,
10000000
00100000
00010000
00000000
00010000
00100000
10000000
00000000
,
01000000
00000000
00010000
00000000
00001000
00000000
00000100
00000020
00000000
00000000
00000130
00000000
00000100
00000000
00001000
00000000
,
00001001
00000000
00000000
00000000
;
