#TITLE:インドア系ならトラックメイカー;
#SUBTITLE:;
#ARTIST:湊あくあ;
#TITLETRANSLIT:Indoor-kei nara Trackmaker;
#SUBTITLETRANSLIT:;
#ARTISTTRANSLIT:Minato Aqua;
#GENRE:;
#CREDIT:;
#BANNER:Indoor-kei nara Trackmaker.png;
#BACKGROUND:Indoor-kei nara Trackmaker-bg.png;
#LYRICSPATH:;
#CDTITLE:cdtitle.png;
#MUSIC:Indoor-kei nara Trackmaker.ogg;
#OFFSET:0.000000;
#SAMPLESTART:105.000000;
#SAMPLELENGTH:13.125000;
#SELECTABLE:YES;
#BPMS:0.000000=128.000000
;
#STOPS:
;
#BGCHANGES:;
#KEYSOUNDS:;
#ATTACKS:;

//---------------dance-single - MEGAtive----------------
#NOTES:
     dance-single:
     :
     Beginner:
     2:
     0.129731,0.183077,0.087180,0.050855,0.000000,125.000000,113.000000,12.000000,7.000000,0.000000,0.000000,0.129731,0.183077,0.087180,0.050855,0.000000,125.000000,113.000000,12.000000,7.000000,0.000000,0.000000:
0000
0000
0000
0000
,
0000
0000
0000
0000
,
0000
0000
0000
0000
,
0000
0000
0000
0000
,
0001
0000
0000
0000
,
1000
0000
0000
0000
,
0100
0000
0000
0000
,
0010
0000
0000
0000
,
0001
0000
0001
0000
,
1000
0000
1000
0000
,
0010
0000
0010
0000
,
0100
0000
0100
0000
,
0001
0000
0001
0000
,
0010
0000
0010
0000
,
0100
0000
0100
0000
,
1000
0000
1000
0000
,
1001
0000
0000
0000
,
1001
0000
0000
0000
,
0110
0000
0000
0000
,
0110
0000
0000
0000
,
1001
0000
0000
0000
,
1001
0000
0000
0000
,
0110
0000
0000
0000
,
0110
0000
0000
0000
,
1000
0000
0000
0000
,
0001
0000
0000
0000
,
0010
0000
0000
0000
,
0100
0000
0000
0000
,
2000
0000
0000
0000
,
3002
0000
0000
0000
,
0203
0000
0000
0000
,
0310
0000
0000
0000
,
1000
0000
1000
0000
,
0100
0000
0100
0000
,
0010
0000
0010
0000
,
0001
0000
0001
0000
,
0100
0000
0100
0000
,
0010
0000
0010
0000
,
1000
0000
1000
0000
,
0002
0000
0000
0000
,
1003
0000
0000
1000
,
0000
1000
0000
0000
,
0001
0000
0000
0000
,
0001
0000
0000
0000
,
0010
0000
0000
0010
,
0000
0010
0000
0000
,
0000
0100
0000
0000
,
2000
0000
0000
3000
,
0001
0000
0000
0000
,
0100
0000
0000
0000
,
0010
0000
0000
0000
,
1000
0000
0000
0000
,
0001
0000
0001
0000
,
1000
0000
1000
0000
,
0100
0000
0100
0000
,
0010
0000
0010
0000
,
0001
0001
0001
0000
,
1000
1000
1000
0000
,
0010
0010
0010
0000
,
0100
0100
0100
0000
,
0001
0001
0001
0000
,
1000
1000
1000
0000
,
0100
0100
0100
0000
,
0010
0010
0010
0000
,
0001
0000
0001
0000
,
1000
0000
1001
0000
,
0001
0000
0001
0000
,
0010
0000
0110
0000
,
0100
0000
0100
0000
,
1000
0000
1001
0000
,
0001
0000
0001
0000
,
0100
0000
0220
0000
,
0330
0000
0000
0000
;

//---------------dance-single - MEGAtive----------------
#NOTES:
     dance-single:
     :
     Easy:
     6:
     0.226252,0.261539,0.159829,0.079915,0.000000,218.000000,196.000000,22.000000,11.000000,0.000000,0.000000,0.226252,0.261539,0.159829,0.079915,0.000000,218.000000,196.000000,22.000000,11.000000,0.000000,0.000000:
0000
0000
0000
0000
,
0000
0000
0000
0000
,
0000
0000
0000
0000
,
0000
0000
0000
0000
,
0001
0000
0000
0000
,
0100
0000
0000
0000
,
0010
0000
0000
0000
,
1000
0000
0000
0000
,
0001
0010
0100
0010
,
0001
0000
0001
1000
,
0010
0100
0001
1000
,
0100
0000
0100
1000
,
0001
0100
0010
0100
,
0001
0000
0001
1000
,
0100
0010
0001
1000
,
0010
0000
0010
1000
,
0001
0010
0001
1000
,
0100
0010
0200
0000
,
1300
0010
1000
0001
,
0100
0010
0200
0000
,
0301
0100
0001
1000
,
0100
0010
0200
0000
,
1300
0100
1000
0001
,
0100
0010
0200
0000
,
0301
0000
0101
0000
,
1000
0000
1100
0000
,
0001
0000
0101
0000
,
1000
0000
1100
0000
,
0100
1000
0001
1000
,
0010
0100
0001
1000
,
0001
0010
0100
1000
,
0001
0000
0000
0000
,
1000
0100
0001
0100
,
1000
0010
0100
0000
,
0001
0100
1000
0100
,
0001
0010
0100
0000
,
1000
0100
0001
0100
,
1000
0010
0100
0000
,
0001
0100
1000
0100
,
0001
0010
0001
1000
,
0100
0000
0000
1100
,
0000
1001
0000
0001
,
0101
0000
0000
0100
,
0110
0000
0000
0010
,
1010
0000
0000
1001
,
0000
0011
0000
0001
,
0010
0110
0000
1001
,
0220
0000
0000
0330
,
2000
0000
0000
0000
,
3020
0000
0000
0000
,
0230
0000
0000
0000
,
0302
0000
0000
0000
,
1003
0100
1000
0100
,
0010
0001
0010
0001
,
1000
0010
1000
0010
,
0100
0001
0100
0001
,
1000
0010
1000
0001
,
0010
1000
0010
0001
,
1000
0100
1000
0001
,
0100
1000
0100
0001
,
1000
0010
1000
0001
,
0010
1000
0010
0001
,
1000
0100
1000
0001
,
0100
1000
0100
0001
,
1000
0000
1100
0000
,
0001
0000
0101
0000
,
0010
0000
0110
0000
,
1000
0000
1001
0000
,
0001
0000
0101
0000
,
1000
0000
1100
0000
,
0010
0000
0110
0000
,
0001
0000
2001
0001
,
3001
0000
0000
0000
;

//---------------dance-single - MEGAtive----------------
#NOTES:
     dance-single:
     :
     Medium:
     11:
     0.407876,0.418462,0.210684,0.261539,0.087180,393.000000,364.000000,29.000000,36.000000,0.000000,0.000000,0.407876,0.418462,0.210684,0.261539,0.087180,393.000000,364.000000,29.000000,36.000000,0.000000,0.000000:
0000
0000
0000
0000
,
0000
0000
0000
0000
,
0000
0000
0000
0000
,
0000
0000
0000
0000
,
0001
0001
0001
0001
,
1000
1000
1000
1000
,
0010
0010
0010
0010
,
0100
0100
0100
0100
,
0001
0000
0010
0000
0100
1000
0100
0000
,
0020
0000
0000
0031
0100
0000
0010
1000
,
0001
0000
0100
0000
0010
0100
0010
0000
,
2000
0000
0000
3100
0010
0000
0100
0000
,
1000
0000
0010
0000
0100
0001
0100
0000
,
0020
0000
0000
1030
0100
0000
0010
0001
,
1000
0000
0100
0000
0010
0100
0010
0000
,
0001
0000
0100
0010
0100
0000
0010
1000
,
0001
0010
0100
0010
0001
1000
0002
0000
,
1003
0010
0100
0010
2000
0000
0000
3010
,
1000
0100
0010
0100
1000
0001
2000
0000
,
3001
0100
0010
0100
0002
0000
0000
0000
,
1003
0010
0100
0010
1000
0001
2000
0000
,
3001
0010
0100
0010
0002
0000
0000
0013
,
0001
0010
0100
0010
0001
1000
0002
0000
,
1003
0010
0100
0010
2000
0000
3010
0100
,
0002
0000
1003
0010
0002
0000
0013
0000
,
2000
0000
3001
0010
2000
0000
3010
0000
,
0002
0000
1003
0100
0002
0000
0103
0000
,
2000
0000
3001
0100
2000
0000
3100
0000
,
0001
0000
0000
0100
0000
0000
0010
0000
0010
0000
0000
1000
0000
0000
0100
0000
,
0100
0000
0000
0010
0000
0000
0001
0000
0001
0000
0000
0100
0000
0000
0010
0000
,
0010
1000
0001
0000
0010
0100
1000
0000
,
0002
0000
0000
0000
,
1003
1010
0001
0011
,
1000
1010
0001
0002
,
1003
1100
0001
0101
,
1000
0000
1100
0000
0001
0000
0001
1000
,
0001
0101
1000
1100
,
0001
0101
1000
2000
,
3001
0011
1000
1010
,
0010
0100
0001
0000
0010
0100
1000
0000
,
0001
0000
0000
0000
0000
0001
0000
0000
0000
0000
0000
0000
0000
0000
0100
0000
0000
0000
0110
0000
0000
0000
0000
0000
,
0000
0000
0010
0000
0000
0000
1010
0000
0000
0000
0000
1000
0000
0000
0001
0000
0000
0000
0002
0000
0000
0000
0000
0000
,
1003
0000
0000
0000
0000
1000
0000
0000
0000
0000
0000
0000
0000
0000
0100
0000
0000
0000
0110
0000
0000
0000
0000
0000
,
0010
0000
0000
0000
0000
0000
0001
0000
0000
0000
0100
0000
0010
0000
0000
1000
0000
0000
2000
0000
0000
0000
0000
0000
,
3001
0000
0000
0000
0000
0001
0000
0000
0000
0000
0000
0000
0000
0000
0010
0000
0000
0000
0110
0000
0000
0000
0000
0000
,
0000
0000
0100
0000
0000
0000
1100
0000
0000
0000
0000
1000
0000
0000
0001
0000
0000
0000
0002
0000
0000
0000
0000
0000
,
1003
0000
0000
1010
0000
0000
0000
0010
0000
0110
0000
0000
,
0100
0000
0000
0101
0000
0001
0000
0000
1000
0100
0000
1000
0200
0000
0000
0000
,
2300
0000
3002
0000
0103
0010
2000
0000
,
3002
0000
0023
0000
0130
1000
0001
0100
,
0020
0000
0230
0000
0301
1000
0200
0000
,
0320
0000
0032
0000
1003
0100
1000
0100
,
0010
0000
0001
0000
0100
0010
0100
0010
,
1000
0000
0000
0000
0100
0000
0000
0000
0010
0001
0000
0001
0010
0000
0100
0000
,
0010
0000
0001
0000
0100
0010
0100
0010
,
1000
1100
0001
0101
,
0001
0100
0010
1000
0001
0000
0011
0000
,
0010
0100
0010
0001
1000
0000
1010
0000
,
0010
0100
0010
1000
0100
0000
1100
0000
,
1000
0100
0010
0001
0100
0000
0101
0000
,
0001
0010
0100
1000
0001
0000
0101
0000
,
0100
0010
0100
0001
1000
0000
1100
0000
,
0100
0010
0100
1000
0010
0000
1010
0000
,
1000
0010
0100
0001
0010
0000
0110
0000
,
0100
1000
0001
0000
0100
0001
1000
0000
,
0100
0010
0001
0000
0100
0010
1000
0000
,
0001
0010
0100
0000
1000
0010
0100
0000
,
0001
0100
0010
0000
1000
0100
0010
0000
,
0100
1000
0001
0000
0100
0001
1000
0000
,
0100
0010
0001
0000
0100
0010
1000
0000
,
0001
0100
0010
0000
1000
0100
0010
0000
,
0001
0010
0100
0000
1000
0010
0100
0001
,
0010
0000
0000
0000
;

//---------------dance-single - MEGAtive----------------
#NOTES:
     dance-single:
     :
     Hard:
     15:
     0.706777,0.784616,0.414103,0.464957,0.617522,681.000000,624.000000,57.000000,64.000000,18.000000,0.000000,0.706777,0.784616,0.414103,0.464957,0.617522,681.000000,624.000000,57.000000,64.000000,18.000000,0.000000:
// measure 0
0000
0000
0000
0000
,  // measure 1
0000
0000
0000
0000
,  // measure 2
0000
0000
0000
0000
,  // measure 3
0000
0000
0000
0000
,  // measure 4
0101
0001
1001
1000
,  // measure 5
1100
0100
0110
0010
,  // measure 6
0011
0001
1001
1000
,  // measure 7
1010
0010
0010
0010
,  // measure 8
1000
0100
0010
0100
1000
0010
0100
0010
,  // measure 9
1000
0000
0001
0000
0010
0000
0100
1000
0000
1000
0001
0000
0100
0000
0010
0000
,  // measure 10
1000
0100
0001
0100
2000
3020
0032
2003
,  // measure 11
3100
0000
0010
0100
0010
0000
1000
0000
1010
0000
0010
0000
0110
0000
0100
0001
,  // measure 12
1000
0100
0001
0100
1000
0010
1010
0000
,  // measure 13
0010
1000
0000
0001
0010
0000
1000
0000
0010
0000
0100
1000
0001
0000
1000
0000
,  // measure 14
0010
0000
0001
0010
0100
0000
0001
0000
1000
0100
0000
0001
0100
0000
1000
0000
,  // measure 15
0010
0100
0000
1000
0100
0010
0000
1000
0001
0010
0M00
0010
0100
0000
0001
0000
,  // measure 16
0101
0001
1001
1000
1100
0100
0110
0000
,  // measure 17
1100
0000
1000
0000
1001
0000
0001
0000
0101
0100
00M0
0100
1000
0000
0001
0000
,  // measure 18
0011
0001
1001
1000
1010
0010
0110
0000
,  // measure 19
1010
0000
1000
0000
1001
0000
0001
0000
0011
0010
0M00
0010
1000
0000
0001
0000
,  // measure 20
0101
0001
1001
1000
1100
0100
0110
0000
,  // measure 21
1100
0000
1000
0000
1001
0000
0001
0000
0101
0100
00M0
0100
1000
0000
0001
0000
,  // measure 22
0011
0001
1001
1000
1010
0010
0110
0000
,  // measure 23
1010
0000
1000
0000
1001
0000
0001
0000
0011
0010
0M00
0010
1000
0000
0001
0000
,  // measure 24
1000
0010
1000
0010
0100
0001
1000
0001
0020
0000
2030
0000
3020
0000
0032
0000
,  // measure 25
1003
0000
1000
0000
0001
0010
0100
1000
0010
0001
0000
1000
0100
0000
0001
0000
,  // measure 26
2000
0000
3100
0010
0002
0000
0103
0020
0000
1030
0001
0010
1000
0000
0010
0000
,  // measure 27
0100
0000
1000
0000
0001
0000
1000
0000
1010
0010
0M00
0010
0001
0000
0020
0000
,  // measure 28
0031
0100
0001
0100
0010
1000
0001
1000
0200
0000
0302
0000
0203
0000
2300
0000
,  // measure 29
3100
1000
0100
1000
0001
0010
0100
0010
0001
0100
0000
1000
0100
0000
0001
0000
,  // measure 30
1000
0010
1000
0010
0100
0001
1000
0100
0010
0100
1000
0001
0100
0010
1000
0001
,  // measure 31
1000
0000
0000
0000
1000
0000
0000
0000
1010
0000
0010
0100
0110
0000
0100
0000
,  // measure 32
0101
0000
0000
0000
0001
0000
0000
0000
0000
0000
1000
0000
0100
0000
0000
0000
0000
0000
0010
0000
0000
0000
0100
0000
0000
0000
0000
0000
0000
1000
0010
0000
0000
0000
0000
0000
0100
0000
0000
0000
0001
0000
0100
0000
0000
0000
0000
0000
,  // measure 33
0001
0000
0000
0000
0010
0000
0M00
0000
0010
0000
0000
0000
1000
0000
0000
0000
0000
0000
0010
0000
0000
0000
0100
0000
0001
0000
0000
0000
0000
0001
1000
0000
0000
0000
0000
0000
0002
0000
0000
0000
0000
0000
0000
0000
0000
0000
0000
0000
,  // measure 34
1003
0000
0000
0000
1000
0000
0000
0000
0000
0000
0001
0000
0100
0000
0000
0000
0000
0000
0010
0000
0000
0000
0100
0000
0000
0000
0000
0000
0000
0001
0010
0000
0000
0000
0000
0000
0100
0000
0000
0000
1000
0000
0100
0000
0000
0000
0000
0000
,  // measure 35
1000
0000
0000
0000
0000
0000
0000
0000
0000
0000
0000
0000
0000
0000
0000
0000
0010
0000
0000
0000
0000
0000
0000
0000
0M00
0000
0000
0000
0000
0000
0000
0000
0010
0000
0000
0000
0000
0000
0000
0000
0000
0000
0000
0000
0000
0000
0000
0000
0001
0000
0000
0000
0000
0000
0000
0000
0000
0000
0000
0000
0000
0000
0000
0000
0000
0000
0000
0000
0100
0000
0000
0000
0000
0000
00M0
0000
0000
0000
0000
0000
0100
0000
0000
0000
0000
0000
0000
0000
0000
0000
0000
0000
0000
0000
0000
0000
1000
0000
0000
0000
0000
0000
0000
0000
0000
0000
0000
0000
0000
0000
0000
0000
0000
0000
0000
0000
0000
0000
0000
0000
0001
0000
0000
0000
0000
0000
0000
0000
0000
0000
0000
0000
0000
0000
0000
0000
0000
0000
0000
0000
0000
0000
0000
0000
2000
0000
0000
0000
0000
0000
0000
0000
0000
0000
0000
0000
0000
0000
0000
0000
0000
0000
0000
0000
0000
0000
0000
0000
3001
0000
0000
0000
0000
0000
0000
0000
0000
0000
0000
0000
0000
0000
0000
0000
0000
0000
0000
0000
0000
0000
0000
0000
,  // measure 36
0011
0000
0000
0000
0001
0000
0000
0000
0000
0000
1000
0000
0010
0000
0000
0000
0000
0000
0100
0000
0000
0000
0010
0000
0000
0000
0000
0000
0000
1000
0100
0000
0000
0000
0000
0000
0010
0000
0000
0000
0001
0000
0010
0000
0000
0000
0000
0000
,  // measure 37
0001
0000
0000
0000
0100
0000
00M0
0000
0100
0000
0000
0000
1000
0000
0000
0000
0000
0000
0100
0000
0000
0000
0010
0000
0001
0000
0000
0000
0000
0001
1000
0000
0000
0000
0000
0000
0002
0000
0000
0000
0000
0000
0000
0000
0000
0000
0000
0000
,  // measure 38
1003
0000
0000
0000
1000
0000
0000
0000
0000
0000
0001
0000
0010
0000
0000
0000
0000
0000
0100
0000
0000
0000
0010
0000
0000
0000
0000
0000
0000
0001
0100
0000
0000
0000
0000
0000
0010
0000
0000
0000
1000
0000
0010
0000
0000
0000
0000
0000
,  // measure 39
1000
0001
0100
0010
0100
0000
0001
0000
0100
0010
1000
0100
0010
0001
2000
0000
,  // measure 40
3001
0000
0000
0000
0001
0000
0000
0000
0000
0000
1000
0000
0100
0000
0000
0000
0000
0000
0010
0000
0000
0000
0000
0000
0100
0000
0000
0000
0000
1000
0001
0000
0000
0000
0000
0000
0001
0000
0000
0000
0100
0000
0010
0000
0000
0000
0000
0000
,  // measure 41
0000
0000
0000
0000
1000
0000
0000
0000
1000
0000
0000
0000
1010
0000
0000
0000
0000
0000
0010
0000
0000
0000
0100
0000
0000
0000
0000
0000
0000
0001
0010
0000
0000
0000
0000
0000
0012
0000
0000
0000
0000
0000
0000
0000
0000
0000
0000
0000
,  // measure 42
1003
0000
0000
0000
1000
0000
0000
0000
0000
0000
0001
0000
0010
0000
0000
0000
0000
0000
0100
0000
0000
0000
0000
0000
0010
0000
0000
0000
0000
0001
1000
0000
0000
0000
0000
0000
1000
0000
0000
0000
0010
0000
0100
0000
0000
0000
0000
0000
,  // measure 43
0010
0000
0000
0000
1000
0000
0000
0000
0001
0000
0000
0000
0001
0000
0000
0000
0000
0010
0000
0000
0100
0000
0000
0000
1000
0000
0000
0000
0000
0000
1000
0000
0000
0000
0000
0000
2000
0000
0000
0000
0000
0000
0000
0000
0000
0000
0000
0000
,  // measure 44
3001
0000
0000
0000
0001
0000
0000
0000
0000
0000
1000
0000
0010
0000
0000
0000
0000
0000
0100
0000
0000
0000
0000
0000
0010
0000
0000
0000
0000
1000
0001
0000
0000
0000
0000
0000
0001
0000
0000
0000
0010
0000
0100
0000
0000
0000
0000
0000
,  // measure 45
0000
0000
0000
0000
1000
0000
0000
0000
1000
0000
0000
0000
1100
0000
0000
0000
0000
0000
0100
0000
0000
0000
0010
0000
0000
0000
0000
0000
0000
0001
0100
0000
0000
0000
0000
0000
0102
0000
0000
0000
0000
0000
0000
0000
0000
0000
0000
0000
,  // measure 46
1003
0000
0000
0000
1000
0000
0000
0000
0000
0000
0001
0000
0100
0000
0000
0000
0000
0000
0010
0000
0000
0000
0000
0000
0100
0000
0000
0000
0000
0001
1000
0000
0000
0000
0000
0000
1000
0000
0000
0000
0100
0000
0010
0000
0000
0000
0000
0000
,  // measure 47
0100
0000
0000
0000
1000
0000
0000
0000
0001
0000
0000
0000
0001
0000
0000
0000
0000
0100
0000
0000
0010
0000
0000
0000
1000
0000
0000
0000
0000
0000
1000
0000
0000
0000
0000
0000
2000
0000
0000
0000
0000
0000
0000
0000
0000
0000
0000
0000
,  // measure 48
3002
0000
0203
0000
0310
1000
0001
0010
,  // measure 49
0200
0000
2300
0000
3100
0010
0001
0100
,  // measure 50
0020
0000
2030
0000
3001
0010
0100
0010
,  // measure 51
0002
0000
0000
0000
2003
0000
0000
0000
3010
0100
00M0
0100
1000
0000
1000
0000
,  // measure 52
0001
0010
1000
0010
0001
0100
0010
1000
,  // measure 53
0001
0000
0100
0000
1000
0000
0100
0000
0001
0010
0M00
0010
0100
0000
0001
0000
,  // measure 54
1000
0000
0000
0010
0000
0000
0001
0000
0000
0010
0000
0000
1000
0000
0000
0001
0000
0000
1000
0000
0100
0010
0000
0000
,  // measure 55
0001
0010
0001
0000
1000
0010
1000
0000
0001
0100
00M0
0100
1000
0000
1000
0000
,  // measure 56
0001
0010
0001
0010
0100
1000
0001
1000
0020
0000
0032
0000
0023
0000
2030
0000
,  // measure 57
3001
0000
0001
0000
1000
0100
0010
0001
0100
1000
0000
0001
0010
0000
1000
0000
,  // measure 58
0001
0000
0100
0010
1000
0000
0001
0010
0200
0000
0302
0000
0203
0000
2300
0000
,  // measure 59
3001
0000
0000
0000
0100
0000
0010
0000
0000
0000
0000
0000
0001
0000
0000
0000
0000
0000
0010
0000
0000
0000
0000
0000
1010
0000
0000
0010
0000
0000
0M00
0000
0000
0010
0000
0000
0100
0000
0000
0000
0000
0000
1000
0000
0000
0000
0000
0000
,  // measure 60
0001
0100
0001
0100
0010
1000
0001
1000
0200
0000
0302
0000
0203
0000
2300
0000
,  // measure 61
3001
0000
0001
0000
1000
0010
0100
0001
0010
1000
0000
0001
0100
0000
1000
0000
,  // measure 62
0001
0000
0010
0100
1000
0000
0001
0100
0020
0000
0032
0000
0023
0000
2030
0000
,  // measure 63
3001
0010
0100
0000
1000
0010
0100
0000
0101
0100
00M0
0100
2000
0000
3002
0000
,  // measure 64
1003
0100
0001
0100
1000
0010
1010
0000
,  // measure 65
0110
0100
0001
1000
0200
0302
2003
3020
,  // measure 66
0031
0100
1000
0100
0001
0010
0011
0000
,  // measure 67
0110
0000
0100
0000
1000
0000
0001
0000
0101
0100
00M0
0100
1000
0000
0001
0000
,  // measure 68
0100
0010
1000
0001
0020
2030
3002
0203
,  // measure 69
1300
0000
0001
0000
1000
0000
0010
0000
1010
0010
0M00
0010
0100
0000
1000
0000
,  // measure 70
0001
0100
0010
1000
0200
0302
2003
3020
,  // measure 71
0031
0000
1000
0010
1000
0000
0001
0000
0011
0010
0M00
0010
1000
0000
2020
0000
,  // measure 72
3030
0000
0000
0000
;
