#VERSION:0.83;
#TITLE:Ieva's Polka;
#SUBTITLE:;
#ARTIST:BassHunter;
#TITLETRANSLIT:;
#SUBTITLETRANSLIT:;
#ARTISTTRANSLIT:;
#GENRE:;
#CREDIT:;
#MUSIC:Ievas Polka - BassHunter Remix.ogg;
#BANNER:Ievas Polka.png;
#BACKGROUND:Ievas Polka-bg.png;
#CDTITLE:./CDTITLES/;
#SAMPLESTART:3.400;
#SAMPLELENGTH:16.000;
#SELECTABLE:YES;
#OFFSET:0.000;
#BPMS:0.000=140.000;
#STOPS:;
#BGCHANGES:;
#FGCHANGES:;

//--------------- dance-single - Seanstar12 ----------------
#NOTEDATA:;
#STEPSTYPE:dance-single;
#DESCRIPTION:Seanstar12;
#DIFFICULTY:Easy;
#METER:5;
#RADARVALUES:0,0,0,0,0;
#NOTES:
0000
0000
0000
0000
,
0000
0000
0000
0000
,
0001
0000
1000
0000
,
0100
0000
1000
0000
,
0100
0000
0010
0000
,
0100
1000
0100
1000
,
0000
0001
0000
0001
,
0010
0010
0010
0001
,
1000
0000
1000
0000
,
0001
1000
0001
1001
,
1000
1000
1000
0000
0010
0000
1000
0000
,
0010
1000
0100
1000
,
0100
0001
0100
1000
,
0010
0010
0010
0000
0100
0000
0001
0000
,
0100
0100
0000
0000
0010
0000
1000
0000
,
0010
0010
0010
0000
0100
0000
0001
0000
,
1000
1000
0001
0001
,
0100
0010
0100
0000
0001
0000
1001
0000
,
1000
0100
1000
0000
0100
0000
0000
0000
,
0010
0001
1000
1000
,
0000
0001
1000
0001
,
1000
1000
1000
0000
0100
0000
1001
0000
,
0010
0000
0010
0000
,
0100
0100
0010
0000
,
1000
1000
0001
1000
,
0001
0001
0001
0000
0010
0000
0011
0000
,
0000
0000
0000
0000
,
0000
0000
0000
0000
,
0001
0000
1000
0000
,
0100
0000
1000
0000
,
0100
0000
0010
0000
,
0100
1000
0100
1000
,
0000
0001
0000
0001
,
0010
0010
0010
0001
,
1000
0000
1000
0000
,
0001
1000
0001
1001
,
1000
1000
1000
0000
0010
0000
1000
0000
,
0010
1000
0100
1000
,
0100
0001
0100
1000
,
0010
0010
0010
0000
0100
0000
0001
0000
,
0100
0100
0000
0000
0010
0000
1000
0000
,
0010
0010
0010
0000
0100
0000
0001
0000
,
1000
1000
0001
0001
,
0100
0010
0100
0000
0001
0000
1001
0000
,
0000
1000
0000
1000
,
0000
1000
0000
0000
,
0001
0000
1000
0000
,
0010
0000
1000
0000
,
0001
0000
0100
0000
,
0001
0010
0001
0000
,
0001
0000
1000
0000
,
0100
0010
0100
0000
,
1000
0000
0001
0000
,
0001
1000
0001
0001
,
1001
0000
0000
0000
;

//--------------- dance-single - Seanstar12 ----------------
#NOTEDATA:;
#STEPSTYPE:dance-single;
#DESCRIPTION:Seanstar12;
#DIFFICULTY:Medium;
#METER:8;
#RADARVALUES:0,0,0,0,0;
#NOTES:
0000
0000
0000
0000
,
0000
0000
0000
0000
,
1000
1000
1001
1100
,
1001
0000
0000
0000
0001
0100
0001
0000
,
1000
1000
0010
0000
,
1000
0001
1000
0001
0100
0001
0002
0000
,
1003
1000
0010
0010
,
1000
1000
0100
0010
,
0001
0001
0010
0010
,
0001
1000
0001
1000
0100
1000
2000
3000
,
0001
0001
1001
0101
,
1001
0000
0000
0000
1000
0100
1000
0000
,
0001
0001
0010
0000
,
0001
1000
0001
1000
0100
1000
2000
0000
,
3010
0010
0100
0100
,
0001
0001
1000
1000
,
0010
0100
0001
1000
0010
1000
0020
0000
,
1030
0100
0010
0001
0010
0100
2000
0000
,
3001
0001
1001
0110
,
1001
0000
0000
0000
1000
0100
1000
0000
,
0001
0001
0010
0000
,
0001
1000
0001
1000
0100
1000
2000
0000
,
3010
0010
0100
0100
,
0001
0001
1000
1000
,
0010
0100
0001
1000
0010
1000
0010
0100
,
0001
1000
0010
1000
0020
0000
1030
0000
,
0000
0000
0000
0000
,
0000
0000
0000
0000
,
0001
0001
1001
0101
,
1001
0000
0000
0000
1000
0100
1000
0000
,
0001
0001
0010
0000
,
0001
1000
0001
1000
0100
1000
2000
0000
,
3001
0001
0010
0010
,
0001
0001
0100
0010
,
1000
1000
0010
0010
,
1000
0001
1000
0001
0100
0001
0002
0003
,
1000
1000
1001
1100
,
1001
0000
0000
0000
0001
0100
0001
0000
,
0001
0001
0010
0000
,
0001
1000
0001
1000
0100
1000
2000
0000
,
3010
0010
0100
0100
,
0001
0001
1000
1000
,
0100
0010
0001
1000
0100
1000
0200
0000
,
1300
0010
0100
0001
0100
0010
2000
0000
,
3001
1000
0000
1000
,
1000
1000
0001
0001
0100
0100
0001
0000
,
1001
0000
1000
1100
,
0100
0110
0010
0011
,
0001
0101
0100
0110
,
0010
1010
1000
1100
,
0100
0010
0001
0100
,
0100
0010
0100
0001
,
0100
0100
0001
1000
,
0001
0000
0000
0000
0000
0000
1000
0001
,
1001
0000
0000
0000
;

//--------------- dance-single - Seanstar12 ----------------
#NOTEDATA:;
#STEPSTYPE:dance-single;
#DESCRIPTION:Seanstar12;
#DIFFICULTY:Hard;
#METER:11;
#RADARVALUES:0,0,0,0,0;
#NOTES:
0000
0000
0000
0000
,
1000
1000
1000
1000
,
1000
0100
0010
0000
0010
0000
0010
0000
,
0010
0100
1000
0000
1000
0100
0010
0000
,
0010
0100
1000
0000
0001
0010
0100
0000
,
1000
0001
1000
0001
0100
0001
0002
0000
,
0103
0000
1000
0000
0100
0000
0001
0000
0010
0000
0001
0000
0200
0300
0000
0000
,
1000
0000
0100
0000
0001
0000
0010
0000
0100
0000
2000
0000
3002
0003
0000
0000
,
1000
0001
1000
0010
1000
0001
1000
0000
,
0010
0000
0100
0000
0010
0000
1000
0000
0010
0000
0100
0000
0020
0030
0000
0000
,
1000
0100
1000
0001
1000
0100
2000
3000
,
0001
0010
0001
1000
0001
0010
0002
0003
,
1000
0001
0020
0030
0001
1000
0001
0100
,
0001
0100
0001
0100
0001
0000
0010
0000
0001
0000
1000
0000
0002
0000
0003
0000
,
0100
0001
1000
0001
0010
0100
0002
0003
,
0100
0010
0100
0001
0100
1000
0020
0030
,
0001
0010
1000
0010
0001
0010
0200
0300
,
0010
0100
0001
0000
0010
0000
0001
0000
1000
0000
0001
0000
0200
0000
0300
0000
,
0001
0100
0101
0000
0001
1000
1001
0000
,
1000
0100
1100
0000
0100
0010
0110
0000
,
0010
0001
0011
0000
0001
0000
1000
0000
,
0001
0100
1000
0100
0001
0010
0200
0300
,
1000
0010
0001
0010
0100
0010
2000
3000
,
0100
0010
0001
0010
0100
0001
0200
0300
,
0001
0100
0010
0001
1000
0001
0100
0001
,
1000
0001
0010
0100
1000
0001
2002
3003
,
2000
0000
0000
0000
0000
3000
0000
0000
0000
0000
0000
0000
0000
0000
0000
0000
,
1000
0001
1000
0001
2002
0000
3003
0000
,
1000
0010
0002
0003
0010
0100
0020
0030
,
1000
0100
0020
0030
0001
0010
0200
0300
,
0001
0100
0002
0003
0100
0010
0002
0003
,
1000
0001
0100
0001
1000
0001
2002
3003
,
0001
0010
2000
3000
0010
0100
0020
0030
,
0001
0100
0020
0030
1000
0010
0200
0300
,
0010
1000
0001
1000
0100
1000
0002
0003
,
0010
0000
0100
0000
0010
0000
1000
0000
0010
0000
0100
0000
0020
0030
0000
0000
,
0001
0010
2000
3000
0010
0100
0020
0030
,
0001
0100
0020
0030
1000
0010
0200
0300
,
0001
0100
0002
0003
0100
0010
0002
0003
,
0010
0000
1000
0000
0100
0000
1000
0000
0001
0000
1000
0000
2002
3003
0000
0000
,
1000
0010
0002
0003
0010
0100
0020
0030
,
1000
0100
0020
0030
0001
0010
0200
0300
,
0010
0001
1000
0001
0100
0001
2000
3000
,
0010
0000
0100
0000
0010
0000
0001
0000
0010
0000
0100
0000
0020
0000
0000
0030
,
0000
1000
0000
1000
,
0010
1000
1000
0001
0001
0100
0100
0000
,
1001
0000
1000
0001
1000
0000
1100
0000
,
0100
0010
0110
0000
0010
0001
0011
0000
,
0001
0100
0101
0000
0100
0010
0110
0000
,
0010
1000
1010
0000
1000
0100
1100
0000
,
0100
0010
0001
0000
0001
0100
0010
0000
,
0100
0001
1000
0000
0100
0010
0001
0000
,
0100
0100
0001
0001
,
0010
0000
0100
0000
0000
0000
1000
0001
,
1001
0000
0000
0000
;
