#TITLE:Ich Bin Wieder Hier;
#SUBTITLE:;
#ARTIST:Blümchen;
#TITLETRANSLIT:;
#SUBTITLETRANSLIT:;
#ARTISTTRANSLIT:;
#GENRE:;
#CREDIT:;
#MUSIC:Ich Bin Wieder Hier.ogg;
#BANNER:Ich Bin Wieder Hier.png;
#BACKGROUND:Ich Bin Wieder Hier-bg.png;
#CDTITLE:cdtitle.png;
#SAMPLESTART:43.380;
#SAMPLELENGTH:15.000;
#SELECTABLE:YES;
#OFFSET:0.648;
#BPMS:0.000=139.000
,166.000=69.500
,167.000=139.000
;
#STOPS:;
#BGCHANGES:1.000=Ich Bin Wieder Hier.avi=1.000=0=0=1,
99999.000=-nosongbg-=1.000=0=0=0=StretchNoLoop====
;
#FGCHANGES:;

//--------------- dance-single - RaverAce ----------------
#NOTES:
     dance-single:
     RaverAce:
     Beginner:
     3:
     0.092889,0.167321,0.033632,0,0,58,55,3,0,0,0,0.092889,0.167321,0.033632,0,0,58,55,3,0,0,0:
0000
0000
0000
0000
,
0000
0000
0000
0000
,
0000
0000
0000
0000
,
0000
0000
0000
0000
,
0000
0000
0000
0000
,
0000
0000
0000
0000
,
1000
0000
0000
0000
,
1000
0000
0000
0000
,
0001
0000
0000
0000
,
0001
0000
0000
0000
,
0100
0000
0000
0000
,
0100
0000
0000
0000
,
0010
0000
0000
0000
,
0010
0000
0000
0000
,
1000
0000
0000
0000
,
1000
0000
0000
0000
,
0100
0000
0000
0000
,
0100
0000
0000
0000
,
0010
0000
0000
0000
,
0010
0000
0000
0000
,
0100
0000
0000
0000
,
0100
0000
0000
0000
,
1000
0000
0000
0000
,
0001
0000
0000
0000
,
1000
0000
0000
0000
,
1001
0000
0000
0000
,
1001
0000
0000
0000
,
0001
0000
0000
0000
,
1000
0000
0000
0000
,
0100
0000
0000
0000
,
0001
0000
0000
0000
,
0100
0000
0000
0000
,
1000
0000
0000
0000
,
0010
0000
0010
0000
,
0100
0000
0000
0000
,
0100
0000
0000
0000
,
0100
0000
0010
0000
,
1000
0000
0000
0000
,
1000
0000
0000
0000
,
0001
0000
0000
0000
,
0010
0000
0000
0000
,
0100
0000
0000
1000
,
0000
0001
0000
0100
,
0000
0010
0000
1000
,
0000
0100
0000
0010
,
0000
0001
0000
1000
,
0000
0010
0000
0100
,
0000
0001
0000
0010
,
0000
0100
0000
1000
,
0000
0001
0000
1001
;

//--------------- dance-single - RaverAce ----------------
#NOTES:
     dance-single:
     RaverAce:
     Easy:
     5:
     0.179372,0.311379,0.078475,0.089686,0,112,105,7,8,0,0,0.179372,0.311379,0.078475,0.089686,0,112,105,7,8,0,0:
0000
0000
0000
0000
,
0000
0000
0000
0000
,
0000
0000
0000
0000
,
0000
0000
0000
0000
,
0000
0000
0000
0000
,
0000
0000
0000
0000
,
0001
0000
0001
0000
,
0001
0000
0001
0000
,
1000
0000
1000
0000
,
1000
0000
1000
0000
,
1001
0000
0001
0000
,
0010
0000
1000
0000
,
0010
0000
0001
0000
,
0100
0000
0010
0000
,
1000
0000
1000
0000
,
0100
0000
0001
0000
,
0100
0000
1000
0000
,
0010
0000
0100
0000
,
0001
0000
0001
0000
,
1000
0000
1000
0000
,
0100
0000
0100
0000
,
0010
0000
0010
0000
,
0100
0000
1000
0000
,
0001
0000
0100
0000
,
0010
0000
0100
0010
,
0200
0000
0020
0330
,
0110
0000
0100
0000
,
0010
0000
1000
0000
,
0001
0000
0100
0000
,
1000
0000
0100
0000
,
0001
0000
0100
0000
,
0010
0000
1000
0000
,
0001
0000
0010
0000
,
1000
0000
0010
0000
,
1001
0000
1000
0000
,
0100
0000
0001
0000
,
0100
0000
1000
0000
,
0010
0000
0100
0000
,
0210
0000
0000
0000
,
0302
0000
0000
0000
,
2003
0000
0000
0000
,
0100
3100
1100
1000
,
0001
1000
0001
0100
,
0010
0100
0010
1000
,
0010
1000
0010
0100
,
0001
1000
0100
0010
,
0001
0010
0001
0100
,
0001
0100
0001
0100
,
0010
1000
0100
0012
,
0010
0010
0013
2001
,
0020
0000
3030
0000
;

//--------------- dance-single - RaverAce ----------------
#NOTES:
     dance-single:
     RaverAce:
     Medium:
     8:
     0.328315,0.424608,0.257848,0.325112,0,205,182,23,29,0,0,0.328315,0.424608,0.257848,0.325112,0,205,182,23,29,0,0:
0000
0000
0000
0000
,
0000
0000
0000
0000
,
0000
0000
0000
0000
,
0000
0000
0000
0000
,
0000
0000
0000
0000
,
0000
0000
0000
0000
,
0001
0000
1000
0000
0001
1000
0001
0000
,
0100
0000
0010
0000
0100
0010
0100
0000
,
0001
0000
1000
0000
0100
0010
0100
0000
,
0110
0011
1001
1010
,
0110
0100
0001
1000
,
0100
0001
0100
1000
,
0020
1000
1000
2030
,
0001
0001
3002
0013
,
0110
0100
1000
0001
,
0100
1000
0100
0001
,
0020
0001
0001
0032
,
1000
1000
2003
3010
,
0110
0100
0001
0100
,
1000
0100
0001
0010
,
0100
1000
0100
0001
,
0100
1000
0010
0100
,
0001
0010
1000
0010
,
0001
0100
0010
1000
,
0010
0001
0010
1000
,
2002
3003
0220
0330
,
1001
1000
0010
0100
,
0001
0010
0100
1000
,
0100
0001
0100
1000
,
0100
0001
0100
1000
,
0110
0001
0010
0100
,
1000
0010
0100
0001
,
0100
1000
0100
0001
,
0110
1000
0110
0101
,
0012
0010
0010
0023
,
0230
0010
0010
0320
,
0031
0002
0103
0200
,
1300
2000
3100
0001
,
2001
0000
0000
3020
,
0230
0000
0000
0301
,
0022
0033
2200
3300
,
1001
0110
1002
0013
,
0100
0000
1000
0000
0001
1000
0001
0000
,
0100
0000
0010
0000
1000
0010
1000
0000
,
0010
0000
0100
0000
0001
0100
0001
0000
,
1000
0001
1000
0000
0100
1000
0100
0000
,
0010
0000
0001
0000
1000
0001
1000
0000
,
0010
0000
0100
0000
0001
0010
0001
0000
,
0010
0000
0100
0000
1000
0100
2100
0000
,
3002
0000
0103
0010
1000
0001
0021
0000
,
0200
0000
0330
0000
;

//--------------- dance-single - RaverAce ----------------
#NOTES:
     dance-single:
     RaverAce:
     Hard:
     14:
     0.648623,0.764294,0.179372,0.213004,0.767937,405,389,16,19,0,0,0.648623,0.764294,0.179372,0.213004,0.767937,405,389,16,19,0,0:
0000
0000
0000
0000
,
0000
0000
0000
0000
,
0000
0000
0000
0000
,
0000
0000
0000
0000
,
0000
0000
0000
0000
,
0000
0000
0000
0000
,
1001
0000
0001
0000
0100
0010
0000
0100
0000
0100
0000
0001
0100
0000
0010
1000
,
0001
0000
0001
0000
0010
0100
0000
0010
0000
0010
0000
0010
0001
0000
0010
0100
,
1000
0000
1000
0000
0100
0010
0000
0100
0000
0100
0000
1000
0001
0000
0001
1000
,
0010
0000
0010
0000
0100
0010
0000
0100
0000
0010
0000
0010
1000
0000
0100
0010
,
0100
0000
0000
1100
0000
0000
1000
0000
0001
0000
0000
0101
0000
0000
0100
0000
,
0010
0000
0000
1002
0000
0000
1003
0000
0200
0000
0000
0302
0000
0000
0103
0000
,
1000
0000
0000
1000
0010
0000
0000
0010
0100
0000
0000
0100
0001
0000
0000
0001
,
0010
0000
0000
0010
1000
0000
0000
1000
0010
0000
0000
0010
0001
0000
0000
0001
,
0100
0000
0000
0101
0000
0000
0001
0000
1000
0000
0000
1100
0000
0000
0100
0000
,
0010
0000
0000
2001
0000
0000
3001
0000
0200
0000
0000
2300
0000
0000
3100
0000
,
0001
0000
0000
0001
0010
0000
0000
0010
0100
0000
0000
0100
1000
0000
0000
1000
,
0010
0000
0000
0010
0001
0000
0000
0001
0010
0000
0000
0010
1000
0000
0000
1000
,
0001
0000
0010
0000
0100
1000
0000
0001
0000
0001
0000
1000
0010
0000
0100
0001
,
1000
0000
0100
0000
0010
0001
0000
1000
0000
1000
0000
0001
0010
0000
0100
0000
,
0010
0000
0010
0000
0100
1000
0000
0010
0000
0010
0000
0100
0010
0000
1000
0001
,
0100
0000
0100
0000
0010
1000
0000
0100
0000
0100
0000
0010
0001
0000
0100
0000
,
0001
0000
0010
0100
0000
1000
0100
0000
0010
0000
0001
0010
0000
0100
0010
0000
,
0001
0000
0000
0000
1001
0000
1000
0000
0020
0000
0000
0032
0000
0000
0013
0000
,
1000
0000
0000
0100
0000
0000
0001
0000
0000
0100
0000
0000
1000
0000
0000
0100
0000
0000
0010
0000
0001
0000
1000
0000
,
0020
0000
0000
0130
0001
2000
0200
0000
0000
3300
0000
0000
,
0011
0000
0000
0001
1000
0000
0000
1000
0010
0000
0000
0010
0100
0000
0000
0100
,
0001
0000
0000
0001
1000
0000
0000
1000
0100
0000
0000
0100
0001
0000
0100
0000
,
1000
0100
1000
0100
0001
0100
0001
0100
,
1000
0010
1000
0010
0100
0001
0100
0010
,
1010
0000
0000
1000
0001
0000
0000
0001
0010
0000
0000
0010
0100
0000
0000
0100
,
1000
0000
0000
1000
0001
0000
0000
0001
0100
0000
0000
0100
1000
0000
0100
0000
,
0001
0100
0001
0100
1000
0100
1000
0100
,
0001
0010
0001
0010
0100
1000
0100
0010
,
0110
0000
0100
0010
0000
0010
0100
0000
1000
0000
0100
0010
0000
0010
0001
1000
,
0001
0000
1000
0001
0000
0001
1000
0000
0001
0000
1000
0100
0000
0010
0001
1000
,
0010
0000
0100
0010
0000
1000
0010
0000
0100
0000
0001
0010
0000
0100
1000
0001
,
1000
0000
0010
1000
0000
0001
1000
0000
0001
0000
0010
0000
1000
0000
0010
0000
,
0021
0000
0001
0000
0000
0001
0000
0000
0001
0000
0000
0001
0000
0000
0031
1000
,
0020
0000
1000
0000
0000
1000
0000
0000
1000
0000
0000
1000
0000
0000
1030
0001
,
0200
0000
0000
0000
0301
0000
1000
0100
0020
0000
0000
0000
0031
0000
1000
0001
,
0100
0000
0010
0100
0000
0100
0001
0000
1000
0100
0001
0100
1100
0000
1000
0010
,
1000
0000
0010
0100
0010
0000
0100
0001
0100
0000
0001
0000
0010
0000
0100
0010
,
0100
0000
1000
0100
1000
0000
0001
1000
0001
0000
0010
0000
0100
0000
1000
0001
,
1000
0000
0001
0100
0001
0000
0100
0010
0100
0000
0010
0000
1000
0000
0001
1000
,
0010
0000
0010
1000
0001
1000
0100
0010
0001
0100
0010
0100
0101
0000
0001
0010
,
0001
0000
0010
0100
0010
0000
0100
1000
0100
0000
1000
0000
0010
0000
0100
0010
,
0100
0000
0001
0100
0001
0000
1000
0001
1000
0000
0010
0000
0100
0000
0001
1000
,
0001
0000
1000
0100
1000
0000
0100
0010
0100
0000
0010
0000
0012
0000
0000
0000
,
0203
0000
1300
0100
0001
0010
0210
0000
,
2000
0000
3300
0000
;

//--------------- dance-double - RaverAce ----------------
#NOTES:
     dance-double:
     RaverAce:
     Easy:
     6:
     0.237028,0.311379,0.100897,0.190583,0,148,139,9,17,0,0,0.237028,0.311379,0.100897,0.190583,0,148,139,9,17,0,0:
00000000
00000000
00000000
00000000
,
00000000
00000000
00000000
00000000
,
00000000
00000000
00000000
00000000
,
00000000
00000000
00000000
00000000
,
00000000
00000000
00000000
00000000
,
00000000
00000000
00000000
00000000
,
00000001
00000000
00000100
00000000
,
00001000
00000000
00010000
00000000
,
00100000
00000000
01000000
00000000
,
10000000
00010000
10000000
00010000
,
01010000
00000000
01000000
00000000
,
00001000
00000000
00010000
00000000
,
00000100
00000000
00001000
00000000
,
00000100
00000000
00000010
00000000
,
00000001
00000000
00000100
00000000
,
00000010
00000000
00010000
00000000
,
00001000
00000000
00100000
00000000
,
01000000
00000000
10000000
00000000
,
00010000
01000000
00010000
00000000
,
10000000
00010000
10000000
00000000
,
01000000
10000000
01000000
00100000
,
00010000
00001000
00000100
00001000
,
00000010
00000000
00000100
00000000
,
00000001
00000000
00000010
00000100
,
00001000
00010000
00100000
01000000
,
20000000
00000000
00020000
30030000
,
01010000
01000000
00001000
00010000
,
00001000
00000100
00000010
00000001
,
00000200
00000301
00000002
00000013
,
00000200
00000310
00000001
00001000
,
00001100
00000100
00010000
00001000
,
00010000
01000000
00100000
10000000
,
02000000
13000000
20000000
30100000
,
02000000
03100000
20000000
30010000
,
10010000
10000000
01000000
00010000
,
00001000
00000100
00000001
00000010
,
00000200
00000310
00000020
00000031
,
00000002
00000103
00000010
00001000
,
00001002
00000000
00000000
00000000
,
00000203
00000000
00000000
00000000
,
00000320
00000000
00000000
00000000
,
00010030
00001000
00011000
00110000
,
00100000
01000000
10000000
00010000
,
01000000
10000000
01000000
00010000
,
00001000
00000100
00000010
00000001
,
00000100
00000010
00001000
00001010
,
00000010
00000100
00000001
00000010
,
00000100
00001000
00010000
00100000
,
01000000
00100000
00010000
00001000
,
00000100
00000001
00000100
00002100
,
00000002
00000000
00003003
00000000
;

//--------------- dance-double - RaverAce ----------------
#NOTES:
     dance-double:
     RaverAce:
     Medium:
     9:
     0.347534,0.367993,0.056054,0.100897,0,217,212,5,9,0,0,0.347534,0.367993,0.056054,0.100897,0,217,212,5,9,0,0:
00000000
00000000
00000000
00000000
,
00000000
00000000
00000000
00000000
,
00000000
00000000
00000000
00000000
,
00000000
00000000
00000000
00000000
,
00000000
00000000
00000000
00000000
,
00000000
00000000
00000000
00000000
,
00000110
00000000
00000010
00000000
00000100
00000001
00001000
00000000
,
00000100
00000000
00000010
00000000
00000100
00001000
00010000
00000000
,
01000000
00000000
00100000
00000000
01000000
00010000
10000000
00000000
,
01000000
00000000
00100000
00000000
00010000
00001000
00000100
00000010
,
00000011
00000010
00000100
00001000
,
00000001
00000100
00001000
00000100
,
00000001
00000000
00000010
00000100
00000010
00000000
00000100
00001000
,
00000100
00000000
00010000
00001000
00010000
00000000
00001000
00100000
,
00001000
00100000
01000000
10000000
,
00100000
01000000
00010000
01000000
,
10000000
00000000
01000000
00010000
00100000
00000000
01000000
10000000
,
00100000
00000000
01000000
00010000
00100000
00000000
01000000
10000000
,
00010000
01000000
00001000
00010000
,
00001000
00000100
00000010
00000001
,
00000100
00000000
00000010
00000100
00000001
00000000
00000010
00000100
,
00001000
00000000
00000001
00000100
00000010
00000000
00001000
00000010
,
00000100
00000000
00000001
00000000
00001000
00000000
00000100
00000010
,
00000100
00000000
00001000
00000000
00000001
00000000
00001000
00000001
,
00001000
00000000
00000100
00000000
00000010
00000000
00010000
00001000
,
00020000
00000000
00002000
00033000
,
00011000
00010000
00001000
00000100
,
00000010
00000000
00000001
00000000
00000100
00000000
00000010
00000100
,
00000010
00001000
00010000
00100000
,
01000000
00000000
10000000
00000000
00100000
01000000
00010000
10000000
,
11000000
01000000
00010000
01000000
,
10000000
00100000
01000000
00010000
,
00001000
00010000
00100000
01000000
,
11000000
00000000
10000000
00000000
01000000
00010000
00001000
00000100
,
00000010
00000010
00000100
00000100
,
00001000
00001000
00000001
00000001
,
00000100
00000010
00001000
00010000
,
00100000
00000000
01000000
00000000
10000000
00010000
01000000
00100000
,
20000000
01000000
01000000
31000000
,
02000000
00010000
00010000
03010000
,
00020000
01030000
20000000
31000000
,
00100000
00010000
00002000
00003100
,
00000010
00000000
00000001
00000000
00000100
00000001
00000100
00000000
,
00000010
00000000
00001000
00000000
00000010
00000100
00000010
00000000
,
00000100
00000000
00000001
00000000
00001000
00000100
00001000
00000000
,
00000100
00000010
00000100
00000000
00010000
00001000
00100000
00000000
,
00100000
00000000
01000000
00000000
10000000
00010000
01000000
00000000
,
01000000
00000000
01000000
00000000
00100000
10000000
00010000
00000000
,
00010000
00000000
00010000
00000000
00010000
10000000
01000000
00000000
,
00010000
00000000
00001000
00000100
00000001
00000100
00002000
00000000
,
00000020
00000000
00003030
00000000
;

//--------------- dance-double - RaverAce ----------------
#NOTES:
     dance-double:
     RaverAce:
     Hard:
     14:
     0.589366,0.764294,0.112108,0.179372,0.616592,368,358,10,16,0,0,0.589366,0.764294,0.112108,0.179372,0.616592,368,358,10,16,0,0:
00000000
00000000
00000000
00000000
,
00000000
00000000
00000000
00000000
,
00000000
00000000
00000000
00000000
,
00000000
00000000
00000000
00000000
,
00000000
00000000
00000000
00000000
,
00000000
00000000
00000000
00000000
,
10010000
00000000
10000000
00000000
01000000
00010000
00000000
00001000
00000000
00000100
00000000
00000010
00000100
00000000
00000010
00000100
,
00000010
00000000
00000001
00000000
00000100
00000010
00000000
00000100
00000000
00000001
00000000
00000100
00000010
00000000
00000100
00000010
,
00000100
00000000
00000001
00000000
00000100
00001000
00000000
00010000
00000000
01000000
00000000
00100000
01000000
00000000
00100000
01000000
,
00100000
00000000
10000000
00000000
01000000
00100000
00000000
01000000
00000000
10000000
00000000
01000000
00100000
00000000
01000000
00100000
,
01000000
00000000
00000000
10000000
00000000
00000000
00100000
00000000
01000000
00000000
00000000
00010000
00000000
00000000
00100000
00000000
,
00001000
00000000
00000000
00010000
00000000
00000000
00001000
00000000
00000100
00000000
00000000
00000010
00000000
00000000
00000001
00000000
,
00000100
00000000
00000000
00000100
00000010
00000000
00000000
00000010
00010000
00000000
00000000
00010000
00001000
00000000
00000000
00001000
,
00100000
00000000
00000000
00100000
01000000
00000000
00000000
01000000
10000000
00000000
00000000
10000000
00010000
00000000
01000000
00001000
,
00010000
00000000
00000000
00000100
00000000
00000000
00001000
00000000
00000100
00000000
00000000
00000010
00000000
00000000
00000001
00000000
,
00000100
00000000
00000000
00001000
00000000
00000000
00000100
00000000
00000002
00000000
00000000
00000000
00000013
00000000
00000100
00000000
,
00001000
00000000
00000000
00001000
00000100
00000000
00000000
00000100
00010000
00000000
00000000
00010000
00001000
00000000
00000000
00001000
,
00100000
00000000
00000000
00100000
01000000
00000000
00000000
01000000
10000000
00000000
00000000
10000000
00010000
00000000
01000000
00000000
,
00001000
00000000
00010000
00000000
00001000
00000100
00000000
00000010
00000000
00000100
00000000
00001000
00000100
00000000
00000010
00000100
,
00000010
00000000
00000001
00000000
00000100
00000010
00000000
00000100
00000000
00000001
00000000
00000100
00000010
00000000
00000100
00000000
,
00000001
00000000
00000000
00001000
00000000
00000000
00000100
00000000
00010000
00000000
00000000
00100000
00000000
00000000
01000000
00000000
,
10000000
00000000
10000000
00000000
00010000
01000000
00000000
00001000
00000000
00000100
00000000
00000010
00000001
00000000
00000100
00000000
,
00000010
00000000
00000100
00000010
00000000
00000100
00000001
00000000
00001000
00000000
00000100
00000010
00000000
00000100
00001000
00000000
,
00010000
00000000
00000000
00000000
00110000
00000000
00100000
00000000
20000000
00000000
00000000
30200000
00000000
00000000
00310000
00000000
,
01000000
00000000
00000000
01001000
00000000
00000000
00010000
00000000
00000000
00001000
00010000
00000100
,
00020000
00000000
00000000
00031000
00100000
00020000
02000000
00000000
00000000
03030000
00000000
00000000
,
10010000
00000000
00000000
10000000
01000000
00000000
00000000
01000000
00010000
00000000
00000000
00010000
00001000
00000000
00000000
00001000
,
00000001
00000000
00000000
00000001
00000100
00000000
00000000
00000100
00001000
00000000
00000000
00001000
00000100
00000000
00000001
00000000
,
00000010
00001000
00000010
00000001
00000010
00000100
00001000
00000100
,
00000001
00000100
00001000
00010000
00001000
00000100
00000010
00000001
,
00001001
00000000
00000000
00000001
00000100
00000000
00000000
00000100
00001000
00000000
00000000
00001000
00010000
00000000
00000000
00010000
,
10000000
00000000
00000000
10000000
01000000
00000000
00000000
01000000
00010000
00000000
00000000
00010000
01000000
00000000
10000000
00000000
,
00100000
00010000
00100000
10000000
00100000
01000000
00010000
01000000
,
10000000
01000000
00010000
00001000
00010000
00000100
00010000
00001000
,
00201000
00000000
00000000
00000000
00010000
00000000
00000000
00000000
00010000
00000000
00000000
00000000
00310000
00000000
10000000
00010000
,
20000000
00000000
00000000
00000000
01000000
00000000
00000000
00000000
01000000
00000000
00000000
00000000
31000000
00000000
00100000
01000000
,
00100000
00000000
00100000
00010000
10000000
00000000
00010000
10000000
,
01000000
00000000
01000000
00010000
00001000
00000100
00000010
00000001
,
00001002
00000000
00000203
00000000
,
00002300
00000000
00003200
00000302
,
00000013
00000000
00000010
00000100
00002000
00000000
00013000
00100000
,
01000000
00000000
10000000
00000000
01000000
00000000
00010000
00000000
01000000
10000000
00100000
01000000
01010000
00000000
00010000
01000000
,
00010000
00000000
00100000
00001000
00100000
00000000
00010000
00001000
00010000
00000000
00001000
00000000
00000100
00000000
00000010
00000100
,
00000010
00000000
00000001
00000010
00000001
00000000
00000010
00000100
00000010
00000000
00000100
00000000
00001000
00000000
00000100
00001000
,
00000100
00000000
00010000
00001000
00010000
00000000
00000100
00010000
00000100
00000000
00000010
00000000
00000100
00000000
00000010
00000001
,
00001000
00000000
00001000
00000010
00000100
00000001
00000010
00000100
00001000
00000010
00000100
00000001
00001001
00000000
00001000
00000010
,
00001000
00000000
00000010
00010000
00000010
00000000
00001000
00010000
00001000
00000000
00010000
00000000
01000000
00000000
00100000
01000000
,
00100000
00000000
00010000
00100000
00010000
00000000
00100000
01000000
00100000
00000000
01000000
00000000
10000000
00000000
00010000
01000000
,
00010000
00000000
00100000
01000000
00100000
00000000
01000000
00001000
01000000
00000000
00100000
00000000
01000000
00000000
00100000
10000000
,
00010000
00000000
00010000
10000000
01000000
00000000
00010000
00000000
00001000
00000000
00000100
00000000
00000120
00000000
00000000
00000000
,
00000002
00000000
00000033
00000000
;
