#TITLE:IT'S SUMMERTIME;
#SUBTITLE:;
#ARTIST:RICKY. D;
#TITLETRANSLIT:;
#SUBTITLETRANSLIT:;
#ARTISTTRANSLIT:;
#GENRE:;
#CREDIT:;
#BANNER:itssummertime-bn.png;
#BACKGROUND:itssummertime-bg.png;
#LYRICSPATH:;
#CDTITLE:;
#MUSIC:itssummertime.ogg;
#OFFSET:0.031225;
#SAMPLESTART:26.635000;
#SAMPLELENGTH:10.667000;
#SELECTABLE:YES;
#BPMS:0.000000=90.000000
;
#STOPS:
;
#BGCHANGES:;
#KEYSOUNDS:;
#ATTACKS:;

//---------------dance-single - ----------------
#NOTES:
     dance-single:
     :
     Hard:
     10:
     0.369503,0.378211,0.187542,0.156285,0.187542,331.000000,307.000000,24.000000,20.000000,0.000000,0.000000,0.369503,0.378211,0.187542,0.156285,0.187542,331.000000,307.000000,24.000000,20.000000,0.000000,0.000000:
0000
0000
0000
0000
,
0000
0000
0000
0000
,
2000
0000
0000
0000
0000
0000
3010
0100
,
0002
0000
0000
0000
0000
0000
0013
1000
,
0200
0000
0300
0001
0200
0000
0300
1000
,
0200
0000
0000
0000
0300
0000
0010
0000
1000
0001
0000
1000
0001
0000
1000
0000
,
1001
0000
1000
0000
0001
0000
0000
0010
0100
0000
0001
0000
0100
0000
0000
0000
,
1100
0000
0001
0000
0100
0000
0000
0010
0001
0000
0010
0000
1000
0000
0000
0000
,
1001
0000
0001
0000
1000
0000
0000
0010
0100
0000
1000
0000
0100
0000
0000
0000
,
0101
0000
1000
0000
0100
0000
0000
0010
1000
0000
0010
0000
0001
0000
0000
0000
,
0010
0000
0100
0000
0010
0000
0001
0010
0100
0000
1000
0000
0010
0000
0000
0000
,
0100
0000
0001
0000
1000
0000
0100
0001
0100
0000
1000
0100
0010
0000
0000
0000
,
0001
1000
0001
1000
0001
0000
0100
0000
1000
0000
0010
0000
0001
0000
0000
0000
,
1000
0000
0010
0100
0001
0000
0001
0000
0000
0000
1100
0000
0010
0000
0011
0000
,
0002
0010
0000
0010
0000
1003
0100
0001
,
0020
0000
1000
0000
0000
0000
1030
0000
0010
0100
0000
0010
0100
0000
0100
0000
,
2002
0000
3003
0000
0001
0010
0100
0000
,
1000
0000
0100
0000
1000
0000
0001
0100
0010
0000
0010
0000
1010
0000
0000
0000
,
0001
0000
1000
0000
0001
0000
0010
0100
1000
0000
1000
0000
1100
0000
0000
0000
,
1000
0000
0010
0000
0001
0000
0010
0100
0001
0000
0001
0000
0101
0000
0000
0000
,
1000
0000
0001
0000
1000
0000
0010
1000
0010
1000
0010
0000
0101
0000
0000
0000
,
0001
0000
0010
0000
0001
0000
0010
0100
0010
0100
0010
0000
1100
0000
0000
0000
,
1000
0000
0100
0000
0001
0000
0100
0010
0001
0010
1000
0000
0110
0000
0000
0000
,
0001
0000
0100
0000
1000
0000
0100
0010
1000
0010
0001
0000
0110
0000
0000
0000
,
1000
0000
0010
0000
1000
0000
0001
0010
0100
0000
0100
0000
1100
0000
0000
0000
,
0001
0000
1000
0000
0001
0000
0100
0010
1000
0000
1000
0000
1010
0000
0000
0000
,
0001
0000
0010
0000
1000
0000
0010
0100
1000
0000
1000
0000
1100
0000
0000
0000
,
0001
0100
1000
0000
0220
0000
0330
0000
,
2000
0000
0010
0000
0000
0000
3010
0100
1000
0000
0100
0000
0001
0000
1000
0100
,
0020
0000
0001
0000
0000
0000
0031
1000
0010
0000
0001
0000
0010
0000
1000
0010
,
0200
0000
0300
0001
0200
0000
0300
1000
,
0200
0000
0000
0000
0300
0000
0010
0000
1000
0001
0000
1000
0001
0000
1000
0000
,
1100
0000
0100
0000
0010
0000
0001
0010
0100
0000
1000
0000
0010
0000
0000
0000
,
0100
0000
0001
0000
1000
0000
0100
0001
0100
0000
1000
0100
0010
0000
0000
0000
,
0001
1000
0001
1000
0001
0000
0100
0000
1000
0000
0010
0000
0001
0000
0000
0000
,
1000
0000
0010
0100
0001
0000
0001
0000
0000
0000
0101
0000
0010
0000
1010
0000
,
0010
0000
0100
0000
0010
0000
1000
0010
0100
0000
0001
0000
0010
0000
0000
0000
,
0100
0000
1000
0000
0001
0000
0100
1000
0100
0000
0001
0100
0010
0000
0000
0000
,
1000
0001
1000
0001
1000
0000
0100
0000
0001
0000
0010
0000
1000
0000
0000
0000
,
0001
0000
0010
0100
1000
0000
1000
0000
0000
0000
1100
0000
0010
0000
0011
0000
,
0002
0010
0000
0010
0000
1003
0100
1000
,
0020
1000
0000
1000
0000
0130
0001
0010
,
0002
1000
0000
1000
0000
1003
0100
0001
,
0020
0000
0000
0000
0000
0000
0000
0000
0130
0010
0000
0100
0010
0000
0010
0000
,
1001
0000
0000
0000
;

//---------------dance-single - ----------------
#NOTES:
     dance-single:
     :
     Medium:
     7:
     0.293593,0.309445,0.140657,0.117214,0.031257,263.000000,245.000000,18.000000,15.000000,0.000000,0.000000,0.293593,0.309445,0.140657,0.117214,0.031257,263.000000,245.000000,18.000000,15.000000,0.000000,0.000000:
0000
0000
0000
0000
,
0000
0000
0000
0000
,
2000
0000
0000
0000
0000
3000
0010
0100
,
0002
0000
0000
0000
0000
0003
0010
1000
,
0200
0000
0300
0001
0200
0000
0300
1000
,
0200
0000
0000
0000
0300
0000
0010
0000
1000
0000
0000
0001
0000
0000
1000
0000
,
1001
0000
0000
0000
0001
0000
0000
0010
0100
0000
0001
0000
0100
0000
0000
0000
,
1000
0000
0000
0000
0010
0000
0000
0100
1000
0000
0100
0000
0001
0000
0000
0000
,
1001
0000
0000
0000
1000
0000
0000
0010
0100
0000
1000
0000
0100
0000
0000
0000
,
0001
0000
0000
0000
0010
0000
0000
0100
0001
0000
0100
0000
1000
0000
0000
0000
,
0100
0010
0100
0000
1000
0001
0100
0000
,
0010
0001
0010
1000
0010
0100
0001
0000
,
1000
0001
1000
0100
0001
0010
1000
0000
,
0001
0010
1000
0010
0000
1100
0000
0101
,
0000
1000
0000
1000
0000
0010
0100
0001
,
0000
0000
0010
0000
0000
0000
0010
0000
0100
0000
0000
0100
0000
0000
0100
0000
,
2002
0000
3003
0000
1000
0100
0010
0000
,
1000
0010
0001
0010
0100
1000
1100
0000
,
0001
1000
0001
0100
0010
0100
0101
0000
,
1000
0010
0001
0010
0100
0001
0101
0000
,
1000
0100
1000
0100
0001
0100
1000
0000
,
0100
0010
0100
0010
1000
0010
0001
0000
,
1000
0010
0100
0010
0001
0010
1000
0000
,
0001
0010
0100
0010
1000
0010
0001
0000
,
1000
0001
1000
0010
0100
0010
1010
0000
,
0001
0010
1000
0010
0100
1000
1100
0000
,
0001
1000
0001
0100
0010
0100
0101
0000
,
1000
0100
0001
0000
0220
0000
0330
0000
,
2000
0000
3100
0000
0001
0100
1000
0000
,
0020
0000
0130
0000
0001
1000
0001
0010
,
0200
0000
0300
1000
0200
0000
0300
0001
,
0200
0000
0000
0000
0300
0000
0010
0000
0001
0000
0000
0001
0000
0000
0001
0000
,
0011
0010
0100
0000
1000
0001
0100
0000
,
0010
0001
0010
1000
0010
0100
0001
0000
,
1000
0001
1000
0100
0001
0010
1000
0000
,
0001
0010
1000
0010
0000
1100
0000
0101
,
0100
0010
0100
0000
0001
1000
0100
0000
,
0010
1000
0010
0001
0010
0100
1000
0000
,
0001
1000
0001
0100
1000
0010
0001
0000
,
1000
0010
0001
0010
0000
0101
0000
1100
,
0000
1000
0000
1000
0000
0010
0100
0001
,
0000
0010
0000
0010
0000
0100
1000
0001
,
0000
0100
0000
0100
0000
1000
0100
0001
,
0020
0000
0000
0000
0000
0000
0000
0000
0130
0000
0000
0100
0000
0000
0100
0000
,
1001
0000
0000
0000
;

//---------------dance-single - ----------------
#NOTES:
     dance-single:
     :
     Easy:
     5:
     0.197589,0.223488,0.031257,0.085957,0.007814,177.000000,173.000000,4.000000,11.000000,0.000000,0.000000,0.197589,0.223488,0.031257,0.085957,0.007814,177.000000,173.000000,4.000000,11.000000,0.000000,0.000000:
0000
0000
0000
0000
,
0000
0000
0000
0000
,
2000
0000
3000
0001
,
0002
0000
0003
0010
,
0100
0000
0000
0001
0100
0000
0000
1000
,
0100
0000
0000
0010
0001
0000
1000
0000
,
1010
0000
0001
0000
0010
0100
0010
0000
,
0001
0000
0100
0000
0010
1000
0010
0000
,
0101
0000
1000
0000
0100
0010
0100
0000
,
1000
0000
0010
0000
0100
0001
0100
0000
,
0001
0000
0010
0000
1000
0010
0001
0000
,
1000
0000
0010
0000
0100
0001
1000
0000
,
0001
0010
1000
0100
,
0001
0000
1000
0000
0100
0100
0100
0000
,
0020
0000
0030
0001
,
2000
0000
0000
0000
0000
0000
0000
0000
3010
0000
0000
0010
0000
0000
0010
0000
,
2002
0000
3003
0000
0001
0010
0100
0000
,
1000
0000
1000
0000
0001
0100
1000
0000
,
0100
0000
0010
0000
1000
0010
0001
0000
,
0010
0000
1000
0000
0001
0010
0100
0000
,
1000
0010
0001
0100
,
1000
0001
0010
0010
,
0001
0010
1000
0100
,
0001
1000
0010
0010
,
0100
0000
0001
0000
1000
0100
0010
0000
,
0001
0000
0001
0000
1000
0010
0001
0000
,
0010
0000
0100
0000
0001
0100
1000
0000
,
0100
0001
2000
3000
,
0010
0000
0010
0000
,
0100
0000
0001
0000
1000
0000
0000
0100
,
0001
0000
0000
0100
1000
0000
0000
0100
,
0010
0000
0000
0001
1000
0000
0000
0001
,
0010
0000
0100
0000
0001
0100
1000
0000
,
0001
0000
0100
0000
0010
1000
0001
0000
,
1000
0100
0001
0010
,
1000
0000
0010
0000
0100
0100
0100
0000
,
0001
0000
0100
0000
1000
0100
0001
0000
,
1000
0000
0100
0000
0010
0001
1000
0000
,
0001
0100
1000
0010
,
0001
0000
0010
0000
0100
0100
0100
0000
,
2000
0000
3000
0001
,
0002
0000
0003
0100
,
0200
0000
0300
0010
,
0020
0000
0000
0000
0000
0000
0000
0000
0130
0000
0000
0100
0000
0000
0100
0000
,
1001
0000
0000
0000
;

//---------------dance-single - ----------------
#NOTES:
     dance-single:
     :
     Beginner:
     2:
     0.106051,0.120340,0.023443,0.070328,0.000000,95.000000,92.000000,3.000000,9.000000,0.000000,0.000000,0.106051,0.120340,0.023443,0.070328,0.000000,95.000000,92.000000,3.000000,9.000000,0.000000,0.000000:
// measure 0
0000
0000
0000
0000
,  // measure 1
0000
0000
0000
0000
,  // measure 2
2000
0000
3000
0000
,  // measure 3
0002
0000
0003
0000
,  // measure 4
1000
0000
0100
0000
,  // measure 5
0001
0000
0100
0000
,  // measure 6
1001
0000
0000
1000
,  // measure 7
0001
0000
0000
0010
,  // measure 8
0100
0000
1000
0000
,  // measure 9
0001
0000
0100
0000
,  // measure 10
0000
0010
0010
0010
,  // measure 11
0000
0100
0100
0100
,  // measure 12
0000
0001
1000
0001
,  // measure 13
0000
0010
0010
0010
,  // measure 14
0002
0000
0003
0000
,  // measure 15
2000
0000
3000
0000
,  // measure 16
1001
0000
0001
0000
,  // measure 17
0100
0000
0010
0000
,  // measure 18
1000
0000
0010
0000
,  // measure 19
0100
0000
0001
0000
,  // measure 20
1000
1000
1000
0000
,  // measure 21
0001
0001
0001
0000
,  // measure 22
0100
0100
0100
0000
,  // measure 23
0010
0010
0010
0000
,  // measure 24
1000
0000
0001
0000
,  // measure 25
0010
0000
0100
0000
,  // measure 26
1000
0000
0100
0000
,  // measure 27
0010
0000
0001
0000
,  // measure 28
2000
0000
0000
3000
,  // measure 29
0010
0000
0100
0000
,  // measure 30
0001
0000
0100
0000
,  // measure 31
1000
0000
0100
0000
,  // measure 32
0000
0010
0010
0010
,  // measure 33
0000
0100
0100
0100
,  // measure 34
0000
0001
1000
0001
,  // measure 35
0000
0010
0010
0010
,  // measure 36
0000
0100
0100
0100
,  // measure 37
0000
0010
0010
0010
,  // measure 38
0000
0001
1000
0001
,  // measure 39
0000
0100
0100
0100
,  // measure 40
0002
0000
0003
0000
,  // measure 41
2000
0000
3000
0000
,  // measure 42
0020
0000
0030
0000
,  // measure 43
0200
0000
0300
0000
,  // measure 44
1001
0000
0000
0000
;
