#VERSION:0.83;
#TITLE:IT'S SUMMERTIME;
#SUBTITLE:;
#ARTIST:RICKY D. feat. JANINA;
#TITLETRANSLIT:;
#SUBTITLETRANSLIT:;
#ARTISTTRANSLIT:;
#GENRE:;
#ORIGIN:;
#CREDIT:;
#BANNER:IT'S SUMMERTIME.png;
#BACKGROUND:IT'S SUMMERTIME-bg.png;
#PREVIEWVID:;
#JACKET:IT'S SUMMERTIME-jacket.png;
#CDIMAGE:;
#DISCIMAGE:;
#LYRICSPATH:;
#CDTITLE:cdtitle.png;
#MUSIC:IT'S SUMMERTIME.ogg;
#OFFSET:0.010000;
#SAMPLESTART:58.222282;
#SAMPLELENGTH:15.000000;
#SELECTABLE:YES;
#BPMS:0.000=90.010;
#STOPS:;
#DELAYS:;
#WARPS:;
#TIMESIGNATURES:0.000=4=4;
#TICKCOUNTS:0.000=4;
#COMBOS:0.000=1;
#SPEEDS:0.000=1.000=0.000=0;
#SCROLLS:0.000=1.000;
#FAKES:;
#LABELS:0.000=Song Start;
#BGCHANGES:;
#KEYSOUNDS:;
#ATTACKS:
;

//---------------dance-single - ----------------
#NOTEDATA:;
#CHARTNAME:;
#STEPSTYPE:dance-single;
#DESCRIPTION:;
#CHARTSTYLE:;
#DIFFICULTY:Easy;
#METER:4;
#RADARVALUES:0.149936,0.178423,0.031486,0.000000,0.000000,100.000000,97.000000,3.000000,0.000000,0.000000,0.000000,0.000000,0.000000,0.000000,0.149936,0.178423,0.031486,0.000000,0.000000,100.000000,97.000000,3.000000,0.000000,0.000000,0.000000,0.000000,0.000000,0.000000;
#CREDIT:;
#NOTES:
0000
0000
0000
0000
,
0000
0000
0000
0000
,
0000
0000
0000
0000
,
0000
0000
0000
0000
,
1000
0000
0001
0000
,
1000
0000
0010
0010
,
0100
0001
0100
0010
,
0100
0001
0100
0010
,
1000
0001
1000
0100
,
1000
0001
1000
1000
,
0001
0010
0001
0000
,
1000
0001
1000
0000
,
0010
0010
0100
0000
,
0001
0100
0001
0000
,
1000
0100
1000
0001
,
1000
0100
1000
0001
,
0010
0100
0010
0000
,
0001
1000
0001
1001
,
1000
0000
0000
0000
,
0001
0000
0100
0000
,
0001
0010
0100
1000
,
0001
0000
0100
0100
,
0001
1001
1000
0010
,
1000
0100
0010
0001
,
1000
0001
1000
0010
,
1000
0000
0000
0001
0000
0001
0000
0001
,
0000
0110
0000
0000
1000
0000
0010
0000
,
1000
0001
0100
0000
,
0001
0100
0001
1000
,
0001
0000
0010
0010
,
0100
0000
0000
0000
,
1000
0000
0001
0000
,
1000
0000
0010
0100
,
0010
0000
0100
0001
,
0100
0000
0000
0000
;

//---------------dance-single - ----------------
#NOTEDATA:;
#CHARTNAME:;
#STEPSTYPE:dance-single;
#DESCRIPTION:;
#CHARTSTYLE:;
#DIFFICULTY:Medium;
#METER:6;
#RADARVALUES:0.235399,0.285477,0.073468,0.000000,0.020991,157.000000,150.000000,7.000000,0.000000,0.000000,0.000000,0.000000,0.000000,0.000000,0.235399,0.285477,0.073468,0.000000,0.020991,157.000000,150.000000,7.000000,0.000000,0.000000,0.000000,0.000000,0.000000,0.000000;
#CREDIT:;
#NOTES:
0000
0000
0000
0000
,
0000
0000
0000
0000
,
0000
0000
0000
0000
,
0000
0000
0000
0000
,
0001
0100
0001
0100
,
0001
0000
0000
0000
1000
0000
0000
0000
0001
0000
0000
0001
0000
0000
0001
0000
,
1000
0010
1000
0100
,
1000
0010
1000
0001
,
0010
0001
0100
0001
,
0010
0000
0000
0000
0100
0000
0000
0000
1000
0000
0000
1000
0000
0000
1000
0000
,
0010
0000
1000
0100
0010
0100
1000
0000
,
0100
0000
0010
0000
0001
0010
0100
0000
,
1001
0000
1000
0001
1000
0000
0010
0000
,
1000
0000
0001
0000
1000
0100
1000
0100
,
1000
0000
0001
0000
0100
0000
0001
0010
,
1000
0010
0001
0000
0100
0000
0001
0000
,
1000
0000
0001
0000
1000
0100
1000
0000
,
0010
1000
0001
1001
,
0100
0100
0001
0000
0100
0000
0010
0000
,
1000
1000
0001
0000
0100
0000
0010
0000
,
1000
0000
0001
0000
0010
0000
0100
1000
,
1000
0000
0000
0000
0000
0000
0000
0000
0010
0000
0000
0010
0000
0000
0010
0000
,
0100
0000
1001
0000
0010
0100
0010
0100
,
0010
0000
0001
0010
0001
0010
0011
0000
,
1000
0010
1000
0010
1000
0000
1001
0000
,
0001
0010
0001
0010
0000
0010
0000
0010
,
0000
0110
1001
0000
1000
0100
0010
0000
,
0001
1000
0001
1000
0001
0000
1000
0010
,
1000
0000
0001
0000
0010
0000
0001
1000
,
0001
0000
0000
0000
0000
0000
0000
0000
0100
0000
0000
0100
0000
0000
0100
0000
,
0001
0000
0100
0000
0010
0000
1000
0100
,
1000
0000
0100
0000
0010
0000
0001
0100
,
0001
1000
0001
0100
,
0001
0010
0001
1000
,
0001
0000
0000
0000
;

//---------------dance-single - ----------------
#NOTEDATA:;
#CHARTNAME:;
#STEPSTYPE:dance-single;
#DESCRIPTION:;
#CHARTSTYLE:;
#DIFFICULTY:Hard;
#METER:10;
#RADARVALUES:0.361345,0.392531,0.146937,0.000000,0.110203,241.000000,227.000000,14.000000,0.000000,0.000000,0.000000,0.000000,0.000000,0.000000,0.361345,0.392531,0.146937,0.000000,0.110203,241.000000,227.000000,14.000000,0.000000,0.000000,0.000000,0.000000,0.000000,0.000000;
#CREDIT:;
#NOTES:
// measure 0
0000
0000
0000
0000
,  // measure 1
0000
0000
0000
0000
,  // measure 2
0000
0000
0000
0000
,  // measure 3
0000
0000
0000
0000
,  // measure 4
0001
0000
0100
0000
0001
0000
1000
0100
,  // measure 5
0010
0000
0000
0000
0000
0000
0000
0000
0001
1000
0000
0001
1000
0000
0001
0000
,  // measure 6
1000
0010
1000
0100
1000
0010
1000
0100
,  // measure 7
1000
0001
1000
0010
1000
0001
1000
0010
,  // measure 8
1000
0100
1000
0001
1000
0100
1000
0001
,  // measure 9
1000
0000
0100
0000
1000
0000
0010
0000
1000
0001
0000
1000
0001
0000
1000
0000
,  // measure 10
0001
0000
1000
0010
0100
0010
1000
0100
,  // measure 11
0001
0100
1000
0000
0001
1000
1001
0000
,  // measure 12
0110
0000
1000
0010
0001
0010
1000
0001
,  // measure 13
1000
0010
1000
0001
1000
0000
0001
1000
0001
0000
0010
0000
0100
0000
0100
0000
,  // measure 14
0100
0000
0000
0100
1000
0001
0000
1000
0001
0000
0100
0000
0010
0000
0001
0000
,  // measure 15
0010
0000
0100
0000
0010
0000
1000
0100
1000
0000
0100
0000
0010
0000
0001
0000
,  // measure 16
1000
0000
1100
0000
0001
0000
0000
0000
1000
0000
0001
0000
1000
0000
0000
1000
,  // measure 17
0010
0100
0010
1000
0010
0100
1001
0000
,  // measure 18
0010
0000
0010
0000
0010
0000
1000
0000
0001
0000
0001
0000
0001
0000
1000
0001
,  // measure 19
1000
0000
1000
0000
0001
0000
0001
0000
0100
0000
0010
0000
0100
0000
0010
0100
,  // measure 20
0010
0000
0000
0000
0010
0000
0000
0000
1000
0000
0000
0000
0001
0000
1000
0001
,  // measure 21
1000
0000
0000
0000
0000
0000
0000
0000
0010
0100
0000
0010
0100
0000
0010
0000
,  // measure 22
1000
0000
0001
0000
1001
0000
0000
1000
0001
0000
0010
0000
0100
0000
1001
0000
,  // measure 23
1000
0100
0010
0000
0001
0000
0100
0000
0010
0000
1000
0000
0110
0000
1001
0000
,  // measure 24
0001
0010
1000
0010
0001
0010
1001
0000
,  // measure 25
1000
0100
0001
0100
1000
0100
0000
0100
,  // measure 26
0000
0110
1001
0000
0001
1000
0010
0100
,  // measure 27
0001
0010
0001
0010
0100
1000
0010
1000
,  // measure 28
0001
0100
0001
1000
0001
0010
0001
1000
,  // measure 29
0011
0000
0000
0000
0000
0000
0000
0000
1000
0001
0000
1000
0001
0000
1000
0000
,  // measure 30
0001
0001
0001
1000
0010
0010
0010
0100
,  // measure 31
0010
1000
0010
0100
0010
1000
0010
0100
,  // measure 32
0011
0000
0010
0100
1000
0010
0100
0001
,  // measure 33
0011
0000
0010
0001
0010
0100
0010
0001
,  // measure 34
0100
0000
0000
0000
;
