#VERSION:0.83;
#TITLE:以心伝心;
#SUBTITLE:;
#ARTIST:Little Blue boX;
#TITLETRANSLIT:ISHINDENSHIN;
#SUBTITLETRANSLIT:;
#ARTISTTRANSLIT:;
#GENRE:LBX ROCK;
#ORIGIN:;
#CREDIT:;
#BANNER:ISHINDENSHIN.png;
#BACKGROUND:ISHINDENSHIN-bg.png;
#PREVIEWVID:;
#JACKET:ISHINDENSHIN-jacket.png;
#CDIMAGE:;
#DISCIMAGE:;
#LYRICSPATH:;
#CDTITLE:cdtitle.png;
#MUSIC:ISHINDENSHIN.ogg;
#OFFSET:-0.017000;
#SAMPLESTART:50.686001;
#SAMPLELENGTH:15.000000;
#SELECTABLE:YES;
#BPMS:0.000=220.000;
#STOPS:;
#DELAYS:;
#WARPS:;
#TIMESIGNATURES:0.000=4=4;
#TICKCOUNTS:0.000=4;
#COMBOS:0.000=1;
#SPEEDS:0.000=1.000=0.000=0;
#SCROLLS:0.000=1.000;
#FAKES:;
#LABELS:0.000=Song Start;
#BGCHANGES:0.000=ISHINDENSHIN.avi=1.000=0=0=0=StretchNoLoop==CrossFade_Fastest==,
99999=-nosongbg-=1.000=0=0=0 // don't automatically add -songbackground-
;
#KEYSOUNDS:;
#ATTACKS:
;

//---------------dance-single - Daff_4K----------------
#NOTEDATA:;
#CHARTNAME:Daff_4K;
#STEPSTYPE:dance-single;
#DESCRIPTION:Daff_4K;
#CHARTSTYLE:;
#DIFFICULTY:Beginner;
#METER:2;
#RADARVALUES:0.102502,0.175849,0.070575,0.000000,0.000000,61.000000,55.000000,6.000000,0.000000,0.000000,0.000000,0.000000,0.000000,0.000000,0.102502,0.175849,0.070575,0.000000,0.000000,61.000000,55.000000,6.000000,0.000000,0.000000,0.000000,0.000000,0.000000,0.000000;
#CREDIT:Daff_4K;
#NOTES:
0000
0000
0000
0000
,
0000
0000
0000
0000
,
0000
0000
0000
0000
,
0000
0000
0000
0000
,
0000
0000
0000
0000
,
0000
0000
0000
0000
,
0000
0000
0000
0000
,
1000
0000
0000
0000
,
0010
0000
0000
0000
,
0100
0000
0000
0000
,
0001
0000
0000
0000
,
1001
0000
0000
0000
,
0000
0000
0000
0000
,
0000
0000
0000
0000
,
0000
0000
0000
0000
,
1000
0000
0000
0000
,
0010
0000
0000
0000
,
1000
0000
0000
0000
,
0001
0000
0000
0000
,
0010
0000
0000
0000
,
0100
0000
0000
0000
,
1000
0000
0000
0000
,
1000
0000
0000
0000
,
0001
0000
0000
0000
,
0010
0000
0000
0000
,
0001
0000
0000
0000
,
1000
0000
0000
0000
,
0010
0000
0000
0000
,
0100
0000
0000
0000
,
0010
0000
0000
0000
,
0000
0000
0000
0000
,
1001
0000
0000
0000
,
0000
0000
0000
0000
,
0100
0000
0000
0000
,
0010
0000
0000
0000
,
0100
0000
0000
0000
,
0000
0000
0000
0000
,
1000
0000
0000
0000
,
0000
0000
0000
0000
,
1001
0000
0000
0000
,
0000
0000
0000
0000
,
0100
0000
0000
0000
,
0010
0000
0000
0000
,
0100
0000
0000
0000
,
0100
0000
0000
0000
,
1000
0000
0000
0000
,
0001
0000
0000
0000
,
1001
0000
0000
0000
,
0000
0000
0000
0000
,
1000
0000
0000
0000
,
0010
0000
0000
0000
,
1000
0000
0000
0000
,
0000
0000
0000
0000
,
0001
0000
0000
0000
,
1000
0000
0000
0000
,
1001
0000
0000
0000
,
0000
0000
0000
0000
,
0001
0000
0000
0000
,
0010
0000
0000
0000
,
0001
0000
0000
0000
,
0000
0000
0000
0000
,
1000
0000
0000
0000
,
0001
0000
0000
0000
,
1000
0000
0000
0000
,
0000
0000
0000
0000
,
0100
0000
0000
0000
,
0010
0000
0000
0000
,
0001
0000
0000
0000
,
1000
0000
0000
0000
,
1001
0000
0000
0000
,
0000
0000
0000
0000
,
0001
0000
0000
0000
,
1000
0000
0000
0000
,
0010
0000
0000
0000
,
0100
0000
0000
0100
;

//---------------dance-single - Daff_4K----------------
#NOTEDATA:;
#CHARTNAME:Daff_4K;
#STEPSTYPE:dance-single;
#DESCRIPTION:Daff_4K;
#CHARTSTYLE:;
#DIFFICULTY:Easy;
#METER:4;
#RADARVALUES:0.181478,0.219812,0.070575,0.152912,0.000000,108.000000,102.000000,6.000000,13.000000,0.000000,0.000000,0.000000,0.000000,0.000000,0.181478,0.219812,0.070575,0.152912,0.000000,108.000000,102.000000,6.000000,13.000000,0.000000,0.000000,0.000000,0.000000,0.000000;
#CREDIT:Daff_4K;
#NOTES:
0000
0000
0000
0000
,
0000
0000
0000
0000
,
0000
0000
0000
0000
,
0000
0000
0000
0000
,
0000
0000
0000
0000
,
0000
0000
0000
0000
,
0000
0000
0000
0000
,
1000
0000
0010
0000
,
1000
0000
0000
0000
,
0001
0000
0010
0000
,
0001
0000
0000
0000
,
1001
0000
0000
0000
,
1000
0000
0100
0000
,
0010
0000
0000
0000
,
0001
0000
0100
0000
,
0010
0000
0000
0000
,
0010
0000
1000
0000
,
0001
0000
0000
0000
,
1000
0000
0100
0000
,
0010
0000
0000
0000
,
0001
0000
1000
0000
,
0010
0000
0000
0000
,
0100
0000
0001
0000
,
0010
0000
0000
0000
,
0010
0000
0001
0000
,
1000
0000
0000
0000
,
0001
0000
0100
0000
,
0010
0000
0000
0000
,
1000
0000
0001
0000
,
0010
0000
0000
0000
,
0100
0000
1000
0000
,
0002
0000
0003
0000
,
1000
0000
0100
0000
,
0020
0000
0000
0000
,
0130
0000
0000
0000
,
2000
0000
3000
0000
,
0001
0000
0100
0000
,
0020
0000
0030
0000
,
1000
0000
0001
0000
,
2000
0000
3000
0000
,
0001
0000
0100
0000
,
0020
0000
0000
0000
,
0130
0000
0000
0000
,
0110
0000
0000
0000
,
1001
0000
0000
0000
,
0100
0000
0010
0000
,
0100
0000
0000
0000
,
1001
0000
0000
0000
,
1000
0000
0001
0000
,
0200
0000
0310
0000
,
2000
0000
3001
0000
,
1000
0000
0100
0000
,
0001
0000
0000
0000
,
0001
0000
0100
0000
,
1000
0000
0000
0000
,
1001
0000
0000
0000
,
0001
0000
1000
0000
,
0200
0000
0310
0000
,
0002
0000
1003
0000
,
0001
0000
0100
0000
,
1000
0000
0000
0000
,
1000
0000
0100
0000
,
0001
0000
0000
0000
,
1000
0000
1000
0000
,
0001
0000
0001
0000
,
0010
0000
0100
0000
,
0020
0000
0030
0000
,
0001
0000
0001
0000
,
1000
0000
1000
0000
,
0020
0000
0000
0000
,
0130
0000
0000
0000
,
1001
0000
0000
0000
,
1000
0000
0100
0000
,
0001
0000
0000
0000
,
0200
0000
0000
0310
;

//---------------dance-single - Daff_4K----------------
#NOTEDATA:;
#CHARTNAME:Daff_4K;
#STEPSTYPE:dance-single;
#DESCRIPTION:Daff_4K;
#CHARTSTYLE:;
#DIFFICULTY:Medium;
#METER:8;
#RADARVALUES:0.364637,0.444034,0.141150,0.494025,0.117625,217.000000,205.000000,12.000000,42.000000,0.000000,0.000000,0.000000,0.000000,0.000000,0.364637,0.444034,0.141150,0.494025,0.117625,217.000000,205.000000,12.000000,42.000000,0.000000,0.000000,0.000000,0.000000,0.000000;
#CREDIT:Daff_4K;
#NOTES:
// measure 0
0000
0000
0000
0000
,  // measure 1
0000
0000
0000
0000
,  // measure 2
0000
0000
0000
0000
,  // measure 3
0000
0000
0000
0000
,  // measure 4
0000
0000
0000
0000
,  // measure 5
0000
0000
0000
0000
,  // measure 6
0000
0000
0000
0000
,  // measure 7
1000
0010
1000
0000
,  // measure 8
0001
0010
0001
0000
,  // measure 9
0100
0010
0100
0000
,  // measure 10
0001
0000
1000
0000
,  // measure 11
0001
0000
0000
0010
0000
0000
0001
0000
0000
0000
0000
0100
,  // measure 12
0000
0000
0010
0000
0000
1000
0002
0000
0000
0003
0000
0000
,  // measure 13
1000
0000
0000
0010
0000
0000
1000
0000
0000
0000
0000
0100
,  // measure 14
0000
0000
0010
0000
0000
0001
2000
0000
0000
3000
0000
0000
,  // measure 15
0001
0100
0010
0100
,  // measure 16
0002
0000
0000
0000
0000
1003
0000
0000
0000
0000
0000
0000
,  // measure 17
0001
0010
0100
1000
,  // measure 18
0020
0000
0000
0000
0000
0130
0000
0000
0000
0000
0000
0000
,  // measure 19
0001
1000
0100
0010
,  // measure 20
0002
0000
0000
0000
0000
0103
0000
0000
0010
0000
0000
0000
,  // measure 21
1000
0000
1100
0000
,  // measure 22
0001
0000
0101
0000
,  // measure 23
1000
0100
0010
0100
,  // measure 24
2000
0000
0000
0000
0000
3001
0000
0000
0000
0000
0000
0000
,  // measure 25
1000
0010
0100
0001
,  // measure 26
0020
0000
0000
0000
0000
0130
0000
0000
0000
0000
0000
0000
,  // measure 27
1000
0001
0100
0010
,  // measure 28
2000
0000
0000
0000
0000
3100
0000
0000
0010
0000
0000
0200
,  // measure 29
0000
0000
0010
0000
,  // measure 30
0310
0000
0001
1000
,  // measure 31
0020
0000
0130
0001
,  // measure 32
0010
1000
0010
0001
,  // measure 33
0200
0000
0320
0000
,  // measure 34
2030
0000
3001
0010
,  // measure 35
0200
0000
1300
0010
,  // measure 36
0100
0001
0010
0100
,  // measure 37
1000
0001
0100
0010
,  // measure 38
0100
0010
1000
0001
,  // measure 39
0020
0000
0130
1000
,  // measure 40
0010
0001
0010
1000
,  // measure 41
0200
0000
0320
0000
,  // measure 42
0032
0000
1003
0010
,  // measure 43
0110
0220
0330
0000
,  // measure 44
1001
2002
3003
0000
,  // measure 45
1000
0100
0010
0001
,  // measure 46
0100
0000
0010
0000
,  // measure 47
1001
0000
1000
0100
,  // measure 48
0010
0100
1000
0010
,  // measure 49
0200
0000
0302
0000
,  // measure 50
2003
0000
3200
0000
,  // measure 51
1300
0010
0001
0010
,  // measure 52
2000
0000
3001
0000
,  // measure 53
1000
0100
0010
0001
,  // measure 54
0200
0000
0310
0000
,  // measure 55
1001
0000
0001
0100
,  // measure 56
0010
0100
0001
0010
,  // measure 57
0200
0000
2300
0000
,  // measure 58
3002
0000
0203
0000
,  // measure 59
0301
0010
1000
0010
,  // measure 60
0002
0000
1003
0000
,  // measure 61
0001
0100
0010
1000
,  // measure 62
0200
0000
0310
0000
,  // measure 63
1002
0000
0103
0010
,  // measure 64
2000
0000
3100
0010
,  // measure 65
0001
0100
1000
0100
,  // measure 66
0020
0000
0130
0000
,  // measure 67
2001
0000
3100
0010
,  // measure 68
0002
0000
0103
0010
,  // measure 69
2000
0000
3001
0000
,  // measure 70
0110
0000
1001
0000
,  // measure 71
0001
0000
0000
0100
0000
0000
0001
0000
0000
0000
0000
0010
,  // measure 72
0000
0000
0100
0000
0000
0010
0002
0000
0000
0003
0000
0000
,  // measure 73
1000
0100
1000
0000
,  // measure 74
0001
0000
1000
0001
0000
1000
0001
0000
0000
0200
0000
0000
,  // measure 75
0000
0000
0300
0000
;

//---------------dance-single - Daff_4K----------------
#NOTEDATA:;
#CHARTNAME:Daff_4K;
#STEPSTYPE:dance-single;
#DESCRIPTION:Daff_4K;
#CHARTSTYLE:;
#DIFFICULTY:Hard;
#METER:13;
#RADARVALUES:0.591485,0.799261,0.940999,1.023337,0.288181,352.000000,272.000000,80.000000,87.000000,0.000000,0.000000,0.000000,0.000000,0.000000,0.591485,0.799261,0.940999,1.023337,0.288181,352.000000,272.000000,80.000000,87.000000,0.000000,0.000000,0.000000,0.000000,0.000000;
#CREDIT:Daff_4K;
#NOTES:
// measure 0
0000
0000
0000
0000
,  // measure 1
0000
0000
0000
0000
,  // measure 2
0000
0000
0000
0000
,  // measure 3
0000
0000
0000
0000
,  // measure 4
0000
0000
0000
0000
,  // measure 5
0000
0000
0000
0000
,  // measure 6
0000
0000
0000
0000
,  // measure 7
2000
0010
0100
0010
,  // measure 8
3002
0010
0100
0010
,  // measure 9
2003
0100
3002
0100
,  // measure 10
1003
0000
0000
0001
0000
0000
0010
0000
0100
0010
0000
0001
,  // measure 11
1000
0000
0000
0010
0000
0000
0101
0000
0000
0001
0000
1000
,  // measure 12
0000
0000
0100
0000
0000
0010
0200
0000
0000
1300
0000
0000
,  // measure 13
0001
0000
0000
0010
0000
0000
1100
0000
0000
1000
0000
0001
,  // measure 14
0000
0000
0100
0000
0000
0010
0200
0000
0000
0301
0000
1000
,  // measure 15
0001
1100
0010
0101
,  // measure 16
0220
0000
0000
0330
0000
2002
0000
0000
3003
0000
0000
0100
,  // measure 17
1000
0011
0100
1010
,  // measure 18
2200
0000
0000
3300
0000
0022
0000
0000
0033
0000
0000
0001
,  // measure 19
1000
0101
0010
1100
,  // measure 20
0220
0000
0000
0330
0000
1001
0000
0000
1000
0001
0000
0000
,  // measure 21
0202
0303
2020
3030
,  // measure 22
0220
0000
0000
0330
0000
1001
0000
0000
1000
0001
0000
0001
,  // measure 23
1000
0101
0010
1100
,  // measure 24
0220
0000
0000
0330
0000
2002
0000
0000
3003
0000
0000
0100
,  // measure 25
0001
1010
0100
0011
,  // measure 26
0202
0000
0000
0303
0000
2020
0000
0000
3030
0000
0000
1000
,  // measure 27
0001
1100
0010
0101
,  // measure 28
0220
0000
0000
0330
0000
1001
0000
0000
0001
1000
0000
0000
,  // measure 29
2200
3300
0022
0033
,  // measure 30
0101
0000
0000
1010
0000
0000
1000
0000
0001
1000
0000
0001
,  // measure 31
0020
0000
0000
0000
0000
0100
0000
0000
0000
1030
0000
0000
,  // measure 32
0010
0001
0100
0010
,  // measure 33
2000
0000
0000
0000
0000
0001
0000
0000
0000
3100
0000
0000
,  // measure 34
0020
0000
0000
0000
0000
0000
0031
0000
1000
0001
0000
0000
,  // measure 35
0200
0000
0000
0000
0000
1000
0000
0000
0000
0310
0000
0000
,  // measure 36
1000
0100
0010
0001
,  // measure 37
1000
1010
0001
0011
,  // measure 38
1000
0000
0000
0110
0000
0000
0001
0000
1000
0001
0000
1000
,  // measure 39
0020
0000
0000
0000
0000
0100
0000
0000
0000
0031
0000
0000
,  // measure 40
0010
1000
0100
0010
,  // measure 41
0002
0100
2003
0100
,  // measure 42
3020
0000
0000
0100
0000
0000
1030
0000
0001
1000
0000
0000
,  // measure 43
0011
2200
3300
0000
,  // measure 44
1010
0202
0303
0000
,  // measure 45
0012
0103
2010
3100
,  // measure 46
2002
3003
0100
0010
,  // measure 47
2002
3003
1000
0001
,  // measure 48
1100
0010
0101
1000
,  // measure 49
0012
0100
2003
0010
,  // measure 50
3200
0001
0320
0031
,  // measure 51
0201
1000
0010
0301
,  // measure 52
0021
1000
0100
0031
,  // measure 53
2001
3010
0102
1003
,  // measure 54
0001
0000
0100
0010
0000
0100
0001
0000
1000
0100
0000
0000
,  // measure 55
2002
3003
0001
1000
,  // measure 56
0101
0010
1100
0001
,  // measure 57
2010
0100
3002
0010
,  // measure 58
0203
1000
0320
1030
,  // measure 59
1200
0001
0010
1300
,  // measure 60
1020
0001
0100
1030
,  // measure 61
1002
0013
2100
3001
,  // measure 62
1000
0000
0100
0010
0000
0100
1000
0000
0001
0100
0000
0000
,  // measure 63
2010
0001
0100
3001
,  // measure 64
0012
1000
0100
1003
,  // measure 65
0012
0103
2010
3100
,  // measure 66
0120
0031
0120
1030
,  // measure 67
1001
1100
1010
0110
,  // measure 68
1001
0101
0011
0110
,  // measure 69
2002
0000
0000
3003
,  // measure 70
0220
0330
2002
3003
,  // measure 71
1000
0000
0000
0001
0000
0000
1100
0000
0000
1000
0000
0001
,  // measure 72
0000
0000
0100
0000
0000
0010
2000
0000
0000
3100
0000
0010
,  // measure 73
0001
0000
0000
1000
0000
0000
0101
0000
0000
0001
0000
1000
,  // measure 74
0100
1000
0100
0010
0001
0010
0001
0000
0000
2002
0000
0000
,  // measure 75
0000
0000
3003
0000
;

//---------------dance-single - Daff_4K -Vモード-----------------
#NOTEDATA:;
#CHARTNAME:Daff_4K -Vモード-;
#STEPSTYPE:dance-single;
#DESCRIPTION:Daff_4K -Vモード-;
#CHARTSTYLE:;
#DIFFICULTY:Challenge;
#METER:16;
#RADARVALUES:0.769603,0.888068,0.952762,0.964524,0.764562,458.000000,377.000000,81.000000,82.000000,0.000000,0.000000,0.000000,0.000000,0.000000,0.769603,0.888068,0.952762,0.964524,0.764562,458.000000,377.000000,81.000000,82.000000,0.000000,0.000000,0.000000,0.000000,0.000000;
#CREDIT:Daff_4K -Vモード-;
#NOTES:
// measure 0
0000
0000
0000
0000
,  // measure 1
0000
0000
0000
0000
,  // measure 2
0000
0000
0000
0000
,  // measure 3
0000
0000
0000
0000
,  // measure 4
0000
0000
0000
0000
,  // measure 5
0000
0000
0000
0000
,  // measure 6
0000
0000
0000
0000
,  // measure 7
2001
0010
0100
0010
,  // measure 8
3002
0010
0100
0010
,  // measure 9
2003
0100
3002
0100
,  // measure 10
1003
0000
0001
0010
0000
0100
1000
0001
1000
0001
0000
0000
,  // measure 11
1010
0000
0000
0101
0000
0000
1001
0000
0000
1000
0000
0100
,  // measure 12
0010
0000
0100
1000
0000
0010
0200
0000
0000
0301
0000
0000
,  // measure 13
0011
0000
0000
1100
0000
0000
1001
0000
0000
0001
0000
0100
,  // measure 14
0010
0000
0100
0001
0000
0010
0200
0000
0000
1300
0000
0001
,  // measure 15
2000
3010
0102
0013
,  // measure 16
2100
0000
0000
3010
0000
0200
0000
0000
0301
0010
0000
0100
,  // measure 17
0010
0000
0001
1000
0000
0001
0100
0000
0010
1000
0000
0000
,  // measure 18
1200
0000
0000
0310
0000
0002
0000
0000
1003
0010
0000
0100
,  // measure 19
0010
0000
1000
0001
0000
1000
0100
0000
0010
0001
0000
0000
,  // measure 20
2100
0000
0000
3001
0000
0200
0000
0000
0310
1000
0000
1000
,  // measure 21
0002
0013
2100
3010
,  // measure 22
1002
0000
0000
0013
0000
0100
0010
0000
0001
1000
0000
1000
,  // measure 23
0002
0013
2100
3010
,  // measure 24
0102
0000
0000
0013
0000
0200
0000
0000
1300
0010
0000
0100
,  // measure 25
0010
0000
1000
0001
0000
1000
0100
0000
0010
0001
0000
0000
,  // measure 26
0201
0000
0000
0310
0000
2000
0000
0000
3001
0010
0000
0100
,  // measure 27
0010
0000
0001
1000
0000
0001
0100
0000
0010
1000
0000
0000
,  // measure 28
0102
0000
0000
1003
0000
0200
0000
0000
0310
0001
0000
0001
,  // measure 29
2000
3010
0102
0013
,  // measure 30
2001
0000
0000
3010
0000
0100
0010
0000
1000
0001
1000
0002
,  // measure 31
0020
0000
0000
0033
0000
2200
0000
3300
0000
1020
0000
0000
,  // measure 32
0031
1200
0301
0110
,  // measure 33
2002
0000
0000
3003
0000
0022
0000
0033
0000
1100
0000
0000
,  // measure 34
2002
0000
0000
3003
0000
0001
0100
0000
0010
0100
0000
0002
,  // measure 35
2000
0000
0000
3003
0000
2200
0000
3300
0000
0012
0000
0000
,  // measure 36
0103
2010
3100
0110
,  // measure 37
1001
0000
0001
0010
0000
0100
0010
0000
0001
1000
0000
1000
,  // measure 38
0010
0000
0100
0010
0000
1000
0001
0000
0001
1000
0001
2000
,  // measure 39
0020
0000
0000
3030
0000
0202
0000
0303
0000
0021
0000
0000
,  // measure 40
1030
0201
1300
0110
,  // measure 41
1002
0100
2003
0100
,  // measure 42
3001
0000
1000
0100
0000
0010
0001
1000
0001
1000
0000
0000
,  // measure 43
1010
0202
0300
1003
,  // measure 44
0011
2200
0300
3001
,  // measure 45
1010
0101
0011
1100
,  // measure 46
2002
0000
0000
3003
0000
0000
0010
0000
0100
0010
0000
0000
,  // measure 47
2002
0000
0000
3003
0000
0000
1000
0000
0100
0010
0000
0100
,  // measure 48
1000
0000
0001
1000
0000
0010
0100
0000
0001
0010
0000
0100
,  // measure 49
2000
3010
0102
0013
,  // measure 50
1200
0000
0000
0301
0000
0000
0110
0000
0000
1001
0000
0001
,  // measure 51
0100
0000
0100
1000
0000
1000
0010
0000
0010
0001
0000
1000
,  // measure 52
0100
0000
0100
0001
0000
0001
0010
0000
0010
1000
0000
0000
,  // measure 53
1100
0101
1010
0011
,  // measure 54
1001
0000
0001
0010
0000
0100
1000
0010
0100
0010
0100
0002
,  // measure 55
2000
0000
0000
3003
0000
0000
0001
0000
0100
0010
0000
0100
,  // measure 56
0001
0000
1000
0001
0000
0010
0100
0000
1000
0010
0000
0100
,  // measure 57
0002
0013
2100
3010
,  // measure 58
0201
0000
0000
1300
0000
0000
0110
0000
0000
1001
0000
1000
,  // measure 59
0100
0000
0100
0001
0000
0001
0010
0000
0010
1000
0000
0001
,  // measure 60
0100
0000
0100
1000
0000
1000
0010
0000
0010
0001
0000
0000
,  // measure 61
0101
1100
0011
1010
,  // measure 62
1001
0000
1000
0010
0000
0100
0001
0000
0010
0100
0000
1000
,  // measure 63
0002
0013
1200
0310
,  // measure 64
2001
0000
0000
3010
0000
0000
0201
0000
0000
0310
0000
1000
,  // measure 65
0001
0000
0010
0100
0000
1000
0010
0000
0100
0001
0000
0000
,  // measure 66
0011
0000
0000
1100
0000
0000
1010
0000
0000
0101
0000
0001
,  // measure 67
0010
0000
0100
0010
0000
0001
1000
0000
0010
0100
0000
0010
,  // measure 68
1000
0000
0100
0010
0000
0001
0100
0000
0010
1000
0001
2000
,  // measure 69
0002
0000
0000
3003
,  // measure 70
0220
0330
2002
3003
,  // measure 71
0101
0000
0000
1010
0000
0000
0011
0000
0000
0100
0000
1000
,  // measure 72
0001
0000
1000
0010
0000
0100
0001
0000
0001
1000
0000
0000
,  // measure 73
1100
0000
0000
0011
0000
0000
1010
0000
0000
0100
0000
0001
,  // measure 74
0010
0100
1000
0010
0100
0001
1000
0000
0000
2002
0000
0000
,  // measure 75
0000
0000
3003
0000
;
