#TITLE:IIDX;
#SUBTITLE:;
#ARTIST:DJ SIMON;
#TITLETRANSLIT:;
#SUBTITLETRANSLIT:;
#ARTISTTRANSLIT:;
#GENRE:HIPHOP;
#CREDIT:;
#MUSIC:IIDX.ogg;
#BANNER:IIDX.png;
#BACKGROUND:IIDX-bg.png;
#CDTITLE:;
#SAMPLESTART:18.735;
#SAMPLELENGTH:15.534;
#SELECTABLE:YES;
#OFFSET:3.049;
#BPMS:0.000=110.000;
#STOPS:;
#LASTBEATHINT:5.477815;
#BGCHANGES:3.000=IIDX.avi=1.000=0=0=1,
99999.000=-nosongbg-=1.000=0=0=0=StretchNoLoop====
;
#FGCHANGES:;

//--------------- dance-single - forcednature ----------------
#NOTES:
     dance-single:
     forcednature:
     Beginner:
     3:
     0.126703,0.186253,0.022173,0,0,80,78,2,0,0,0,0.126703,0.186253,0.022173,0,0,80,78,2,0,0,0:
0000
0000
0000
0000
,
0000
0000
0000
0000
,
0000
0000
0000
0000
,
0000
0000
0000
0000
,
0000
0000
0000
0000
,
0000
0000
0000
0000
,
0100
0000
0000
0000
,
0100
0000
0000
0000
,
0100
0000
0100
0000
,
0010
0010
0010
0010
,
1000
0000
0000
0000
,
0001
0000
0000
0000
,
0010
0000
0010
0000
,
0100
0000
0100
0000
,
1000
0000
0000
0000
,
0001
0000
0000
0000
,
0100
0000
0100
0000
,
0010
0000
0010
0000
,
1000
0001
0000
0001
,
0000
0001
0000
0000
,
0001
1000
0000
1000
,
0000
1000
0000
0000
,
0100
1000
0000
1000
,
0000
1000
0000
0100
,
0000
0001
0000
0001
,
0000
0001
0010
0010
,
0000
1001
0000
0100
,
0000
0010
0010
0010
,
0000
1001
0000
0100
,
0000
0010
0010
0010
,
1000
0100
0000
0100
,
0000
0010
0100
0100
,
0001
0000
0100
0000
,
1000
1000
1000
1000
,
0010
0000
0100
0000
,
0001
0000
1000
0000
,
0100
0000
0010
0000
,
0100
0000
1000
0000
,
0001
0000
0100
0000
,
0001
0000
0010
0000
,
0001
0000
1000
0000
,
0001
0000
0100
0100
,
0100
0000
0000
0000
;

//--------------- dance-single - forcednature ----------------
#NOTES:
     dance-single:
     forcednature:
     Easy:
     5:
     0.224897,0.279379,0.177384,0,0,142,126,16,0,0,0,0.224897,0.279379,0.177384,0,0,142,126,16,0,0,0:
0000
0000
0000
0000
,
0000
0000
0000
0000
,
0000
0000
0000
0000
,
0000
0000
0000
0000
,
0000
0000
0000
0000
,
0000
0000
0000
0000
,
0001
0001
0100
1000
,
0001
0001
0100
1000
,
0001
0100
0001
1000
,
0100
0100
0100
0100
,
0010
0100
0000
1000
,
0010
1000
0000
0001
,
0010
0100
0000
0010
,
0001
0100
0010
0010
,
0100
0001
0000
1000
,
0010
1000
0000
0100
,
0010
0100
0000
1000
,
0001
0100
0010
0010
,
0100
0001
0000
0010
,
0000
0100
0100
0100
,
1000
0001
0000
0100
,
0000
0010
0010
0010
,
1000
0100
0000
0010
,
0000
0100
0100
0100
,
1000
0001
0000
1000
,
0000
0010
0010
0010
,
0100
1001
0000
0110
,
0000
1001
0010
0100
,
0010
1001
0000
0110
,
0000
1001
0100
0010
,
1001
0100
0000
0010
,
0000
0000
0100
0000
0010
0010
0010
0000
,
0001
1000
0001
1000
,
0010
0010
0010
0010
,
0100
1001
0001
1000
,
0100
0110
0001
1000
,
0010
0110
0100
0001
,
1000
1001
0001
0010
,
0100
0110
0010
0001
,
1000
1001
0001
0100
,
0010
0110
0100
0001
,
1000
1001
0001
0010
,
1001
0000
0000
0000
;

//--------------- dance-single - forcednature ----------------
#NOTES:
     dance-single:
     forcednature:
     Medium:
     8:
     0.362686,0.374723,0.133038,0.044346,0.060976,229,217,12,4,0,0,0.362686,0.374723,0.133038,0.044346,0.060976,229,217,12,4,0,0:
0000
0000
0000
0000
,
0000
0000
0000
0000
,
0000
0000
0000
0000
,
0000
0000
0000
0000
,
0000
0000
0000
0000
,
0000
0000
0000
0000
,
1000
0000
0000
0001
0000
0000
1000
0000
0010
0000
0000
0000
0100
0000
0000
0000
,
0001
0000
0000
1000
0000
0000
0001
0000
0010
0000
0100
0000
0100
0000
0000
0000
,
1000
1000
0100
0000
0001
0001
0100
0000
,
0010
0100
1000
0001
0100
0010
1000
0001
,
1000
0100
1000
0000
0001
0100
0001
0000
,
0010
0100
0010
0000
0001
1000
1000
0000
,
0010
0100
0001
0000
1000
0100
0010
0000
,
0100
1000
0001
0000
0100
0000
0110
0000
,
0001
1000
0010
0000
0100
1000
0100
0000
,
0001
0010
0100
0000
1000
0010
0010
0000
,
1000
0100
0001
0000
0100
0010
0001
0000
,
0100
0010
1000
0000
0100
0000
0110
0000
,
1000
0000
0001
0000
0100
0000
0001
0000
0000
0001
0000
0000
0001
0000
0000
0000
,
0001
1000
0100
1000
0100
1000
0100
0000
,
0010
0000
0001
0000
0100
0000
0010
0000
0000
0010
0000
0000
0010
0000
0000
0000
,
0100
1000
1000
0000
0100
0001
0001
0000
,
0010
0000
0100
0000
1000
0000
0001
0000
0000
1000
0000
0000
0001
0000
0000
0000
,
1000
0001
0100
0001
0100
0001
0100
0010
,
1000
0000
0001
0000
1000
0000
0100
0000
0000
0010
0000
0000
0100
0000
0000
0000
,
1000
0000
0000
0001
0000
0000
0100
0000
0101
0000
0000
0000
1100
0000
0000
0000
,
1001
0000
0000
0000
0010
0000
0000
0100
0001
0000
0100
0000
0001
0000
0000
0000
,
1001
0000
0000
0000
0010
0000
0000
0100
1000
0000
0100
0000
1000
0000
0000
0000
,
1001
0000
0000
0000
0010
0000
0000
1000
0100
0000
0001
0000
0100
0000
0000
0000
,
1001
0000
0000
0000
0010
0000
0000
0001
0100
0000
1000
0000
0100
0000
0000
0000
,
0110
0001
0000
1000
,
0000
0000
0100
0000
0010
0010
0010
0000
,
0201
1300
1200
0301
,
1000
0100
0001
0100
1000
0100
0001
0100
,
0010
0010
0010
0000
0001
0010
0100
0000
,
1000
0001
0100
0000
0010
1000
0100
0000
,
0010
0010
0001
0001
0100
0100
0010
0000
,
1000
1000
0001
0001
1000
1000
0100
0000
,
0010
0100
1000
0000
0010
0100
0001
0000
,
1000
0100
0001
0000
0100
1000
0010
0000
,
1000
1000
0100
0100
0010
0010
0001
0000
,
0100
0100
0010
0010
1000
1000
0001
0000
,
2002
3003
0000
0000
;

//--------------- dance-single - forcednature ----------------
#NOTES:
     dance-single:
     forcednature:
     Hard:
     11:
     0.56541,0.608925,0.521064,0.110865,0.310421,357,310,47,10,0,0,0.56541,0.608925,0.521064,0.110865,0.310421,357,310,47,10,0,0:
0000
0000
0000
0000
,
0000
0000
0000
0000
,
0000
0000
0000
0000
,
0000
0000
0000
0000
,
0000
0000
0000
0000
,
0000
0000
0000
0000
,
0001
0100
0010
1000
0000
0001
1000
0000
0100
0000
0010
0000
0110
0000
0000
0000
,
1000
0001
1000
0010
0000
0100
0001
0000
0010
0000
0100
0000
0001
0000
0100
0000
,
1000
0001
1000
0010
0000
0100
0010
0000
1000
0100
1000
0001
0000
0010
0001
0000
,
0101
1000
1100
0001
0011
1000
1010
0001
,
1001
0000
0001
0100
0010
0000
1000
0000
0001
0000
1000
0000
1100
0000
0000
0000
,
0110
0000
0010
0001
1000
0000
0001
0000
0101
0000
1000
0000
1010
0000
0000
0000
,
1100
0000
0010
0001
1000
0000
0001
0000
0100
0000
0010
0000
1001
0000
0000
0000
,
1100
0000
0001
0100
0010
0000
1000
0000
0101
0000
0010
0000
1100
0000
0000
0000
,
1001
0000
0001
1000
0010
0000
0001
0000
0010
0000
1000
0000
1100
0000
0000
0000
,
0011
0000
0001
1000
0100
0000
0001
0000
0100
0000
0010
0000
0011
0000
0000
0000
,
1100
0000
1000
0010
0100
0000
1000
0000
0100
0000
0001
0000
0011
0000
0000
0000
,
0101
0000
0001
0010
0100
0000
1000
0000
0101
0000
0010
0000
1100
0000
0000
0000
,
0001
0100
2000
0000
3001
0010
2000
0000
,
3100
0010
1010
0010
0010
0010
0110
0001
,
1000
0010
0002
0000
1003
0100
0002
0000
,
1003
0000
0100
1000
0001
0000
0001
0000
1000
0000
0100
1000
0001
0000
0100
0000
,
1000
0100
0002
0000
1003
0100
0002
0000
,
0103
0010
1010
0010
0010
0010
0011
0001
,
0100
0010
2001
0000
3100
0010
1002
0000
,
1003
0001
0100
0010
0000
1000
0001
0000
0101
0000
0010
0000
1100
0000
0000
0000
,
1001
0000
0001
0000
0010
0000
0000
0100
0100
0000
0100
0000
0010
0000
0000
0000
,
0011
0000
1000
0000
0001
0010
0100
0000
1000
0001
0100
0000
0010
0000
0000
0000
,
0101
0000
1000
0000
0010
0000
0000
0100
0100
0000
0100
0000
0010
0000
0000
0000
,
1001
0000
0001
0000
0010
0001
0100
0000
1000
0100
0001
0000
0110
0000
0000
0000
,
1001
0000
0001
0000
0100
0000
0000
0010
1000
0000
1000
0000
0100
0000
0000
0100
,
0010
0000
0010
0000
0001
0000
0000
0000
0100
0001
0100
1000
0100
0000
0000
0000
,
1010
0010
0100
0001
0011
0010
0100
1000
,
0100
1000
0010
0000
0100
0001
0010
0000
0100
1000
0001
0000
0100
0001
1000
0000
,
1010
0000
0010
0100
0001
0000
0010
0100
1000
0000
0001
0000
1000
0000
0000
0100
,
0001
0000
0100
1000
0010
0000
0100
0001
1000
0000
0010
0000
0110
0000
0100
0000
,
0100
0000
1000
0100
0001
0000
0010
0100
1000
0000
0001
0000
0100
0000
0010
0000
,
1000
0000
0001
0010
1000
0000
0010
0100
1000
0000
0001
0000
0101
0000
0000
0000
,
1010
0000
0001
0100
1000
0000
0100
0001
0010
0000
0100
0000
1000
0000
1000
0000
,
0100
0000
0001
0100
1000
0000
0010
1000
0100
0000
0010
0000
0011
0000
1000
0000
,
1000
0000
0010
0100
1000
0000
0100
0001
1000
0000
0100
0000
0001
0000
0100
0000
,
0010
0000
1000
0010
0001
0000
1000
0010
0100
0000
1000
0000
0110
0000
0001
0000
,
2002
3003
0000
0000
;

//--------------- dance-double - forcednature ----------------
#NOTES:
     dance-double:
     forcednature:
     Easy:
     5:
     0.223313,0.279379,0.144124,0,0,141,128,13,0,0,0,0.223313,0.279379,0.144124,0,0,141,128,13,0,0,0:
00000000
00000000
00000000
00000000
,
00000000
00000000
00000000
00000000
,
00000000
00000000
00000000
00000000
,
00000000
00000000
00000000
00000000
,
00000000
00000000
00000000
00000000
,
00000000
00000000
00000000
00000000
,
00001000
00010000
00001000
01000000
,
00001000
00010000
00001000
00000100
,
00001000
00010000
00001000
00010000
,
01000000
01000000
01000000
01000000
,
10000000
00010000
00000000
01000000
,
00001000
00010000
00000000
00000100
,
00001000
00000001
00001000
00000001
,
00000100
00000010
00000100
00000010
,
00000100
00001000
00000000
00010000
,
01000000
10000000
00000000
00010000
,
00100000
01000000
00100000
01000000
,
10000000
00010000
10000000
00010000
,
01000000
00001000
00000000
00010000
,
00000000
00000100
00000100
00000100
,
00000010
00000001
00000000
00000100
,
00000000
00001000
00001000
00001000
,
00010000
01000000
00000000
00100000
,
00000000
00010000
00010000
00010000
,
10000000
00100000
00000000
00010000
,
00000000
00001000
00001000
00001000
,
00000010
00001001
00000000
00000110
,
00000000
00000100
00010000
00001000
,
01000000
10010000
00000000
01100000
,
00000000
10000000
00010000
01000000
,
00001000
00010000
00000000
00000100
,
00000000
00000000
00001000
00000000
00000010
00000010
00000010
00000000
,
00000100
00001000
00010000
01000000
,
10000000
10000000
10000000
10000000
,
00100000
10010000
01000000
00001000
,
00010000
00011000
00000100
00001000
,
00000001
00001001
00001000
00000010
,
00010000
00011000
00001000
00100000
,
00010000
01100000
10000000
00010000
,
01000000
00011000
00000100
00001000
,
00000001
00000110
00001000
00000001
,
00000010
00011000
01000000
00001000
,
00011000
00000000
00000000
00000000
;

//--------------- dance-double - forcednature ----------------
#NOTES:
     dance-double:
     forcednature:
     Medium:
     8:
     0.343681,0.374723,0.121951,0.022173,0.027716,217,206,11,2,0,0,0.343681,0.374723,0.121951,0.022173,0.027716,217,206,11,2,0,0:
00000000
00000000
00000000
00000000
,
00000000
00000000
00000000
00000000
,
00000000
00000000
00000000
00000000
,
00000000
00000000
00000000
00000000
,
00000000
00000000
00000000
00000000
,
00000000
00000000
00000000
00000000
,
00001000
00000000
00000000
01000000
00000000
00000000
00010000
00000000
10000000
00000000
00000000
00000000
00100000
00000000
00000000
00000000
,
10000000
00000000
00000000
01000000
00000000
00000000
00100000
00000000
00010000
00000000
01000000
00000000
01000000
00000000
00000000
00000000
,
00001000
00000000
00000000
00010000
00000000
00000000
00000100
00000000
00001000
00000000
00000000
00000001
00000000
00000000
00000100
00000000
,
00000010
00001000
00000010
00010000
00001000
01000000
00010000
01000000
,
00100000
00000000
10000000
00000000
00010000
00100000
01000000
00000000
,
00010000
00001000
00000010
00000000
00000100
00001000
00001000
00000000
,
00000001
00000000
00000100
00000000
00000010
00001000
00000100
00000000
,
00000010
00001000
00010000
00000000
01100000
00000000
01100000
00000000
,
10000000
00000000
00010000
00000000
10000000
01000000
00010000
00000000
,
00001000
00000010
00000100
00000000
00001000
00000001
00000001
00000000
,
00000100
00000000
00001000
00000000
00010000
01000000
00100000
00000000
,
00010000
10000000
00100000
00000000
00010000
00001000
00010000
00000000
,
00010100
00001000
00010000
01000000
,
10000000
00010000
10000000
01000000
00010000
00001000
00010000
00000100
,
00001000
00000001
00000100
00000010
,
00000100
00001000
00001000
00000000
00010000
00001000
01000000
00000000
,
00100000
10000000
01000000
00010000
,
00001000
00000010
00001000
00010000
00100000
00010000
00001000
00000100
,
00000001
00000010
00000100
00010000
,
00001000
00000000
00000000
01000000
00000000
00000000
00010000
00000000
10000000
00000000
00000000
00000000
10010000
00000000
00000000
00000000
,
01100000
00110000
00000000
00011000
,
00000100
00001000
00000100
00000001
00000100
00001000
00000010
00000000
,
00000100
00011000
00000000
01010000
,
00100000
10000000
00100000
00010000
00001000
00000000
00011000
00000000
,
00000100
00010000
00000000
01000000
,
00000000
00000000
10000000
00000000
00100000
00100000
00100000
00000000
,
00010000
00001000
00000010
00000000
00001000
00010000
00100000
00000000
,
00010000
00001000
00000100
00000001
00000100
00001000
00010000
01000000
,
10000000
00010000
01000000
00000000
00100000
10000000
00010000
00000000
,
00100000
01000000
00010000
00001000
00000010
00000100
00001000
00000000
,
00000001
00000001
00000100
00000100
00001000
00001000
00010000
00000000
,
01000000
01000000
00100000
00100000
00010000
00010000
10000000
00000000
,
00100000
10000000
01000000
00000000
00010000
00001000
00000100
00000000
,
00000001
00001000
00000010
00000100
00001000
00010000
00100000
00000000
,
01000000
01000000
10000000
10000000
01000000
01000000
00001000
00000000
,
00010000
00010000
00000100
00000100
00000001
00000001
00000100
00000000
,
00022000
00033000
00000000
00000000
;

//--------------- dance-double - forcednature ----------------
#NOTES:
     dance-double:
     forcednature:
     Hard:
     12:
     0.551156,0.608925,0.421286,0.022173,0.310421,348,310,38,2,0,0,0.551156,0.608925,0.421286,0.022173,0.310421,348,310,38,2,0,0:
00000000
00000000
00000000
00000000
,
00000000
00000000
00000000
00000000
,
00000000
00000000
00000000
00000000
,
00000000
00000000
00000000
00000000
,
00000000
00000000
00000000
00000000
,
00000000
00000000
00000000
00000000
,
00001000
00010000
01000000
00100000
00000000
00010000
10000000
00000000
00100000
00000000
00010000
00000000
00011000
00000000
00000000
00000000
,
00010000
00001000
00000100
00000010
00000000
00001000
00000001
00000000
00000010
00000000
00001000
00000000
00100000
00000000
00001000
00000000
,
00010000
00100000
00010000
00001000
00000000
00010000
01000000
00000000
00010000
00001000
00000100
00001000
00000000
00010000
00001000
00000000
,
00010010
00000100
00101000
01000000
00010100
00000010
01001000
00100000
,
00011000
00000000
00001000
00010000
01000000
00000000
10000000
00000000
00100000
00000000
01000000
00000000
01001000
00000000
00000000
00000000
,
00010100
00000000
00000100
00001000
00000010
00000000
00000100
00000000
00001000
00000000
00010000
00000000
00110000
00000000
00000000
00000000
,
00011000
00000000
00001000
00000010
00000001
00000000
00000100
00000000
00000010
00000000
00010000
00000000
00010100
00000000
00000000
00000000
,
01001000
00000000
00010000
10000000
01000000
00000000
00010000
00000000
00001000
00000000
00000010
00000000
00000011
00000000
00000000
00000000
,
00001100
00000000
00000100
00010000
00001000
00000000
01000000
00000000
00100000
00000000
00010000
00000000
00011000
00000000
00000000
00000000
,
00101000
00000000
00100000
01000000
10000000
00000000
00100000
00000000
00001000
00000000
00000010
00000000
00000110
00000000
00000000
00000000
,
00001001
00000000
00001000
00000100
00000010
00000000
00010000
00000000
00100000
00000000
00010000
00000000
10010000
00000000
00000000
00000000
,
01001000
00000000
00001000
00010000
00000100
00000000
00000010
00000000
00000001
00000000
00000100
00000000
00001001
00000000
00000000
00000000
,
00000001
00000100
00001000
00000000
00010000
01000000
10000000
00000000
,
00100000
00010000
00000010
00010000
00001000
00010000
01000000
00010000
,
00001000
00000010
00000100
00000000
00010000
00100000
01000000
00000000
,
00010000
00000000
01000000
00001000
00010000
00000000
00000100
00000000
00001000
00000000
00000100
00010000
00001000
00000000
01000000
00000000
,
10000000
01000000
00001000
00000000
00010000
00000100
00000001
00000000
,
00000100
00001000
00100000
00001000
00000010
00001000
01000000
00001000
,
00000100
00010000
00011000
00000000
01000000
00001000
00011000
00000000
,
00000100
00001000
00000001
00000100
00000000
00000010
00001000
00000000
00010000
00000000
01000000
00000000
10010000
00000000
00000000
00000000
,
10100000
00000000
10000000
00000000
01000000
00000000
00000000
00010000
00010000
00000000
00001000
00000000
00000010
00000000
00000000
00000000
,
00000011
00000000
00000001
00000000
00000100
00001000
00010000
00000000
00001000
00010000
01000000
00000000
00100000
00000000
00000000
00000000
,
11000000
00000000
00100000
00000000
00001000
00000000
00000000
00000010
00000010
00000000
00000100
00000000
00010000
00000000
00000000
00000000
,
00011000
00000000
00001000
00000000
00000100
00000001
00000010
00000000
00000100
00010000
00001000
00000000
01000000
00000000
00000000
00000000
,
00110000
00000000
00001000
00000000
00010000
00000000
00000000
00000100
00000010
00000000
00000010
00000000
00000001
00000000
00000000
00000100
,
00001000
00000000
00001000
00000000
00010000
00000000
00000000
00000000
00100000
00010000
00001000
00010000
00000010
00000000
00000000
00000000
,
00010100
00001000
01000000
00100000
01001000
00010000
00000100
00000010
,
00000001
00000100
00001000
00000000
00000100
00001000
00010000
00000000
00001000
00010000
01000000
00000000
00010000
01000000
10000000
00000000
,
10100000
00000000
00100000
01000000
00001000
00000000
00010000
00000100
00000010
00000000
00000001
00000000
00000100
00000000
00000000
00000100
,
00001000
00000000
00010000
00100000
01000000
00000000
00010000
10000000
01000000
00000000
00100000
00000000
00110000
00000000
00001000
00000000
,
00001000
00000000
00000100
00000001
00000010
00000000
00000100
00010000
00001000
00000000
00000100
00000000
00010000
00000000
01000000
00000000
,
00100000
00000000
10000000
01000000
00010000
00000000
00001000
00000010
00000001
00000000
00000100
00000000
00000110
00000000
00000000
00000000
,
00011000
00000000
00010000
00001000
01000000
00000000
00100000
00010000
00001000
00000000
00100000
00000000
10000000
00000000
00100000
00000000
,
01000000
00000000
10000000
00010000
01000000
00000000
00100000
00010000
00001000
00000000
00000010
00000000
00000110
00000000
00000001
00000000
,
00000001
00000000
00000100
00001000
00010000
00000000
00100000
10000000
00010000
00000000
00100000
00000000
00001000
00000000
00000010
00000000
,
00000100
00000000
00001000
00000001
00000100
00000000
00001000
00010000
01000000
00000000
10000000
00000000
01010000
00000000
00100000
00000000
,
00022000
00033000
00000000
00000000
;
